osu file format v13

[General]
AudioFilename: Marina and the Diamonds - Power & Control.mp3
AudioLeadIn: 0
PreviewTime: 32217
Countdown: 0
SampleSet: Soft
StackLeniency: 0.7
Mode: 0
LetterboxInBreaks: 0
WidescreenStoryboard: 0

[Editor]
DistanceSpacing: 1
BeatDivisor: 4
GridSize: 4
TimelineZoom: 2.1

[Metadata]
Title:Power & Control
TitleUnicode:Power & Control
Artist:Marina and The Diamonds
ArtistUnicode:Marina and The Diamonds
Creator:Mystyk
Version:Insane
Source:
Tags:electra heart and lambrini diamandis electropop
BeatmapID:214693
BeatmapSetID:76127

[Difficulty]
HPDrainRate:7
CircleSize:4
OverallDifficulty:7
ApproachRate:8
SliderMultiplier:1.8
SliderTickRate:2

[Events]
//Background and Video events
0,0,"Power_and_Control.jpg",0,0
//Break Periods
2,112417,127467
//Storyboard Layer 0 (Background)
//Storyboard Layer 1 (Fail)
//Storyboard Layer 2 (Pass)
//Storyboard Layer 3 (Foreground)
//Storyboard Sound Samples
//Background Colour Transformations
3,100,163,162,255

[TimingPoints]
217,500,4,2,1,90,1,0
32217,-100,4,2,1,90,0,1
46217,-100,4,2,1,90,0,0
48217,-100,4,2,1,90,0,1
64217,-100,4,2,1,90,0,0
80217,-100,4,2,1,90,0,1
94217,-100,4,2,1,90,0,0
96217,-100,4,2,1,90,0,1
112217,-100,4,2,1,90,0,0
128217,-100,4,2,1,70,0,0
144217,-100,4,2,1,90,0,0
176217,-100,4,2,1,90,0,1
208217,-100,4,2,1,90,0,0

[Colours]
Combo1 : 216,216,216
Combo2 : 176,192,255
Combo3 : 128,0,255
Combo4 : 31,19,174

[HitObjects]
256,192,15967,5,0,1:1:0:0:
256,192,16092,1,0,1:1:0:0:
256,192,16217,2,0,P|316:248|376:192,2,180,2|0|0,0:0|0:0|0:0,0:0:0:0:
424,128,17717,1,0,0:0:0:0:
256,192,18217,2,0,P|196:248|136:192,2,180,2|0|0,0:0|0:0|0:0,0:0:0:0:
88,128,19717,1,0,0:0:0:0:
176,284,20217,5,2,0:0:0:0:
348,236,20717,1,0,0:0:0:0:
176,176,21217,1,2,0:0:0:0:
348,128,21717,1,0,0:0:0:0:
176,68,22217,5,2,0:0:0:0:
52,192,22717,1,0,0:0:0:0:
184,328,23217,2,0,P|256:284|332:328,1,180,2|0,0:0|0:0,0:0:0:0:
440,188,24217,6,0,B|480:132|400:80|440:12,2,180,2|0|2,0:0|0:0|0:0,0:0:0:0:
256,228,25717,1,0,0:0:0:0:
72,196,26217,2,0,B|32:252|112:304|72:372,2,180,2|0|2,0:0|0:0|0:0,0:0:0:0:
256,84,27717,1,0,0:0:0:0:
256,84,27967,5,0,0:0:0:0:
408,24,28217,1,2,0:0:0:0:
316,16,28467,1,0,0:0:0:0:
472,88,28717,1,2,0:0:0:0:
396,244,28967,1,0,0:0:0:0:
456,176,29217,1,2,0:0:0:0:
324,300,29467,1,0,0:0:0:0:
188,300,29717,5,2,0:0:0:0:
256,360,29967,1,0,0:0:0:0:
116,244,30217,1,2,0:0:0:0:
40,88,30467,1,0,0:0:0:0:
196,16,30717,1,2,0:0:0:0:
56,176,30967,1,0,0:0:0:0:
104,24,31217,1,2,0:0:0:0:
476,68,32217,6,0,P|472:116|448:148,1,90,4|0,0:0|0:0,0:0:0:0:
320,168,32717,2,0,P|324:120|348:88,1,90,8|0,0:0|0:0,0:0:0:0:
448,148,33217,2,0,P|444:196|420:228,1,90
400,316,33717,1,8,0:0:0:0:
328,372,33967,2,0,B|292:360|256:320|256:320|220:360|180:372,1,180,2|0,0:0|0:0,0:0:0:0:
96,304,34717,1,8,0:0:0:0:
144,196,34966,2,0,P|180:224|204:264,1,90,2|0,0:0|0:0,0:0:0:0:
68,224,35467,6,0,P|40:188|28:144,2,90,2|8|0,0:0|0:0|0:0,0:0:0:0:
128,156,36217,2,0,B|96:76|176:12|176:12|256:80|256:80|336:12|336:12|416:76|384:156,1,540,2|8,2:0|0:0,0:0:0:0:
300,192,37967,1,0,0:0:0:0:
212,216,38217,2,0,P|276:281|355:261,1,180,2|8,2:0|0:0,0:0:0:0:
412,192,38967,1,0,0:0:0:0:
408,104,39217,2,0,P|364:116|336:148,1,90,2|0,2:0|0:0,0:0:0:0:
256,192,39717,1,8,0:0:0:0:
212,272,39967,1,0,1:1:0:0:
212,272,40092,1,0,1:1:0:0:
212,272,40217,6,0,P|176:240|164:200,1,90,4|0,1:1|0:0,0:0:0:0:
248,32,40717,2,0,P|236:70|200:102,1,90,8|0,0:0|0:0,0:0:0:0:
48,200,41217,2,0,P|60:162|96:130,1,90,0|0,0:0|0:0,0:0:0:0:
176,172,41717,1,8,0:0:0:0:
264,160,41967,2,0,P|352:183|372:263,1,180,2|0,2:0|0:0,0:0:0:0:
284,248,42717,1,8,0:0:0:0:
420,140,42967,2,0,P|440:178|450:222,1,90,2|0,2:0|0:0,0:0:0:0:
412,304,43467,5,2,0:0:0:0:
304,376,43717,1,8,0:0:0:0:
284,248,43967,1,2,0:0:0:0:
224,132,44217,2,0,P|168:76|76:96,1,180,0|8,2:0|0:0,0:0:0:0:
284,248,45217,2,0,P|331:311|425:304,1,180,0|8,2:0|0:0,0:0:0:0:
256,192,46217,12,0,47217,0:0:0:0:
392,192,47717,5,0,1:1:0:0:
400,208,47842,1,0,1:1:0:0:
405,227,47967,1,0,1:1:0:0:
407,245,48092,1,0,1:1:0:0:
407,264,48217,5,4,1:1:0:0:
256,340,48467,1,0,0:0:0:0:
104,260,48717,1,8,0:0:0:0:
256,260,48967,1,0,0:0:0:0:
104,340,49217,1,0,0:0:0:0:
180,220,49467,1,0,0:0:0:0:
108,104,49717,1,8,0:0:0:0:
256,100,49967,1,0,0:0:0:0:
404,104,50217,5,0,0:0:0:0:
256,100,50467,1,0,0:0:0:0:
332,220,50717,1,8,0:0:0:0:
408,340,50967,1,0,0:0:0:0:
256,260,51217,1,0,0:0:0:0:
408,260,51467,1,0,0:0:0:0:
256,340,51717,1,8,0:0:0:0:
105,264,51967,5,0,0:0:0:0:
328,244,52217,2,0,P|356:204|360:164,1,90
360,144,52592,1,0,0:0:0:0:
356,124,52717,2,0,P|332:81|298:60,1,90,8|0,0:0|0:0,0:0:0:0:
212,88,53217,2,0,P|208:128|180:168,1,90
164,168,53592,1,0,0:0:0:0:
148,164,53717,2,0,P|72:200|72:288,1,180,8|0,0:0|0:0,0:0:0:0:
156,324,54467,5,0,0:0:0:0:
228,380,54717,1,8,0:0:0:0:
316,372,54967,1,0,0:0:0:0:
368,300,55217,1,0,0:0:0:0:
368,212,55467,1,0,0:0:0:0:
300,152,55717,1,8,0:0:0:0:
212,160,55967,5,0,1:1:0:0:
212,160,56092,1,0,1:1:0:0:
212,160,56217,2,0,P|228:208|260:228,1,90,4|0,1:1|0:0,0:0:0:0:
384,144,56717,2,0,P|368:96|336:76,1,90,8|0,0:0|0:0,0:0:0:0:
152,88,57217,2,0,P|124:132|124:168,1,90,0|0,0:0|0:0,0:0:0:0:
256,304,57717,6,0,P|276:228|212:160,1,180,8|0,0:0|0:0,0:0:0:0:
152,88,58467,1,0,0:0:0:0:
64,80,58717,2,0,P|72:124|100:160,1,90,8|0,0:0|0:0,0:0:0:0:
352,140,59217,2,0,P|360:91|349:51,1,90
268,12,59717,1,8,0:0:0:0:
256,100,59967,5,0,0:0:0:0:
292,184,60217,2,0,L|382:184,1,90
224,240,60717,2,0,L|134:240,1,90,8|0,0:0|0:0,0:0:0:0:
292,300,61217,1,0,0:0:0:0:
224,240,61467,1,0,0:0:0:0:
292,184,61717,1,8,0:0:0:0:
256,192,61967,12,0,63217,0:0:0:0:
256,252,63717,5,0,1:1:0:0:
256,273,63842,1,0,1:1:0:0:
256,295,63967,1,0,1:1:0:0:
256,316,64092,1,0,1:1:0:0:
256,332,64217,6,0,P|172:360|108:304,2,180,2|0|2,0:0|0:0|0:0,0:0:0:0:
256,152,65717,1,0,0:0:0:0:
256,332,66217,2,0,P|340:360|404:304,2,180,2|0|2,0:0|0:0|0:0,0:0:0:0:
256,152,67717,1,0,0:0:0:0:
124,28,68217,6,0,P|56:68|64:160,1,180,2|0,0:0|0:0,0:0:0:0:
148,320,69217,2,0,P|232:304|256:220,1,180,2|0,0:0|0:0,0:0:0:0:
388,28,70217,2,0,P|456:68|448:160,1,180,2|0,0:0|0:0,0:0:0:0:
364,320,71217,2,0,P|280:304|256:220,1,180,2|0,0:0|0:0,0:0:0:0:
128,96,72217,5,2,0:0:0:0:
128,96,72717,1,0,0:0:0:0:
128,288,73217,1,2,0:0:0:0:
128,288,73717,1,0,0:0:0:0:
384,288,74217,5,2,0:0:0:0:
384,288,74717,1,0,0:0:0:0:
384,96,75217,1,2,0:0:0:0:
272,204,75717,1,0,0:0:0:0:
272,204,75967,5,0,0:0:0:0:
352,152,76217,1,2,0:0:0:0:
224,36,76467,1,0,0:0:0:0:
276,108,76717,1,2,0:0:0:0:
136,16,76967,1,0,0:0:0:0:
72,148,77217,1,2,0:0:0:0:
60,60,77467,1,0,0:0:0:0:
44,232,77717,5,2,0:0:0:0:
136,368,77967,1,0,0:0:0:0:
60,324,78217,1,2,0:0:0:0:
224,348,78467,1,0,0:0:0:0:
352,232,78717,1,2,0:0:0:0:
276,276,78967,1,0,0:0:0:0:
432,192,79217,1,2,0:0:0:0:
432,192,80217,6,0,P|460:225|470:269,1,90,4|0,0:0|0:0,0:0:0:0:
416,344,80717,1,8,0:0:0:0:
328,324,80967,2,0,P|287:304|243:300,1,90,2|0,2:0|0:0,0:0:0:0:
152,312,81467,2,0,P|108:304|68:280,1,90,2|8,2:0|0:0,0:0:0:0:
48,192,81967,2,0,B|132:152|136:240|220:192,1,180,2|0,2:0|0:0,0:0:0:0:
276,120,82717,1,8,0:0:0:0:
348,64,82967,2,0,P|391:76|423:109,1,90,2|0,2:0|0:0,0:0:0:0:
432,192,83467,5,2,2:0:0:0:
412,320,83717,1,8,0:0:0:0:
316,232,83967,1,2,2:0:0:0:
256,112,84217,6,0,P|60:212|256:308,1,540,2|8,0:0|0:0,0:0:0:0:
314,173,85967,2,0,P|246:221|254:309,1,180,0|0,0:0|0:0,0:0:0:0:
332,352,86717,1,8,0:0:0:0:
420,356,86967,2,0,P|479:288|452:209,1,180
404,136,87717,1,0,1:1:0:0:
420,48,87967,1,0,1:1:0:0:
420,48,88092,1,0,1:1:0:0:
420,48,88217,6,0,P|376:32|332:36,1,90,4|0,1:1|0:0,0:0:0:0:
80,232,88717,2,0,P|124:244|168:232,1,90,8|0,0:0|0:0,0:0:0:0:
432,152,89217,2,0,P|388:140|344:152,1,90,0|0,0:0|0:0,0:0:0:0:
256,360,89717,1,8,0:0:0:0:
256,192,89967,2,0,B|228:104|284:104|256:16,1,180,2|2,2:0|2:0,0:0:0:0:
168,20,90717,1,8,0:0:0:0:
80,32,90967,2,0,P|52:68|48:112,1,90,2|0,2:0|0:0,0:0:0:0:
56,200,91467,5,2,2:0:0:0:
232,164,91717,1,8,0:0:0:0:
172,332,91967,1,2,2:0:0:0:
352,336,92217,2,0,P|440:340|496:276,1,180,0|8,2:0|0:0,0:0:0:0:
216,52,93217,2,0,P|128:48|72:112,1,180,0|8,2:0|0:0,0:0:0:0:
256,192,94217,12,0,95217,0:0:0:0:
212,72,95717,5,0,1:1:0:0:
232,66,95842,1,0,1:1:0:0:
254,64,95967,1,0,1:1:0:0:
275,65,96092,1,0,1:1:0:0:
296,68,96217,6,0,P|336:80|368:116,1,90,4|0,1:1|0:0,0:0:0:0:
300,284,96717,2,0,P|256:300|216:284,1,90,8|0,0:0|0:0,0:0:0:0:
144,115,97217,2,0,P|176:80|216:68,1,90,0|0,0:0|0:0,0:0:0:0:
384,148,97717,2,0,P|396:192|384:233,1,90,8|0,0:0|0:0,0:0:0:0:
164,296,98217,5,0,0:0:0:0:
252,148,98467,1,0,0:0:0:0:
64,156,98717,1,8,0:0:0:0:
300,220,98967,1,0,0:0:0:0:
116,224,99217,1,0,0:0:0:0:
200,80,99467,1,0,0:0:0:0:
204,220,99717,1,8,0:0:0:0:
276,40,99967,5,0,0:0:0:0:
412,116,100217,2,0,P|428:160|416:200,1,90
408,216,100592,1,0,0:0:0:0:
396,228,100717,2,0,P|364:248|312:248,1,90,8|0,0:0|0:0,0:0:0:0:
148,60,101217,2,0,P|173:31|222:21,1,90
240,24,101592,1,0,0:0:0:0:
257,29,101717,2,0,B|296:96|216:136|256:204,1,180,8|0,0:0|0:0,0:0:0:0:
344,192,102467,5,0,0:0:0:0:
300,272,102717,1,8,0:0:0:0:
212,272,102967,1,0,0:0:0:0:
168,192,103217,1,0,0:0:0:0:
212,112,103467,1,0,0:0:0:0:
300,112,103717,1,8,0:0:0:0:
344,192,103967,1,0,1:1:0:0:
344,192,104092,1,0,1:1:0:0:
344,192,104217,6,0,P|380:224|392:264,1,90,4|0,1:1|0:0,0:0:0:0:
256,344,104717,1,8,0:0:0:0:
84,336,104967,1,0,0:0:0:0:
168,192,105217,1,0,0:0:0:0:
324,312,105467,1,0,0:0:0:0:
152,304,105717,1,8,0:0:0:0:
236,160,105967,1,0,0:0:0:0:
396,272,106217,6,0,L|412:184,1,90
316,32,106717,2,0,L|300:120,1,90,8|0,0:0|0:0,0:0:0:0:
264,308,107217,2,0,L|280:220,1,90
184,68,107717,2,0,L|168:156,1,90,8|0,0:0|0:0,0:0:0:0:
144,244,108217,5,2,2:0:0:0:
224,200,108467,1,0,0:0:0:0:
312,180,108717,1,10,2:0:0:0:
384,128,108967,1,0,0:0:0:0:
340,48,109217,2,0,P|296:32|256:48,1,90,2|0,2:0|0:0,0:0:0:0:
173,134,109717,2,0,P|217:150|256:136,1,90,8|0,0:0|0:0,0:0:0:0:
328,216,110217,2,0,P|252:260|164:248,1,180,2|8,2:0|0:0,0:0:0:0:
80,284,110967,5,0,0:0:0:0:
152,340,111217,1,0,0:0:0:0:
240,348,111467,1,0,0:0:0:0:
328,328,111717,1,0,1:1:0:0:
348,321,111842,1,0,1:1:0:0:
367,310,111967,1,0,1:1:0:0:
383,296,112092,1,0,1:1:0:0:
397,279,112217,1,4,1:1:0:0:
256,68,128217,6,0,P|344:52|400:116,2,180,4|4|4,3:0|3:0|3:0,0:0:0:0:
228,152,129467,2,0,P|268:156|312:136,1,90,0|4,0:0|3:0,0:0:0:0:
392,188,129967,2,0,P|364:212|316:232,1,90,0|4,0:0|3:0,0:0:0:0:
136,192,130717,5,4,3:0:0:0:
256,324,131217,1,4,3:0:0:0:
376,192,131717,1,4,3:0:0:0:
332,112,131967,1,0,0:0:0:0:
256,68,132217,6,0,P|168:52|112:116,2,180,4|4|4,3:0|3:0|3:0,0:0:0:0:
332,112,133467,1,0,0:0:0:0:
420,104,133717,2,0,P|463:95|498:67,1,90,4|0,3:0|0:0,0:0:0:0:
428,12,134217,1,4,3:0:0:0:
376,192,134717,5,4,3:0:0:0:
256,324,135217,1,4,3:0:0:0:
136,192,135717,1,4,3:0:0:0:
72,128,135967,1,0,0:0:0:0:
160,108,136217,6,0,P|232:60|300:108,2,180,4|4|4,3:0|3:0|3:0,0:0:0:0:
72,128,137467,1,0,0:0:0:0:
136,192,137717,2,0,P|128:240|100:268,2,90,0|0|4,0:0|0:0|3:0,0:0:0:0:
256,348,138717,5,4,3:0:0:0:
348,192,139217,1,4,3:0:0:0:
256,36,139717,1,4,3:0:0:0:
164,192,140217,5,4,3:0:0:0:
300,268,140467,1,0,0:0:0:0:
212,268,140717,1,4,3:0:0:0:
348,192,140967,1,0,0:0:0:0:
340,64,141217,1,4,3:0:0:0:
408,124,141467,1,0,0:0:0:0:
256,28,141717,1,4,3:0:0:0:
104,124,141967,1,0,0:0:0:0:
172,64,142217,1,4,3:0:0:0:
172,64,142717,1,0,0:0:0:0:
476,192,144217,6,0,P|468:148|440:112,1,90,4|0,1:1|0:0,0:0:0:0:
256,40,144717,2,0,P|264:84|292:120,1,90,8|0,0:2|0:0,0:0:0:0:
476,344,145217,2,0,P|468:300|440:264,1,90
256,192,145717,1,8,0:0:0:0:
172,164,145967,2,0,P|233:104|316:128,1,180,0|0,0:0|0:2,0:0:0:0:
256,192,146717,1,8,0:0:0:0:
183,244,146967,1,0,0:0:0:0:
211,330,147217,1,0,0:0:0:0:
301,330,147467,5,2,0:0:0:0:
328,244,147717,1,8,0:0:0:0:
376,164,147967,1,2,2:0:0:0:
316,96,148217,6,0,P|230:97|190:173,2,180,0|8|2,0:0|0:2|2:0,0:0:0:0:
496,112,149717,1,8,0:2:0:0:
508,200,149967,1,0,0:0:0:0:
464,280,150217,2,0,P|424:292|376:288,1,90
256,192,150717,2,0,P|296:180|344:184,1,90,8|0,0:0|0:2,0:0:0:0:
256,280,151217,2,0,P|216:292|168:288,1,90
48,192,151717,2,0,P|88:180|136:184,1,90,8|0,0:0|1:0,0:0:0:0:
148,192,152092,1,0,1:1:0:0:
160,200,152217,6,0,P|200:176|216:136,1,90,4|0,1:1|0:0,0:0:0:0:
168,36,152717,2,0,P|128:60|108:100,1,90,8|0,0:2|0:0,0:0:0:0:
256,136,153217,1,0,0:0:0:0:
403,97,153467,2,0,P|382:58|344:36,1,90,0|8,0:2|0:0,0:0:0:0:
208,256,153968,2,0,P|251:333|335:341,1,180,0|0,0:0|0:0,0:0:0:0:
424,328,154717,1,8,0:0:0:0:
308,244,154967,1,0,0:2:0:0:
438,183,155217,1,0,0:0:0:0:
424,328,155467,5,2,0:0:0:0:
282,357,155717,1,8,0:0:0:0:
211,231,155967,1,2,0:0:0:0:
308,124,156217,2,0,B|388:100|364:36|436:4,1,180,0|8,0:0|0:2,0:0:0:0:
212,232,157217,2,0,B|132:256|156:320|84:352,1,180,0|8,0:0|0:2,0:0:0:0:
256,192,158217,12,0,159467,0:0:0:0:
408,240,159717,5,0,1:1:0:0:
404,258,159842,1,0,1:1:0:0:
397,276,159967,1,0,1:1:0:0:
389,293,160092,1,0,1:1:0:0:
378,308,160217,5,4,1:1:0:0:
256,256,160467,1,0,0:0:0:0:
134,308,160717,1,8,0:2:0:0:
72,192,160967,1,0,0:0:0:0:
134,76,161217,1,0,0:0:0:0:
256,128,161467,1,0,0:0:0:0:
378,76,161717,1,8,0:2:0:0:
440,192,161967,1,0,0:0:0:0:
378,308,162217,6,0,L|312:248,1,90
134,76,162717,2,0,L|200:136,1,90,8|0,0:2|0:0,0:0:0:0:
364,192,163217,1,0,0:0:0:0:
148,192,163467,1,0,0:0:0:0:
320,128,163717,1,8,0:2:0:0:
188,256,163967,5,0,0:0:0:0:
268,76,164217,2,0,P|244:116|252:156,1,90
264,172,164592,1,0,0:0:0:0:
276,184,164717,2,0,P|284:224|260:264,1,90,8|0,0:2|0:0,0:0:0:0:
167,267,165217,2,0,P|179:310|211:342,1,90
228,352,165592,1,0,0:0:0:0:
244,360,165717,6,0,B|312:312|344:360|412:308,1,180,8|0,0:2|0:0,0:0:0:0:
400,220,166467,1,0,0:0:0:0:
399,131,166717,2,0,P|356:141|325:173,1,90,8|0,0:2|0:0,0:0:0:0:
112,316,167217,2,0,P|155:306|186:274,1,90,0|0,0:2|0:0,0:0:0:0:
188,64,167717,1,8,0:2:0:0:
108,152,167967,1,0,0:0:0:0:
108,152,168092,1,0,0:0:0:0:
108,152,168217,6,0,P|100:200|116:236,1,90,4|0,0:0|0:0,0:0:0:0:
340,344,168717,2,0,P|348:296|332:260,1,90,8|0,0:2|0:0,0:0:0:0:
148,88,169217,2,0,P|104:76|60:92,1,90
188,312,169717,2,0,P|272:324|332:260,1,180,8|0,0:2|0:0,0:0:0:0:
452,40,170467,5,0,0:0:0:0:
476,192,170717,1,8,0:0:0:0:
324,192,170967,1,0,0:2:0:0:
376,40,171217,1,0,0:0:0:0:
400,192,171467,1,0,0:0:0:0:
248,192,171717,1,8,0:2:0:0:
224,36,171967,5,0,0:0:0:0:
164,104,172217,1,0,0:0:0:0:
84,148,172467,1,0,0:0:0:0:
84,236,172717,1,8,0:2:0:0:
164,280,172967,1,0,0:0:0:0:
224,348,173217,2,0,P|264:360|312:348,1,90
368,280,173717,1,8,0:2:0:0:
256,192,173967,12,0,175467,0:0:0:0:
392,64,175717,5,0,1:1:0:0:
373,60,175842,1,0,1:1:0:0:
354,60,175967,1,0,1:1:0:0:
336,64,176092,1,0,1:1:0:0:
320,68,176217,6,0,P|276:84|244:112,1,90,4|0,1:1|0:0,0:0:0:0:
192,316,176717,2,0,P|236:300|268:272,1,90,8|0,0:2|0:0,0:0:0:0:
352,192,177217,1,0,0:0:0:0:
200,192,177467,1,0,0:0:0:0:
68,264,177717,1,8,0:0:0:0:
68,264,177967,2,0,B|56:228|16:192|16:192|56:156|68:116,1,180,2|0,0:0|0:0,0:0:0:0:
168,88,178717,2,0,P|212:90|250:116,1,90,8|0,0:2|0:0,0:0:0:0:
324,192,179217,1,0,0:0:0:0:
256,252,179467,5,2,2:0:0:0:
128,272,179717,1,8,0:2:0:0:
220,364,179967,1,2,2:0:0:0:
348,288,180217,6,0,P|420:236|420:152,2,180,0|8|2,2:0|0:2|2:0,0:0:0:0:
256,132,181717,1,8,0:2:0:0:
172,96,181967,2,0,P|140:116|128:164,1,90
176,240,182467,1,0,0:0:0:0:
216,320,182717,2,0,P|256:336|300:320,2,90,8|0|0,0:2|0:0|0:0,0:0:0:0:
176,240,183467,1,0,0:0:0:0:
256,200,183717,1,8,0:2:0:0:
336,240,183967,1,0,1:0:0:0:
336,240,184092,1,0,1:1:0:0:
336,240,184217,6,0,P|376:216|392:176,1,90,4|0,1:1|0:0,0:0:0:0:
424,96,184717,1,8,0:0:0:0:
344,52,184967,2,0,P|300:52|260:72,1,90
188,120,185467,2,0,P|220:148|268:152,1,90,0|8,0:0|0:0,0:0:0:0:
328,216,185967,2,0,P|256:240|160:208,1,180,2|0,0:0|0:0,0:0:0:0:
188,120,186717,1,8,0:0:0:0:
256,60,186967,1,0,0:0:0:0:
324,120,187217,1,0,0:0:0:0:
256,180,187467,5,2,2:0:0:0:
324,120,187717,1,8,0:0:0:0:
376,192,187967,1,2,2:0:0:0:
360,280,188217,6,0,P|312:340|216:324,2,180,0|8|2,0:0|0:0|0:0,0:0:0:0:
256,48,189717,1,8,0:0:0:0:
200,296,190217,2,0,P|152:288|120:264,1,90
312,296,190717,2,0,P|360:288|392:264,1,90,8|0,0:0|0:0,0:0:0:0:
440,148,191217,2,0,P|404:124|356:120,1,90
232,120,191717,1,0,1:1:0:0:
210,119,191842,1,0,1:1:0:0:
189,123,191967,1,0,1:1:0:0:
169,132,192092,1,0,1:1:0:0:
152,144,192217,6,0,P|124:176|116:224,1,90,4|0,1:1|0:0,0:0:0:0:
224,336,192717,2,0,P|248:304|256:256,1,90,8|0,0:0|0:0,0:0:0:0:
360,144,193217,2,0,P|388:176|396:224,1,90,0|0,0:0|0:0,0:0:0:0:
288,336,193717,2,0,P|264:304|256:256,1,90,8|0,0:0|0:0,0:0:0:0:
312,184,194217,1,0,0:0:0:0:
344,268,194467,5,0,0:0:0:0:
256,112,194717,1,8,0:0:0:0:
168,268,194967,1,0,0:0:0:0:
344,192,195217,1,0,0:0:0:0:
180,112,195467,1,0,0:0:0:0:
96,268,195717,1,8,0:0:0:0:
268,268,195967,5,0,0:0:0:0:
260,180,196217,2,0,P|288:128|356:104,1,135
400,116,196717,2,0,P|426:151|465:174,1,90,8|0,0:0|0:0,0:0:0:0:
504,256,197217,2,0,P|472:264|444:260,1,60
256,28,197717,1,8,0:0:0:0:
256,180,197967,1,0,0:0:0:0:
184,72,198217,5,0,0:0:0:0:
328,72,198467,1,0,0:0:0:0:
184,152,198717,1,8,0:0:0:0:
328,152,198967,1,0,0:0:0:0:
256,28,199217,1,0,0:0:0:0:
256,180,199467,1,0,0:0:0:0:
256,332,199717,1,8,0:0:0:0:
124,256,199967,1,0,1:1:0:0:
124,256,200092,1,0,1:1:0:0:
124,256,200217,6,0,P|96:216|84:176,1,90,4|0,1:1|0:0,0:0:0:0:
256,28,200717,2,0,P|284:68|296:108,1,90,8|0,0:0|0:0,0:0:0:0:
256,332,201217,2,0,P|228:292|216:252,1,90,0|0,0:0|0:0,0:0:0:0:
388,104,201717,2,0,P|416:144|428:184,1,90,8|0,0:0|0:0,0:0:0:0:
444,272,202217,5,0,0:0:0:0:
356,252,202467,1,0,0:0:0:0:
292,192,202717,1,8,0:0:0:0:
256,112,202967,1,0,0:0:0:0:
220,192,203217,1,0,0:0:0:0:
156,252,203467,1,0,0:0:0:0:
68,272,203717,1,8,0:0:0:0:
32,192,203967,5,0,0:0:0:0:
104,140,204217,2,0,P|168:108|200:56,1,135
200,55,204717,1,8,0:0:0:0:
288,36,204967,2,0,P|336:40|368:64,2,90
300,124,205717,2,0,B|236:184|280:224|216:280,1,180,8|0,0:0|0:0,0:0:0:0:
140,324,206467,2,0,P|166:353|213:366,1,90,0|8,0:0|0:0,0:0:0:0:
292,324,206967,6,0,P|260:292|216:280,1,90
140,232,207467,1,0,0:0:0:0:
136,144,207717,1,0,1:1:0:0:
151,129,207842,1,0,1:1:0:0:
170,118,207967,1,0,1:1:0:0:
191,112,208092,1,0,1:1:0:0:
212,110,208217,1,4,1:1:0:0:
