osu file format v14

[General]
AudioFilename: tumblr_m5e79dlszM1qa5cy1o1.mp3
AudioLeadIn: 0
PreviewTime: 50428
Countdown: 0
SampleSet: Soft
StackLeniency: 0.7
Mode: 0
LetterboxInBreaks: 0
WidescreenStoryboard: 0

[Editor]
Bookmarks: 8847
DistanceSpacing: 1.1
BeatDivisor: 4
GridSize: 4
TimelineZoom: 1

[Metadata]
Title:Girls
TitleUnicode:Girls
Artist:Marina and The Diamonds
ArtistUnicode:Marina and The Diamonds
Creator:ByBy13
Version:Easy
Source:
Tags:The Family Jewels Diamandis ByBy_ChAn Mao
BeatmapID:754267
BeatmapSetID:341085

[Difficulty]
HPDrainRate:2
CircleSize:3
OverallDifficulty:2
ApproachRate:3
SliderMultiplier:1
SliderTickRate:1

[Events]
//Background and Video events
0,0,"16476862499_36f23c37d3_b.jpg",0,0
//Break Periods
2,160641,167422
//Storyboard Layer 0 (Background)
//Storyboard Layer 1 (Fail)
//Storyboard Layer 2 (Pass)
//Storyboard Layer 3 (Foreground)
//Storyboard Sound Samples

[TimingPoints]
434,526.339130434784,4,2,1,60,1,0
50962,-100,4,2,1,80,0,1
67805,-100,4,2,1,80,0,0
76226,-100,4,2,1,60,0,0
109912,-100,4,2,1,80,0,1
126755,-100,4,2,1,80,0,0
143598,-100,4,2,1,50,0,0
168862,-100,4,2,1,80,0,1
185705,-100,4,2,1,80,0,0

[Colours]
Combo1 : 207,207,207
Combo2 : 255,83,83
Combo3 : 89,201,255

[HitObjects]
60,264,8855,6,0,P|114:277|170:258,1,100,4|2,0:0|3:0,0:0:0:0:
212,170,9908,2,0,P|228:122|280:90,1,100,4|2,0:3|3:0,0:0:0:0:
366,47,10960,1,4,0:0:0:0:
449,123,11487,1,2,3:0:0:0:
409,225,12013,2,0,P|372:268|313:293,1,100,4|2,0:3|3:0,0:0:0:0:
220,288,13066,6,0,P|171:270|109:272,1,100,4|2,0:0|3:0,0:0:0:0:
32,208,14118,2,0,P|33:159|57:92,1,100,4|2,0:3|3:0,0:0:0:0:
133,40,15171,1,4,0:0:0:0:
213,115,15697,1,2,3:0:0:0:
286,32,16224,2,0,P|329:36|380:78,1,100,4|2,0:3|3:0,0:0:0:0:
428,164,17276,6,0,P|401:211|267:229,2,200,4|4|4,0:0|0:3|0:3,0:0:0:0:
392,60,19908,1,2,3:0:0:0:
282,62,20434,1,4,0:3:0:0:
236,162,20961,1,2,3:0:0:0:
281,261,21487,6,0,B|294:320|340:336|340:336|392:340|436:296,2,200,4|4|4,0:3|0:3|0:3,0:0:0:0:
253,154,24119,1,2,3:0:0:0:
178,72,24645,1,4,0:3:0:0:
68,72,25171,1,2,0:3:0:0:
81,181,25698,6,0,P|124:202|179:201,1,100,4|2,0:0|3:0,0:0:0:0:
286,200,26750,2,0,P|337:200|381:220,1,100,4|2,0:3|3:0,0:0:0:0:
376,330,27803,2,0,P|326:349|267:340,2,100,4|2|4,0:3|3:0|0:3,0:0:0:0:
458,257,29382,1,2,0:3:0:0:
435,149,29908,6,0,P|389:105|343:97,1,100,4|2,0:3|3:0,0:0:0:0:
247,119,30961,2,0,P|198:129|141:117,1,100,4|2,0:3|3:0,0:0:0:0:
45,156,32014,2,0,P|87:235|103:241,2,100,4|2|4,0:3|3:0|0:3,0:0:0:0:
88,52,33593,1,2,3:0:0:0:
197,65,34119,6,0,B|230:98|290:85|290:85|340:60|399:84,1,200,4|4,0:0|0:3,0:0:0:0:
469,153,35698,1,2,3:0:0:0:
431,256,36225,1,4,0:3:0:0:
345,324,36751,2,0,P|274:349|193:261,1,200,2|2,3:0|3:0,0:0:0:0:
197,159,38330,6,0,P|266:106|384:85,1,200,4|4,0:0|0:3,0:0:0:0:
485,82,39909,1,2,3:0:0:0:
483,192,40435,1,4,0:3:0:0:
383,243,40962,2,0,P|288:269|178:249,1,200,2|2,3:0|3:0,0:0:0:0:
91,202,42541,6,0,P|79:158|107:98,1,100,6|2,0:0|3:0,0:0:0:0:
205,89,43593,2,0,P|247:99|318:79,1,100,4|2,0:3|3:0,0:0:0:0:
397,33,44646,1,4,0:3:0:0:
455,126,45172,1,2,3:0:0:0:
404,223,45699,2,0,P|365:263|315:279,1,100,4|2,0:3|3:3,0:0:0:0:
208,284,46751,6,0,B|167:260|111:271|111:271|52:256|40:180,2,200,4|4|4,0:0|0:0|0:0,0:0:0:0:
315,309,49383,2,0,P|375:302|411:266,1,100,2|4,0:0|0:2,0:0:0:0:
438,172,50436,1,4,0:3:0:0:
349,106,50962,6,0,P|295:84|240:81,1,100,4|2,0:0|3:0,0:0:0:0:
143,83,52015,2,0,P|100:92|43:116,1,100,4|2,0:3|3:3,0:0:0:0:
0,196,53067,1,4,0:0:0:0:
71,279,53594,1,2,3:0:0:0:
137,191,54120,2,0,P|187:181|242:190,1,100,4|2,0:3|3:0,0:0:0:0:
339,222,55173,6,0,B|350:274|350:274|346:326,1,100,4|2,0:0|3:0,0:0:0:0:
241,354,56225,2,0,B|190:361|190:361|128:351,1,100,4|2,0:3|3:0,0:0:0:0:
46,298,57278,1,4,0:0:0:0:
118,215,57804,1,2,3:0:0:0:
223,245,58331,2,0,B|272:253|272:253|331:240,1,100,4|4,0:0|0:0,0:0:0:0:
372,144,59383,6,0,B|384:96|384:96|416:48,2,100,4|2|4,0:0|3:0|0:3,0:0:0:0:
328,248,60963,1,2,3:0:0:0:
252,327,61489,2,0,P|190:323|151:299,1,100,4|2,0:0|3:0,0:0:0:0:
76,230,62542,2,0,P|53:195|54:123,1,100,4|2,0:3|3:3,0:0:0:0:
99,40,63594,5,4,0:0:0:0:
203,73,64121,1,2,3:0:0:0:
305,33,64647,2,0,P|356:26|409:35,1,100,4|2,0:3|3:0,0:0:0:0:
468,122,65700,2,0,B|471:178|471:178|453:220,1,100,4|2,0:0|3:0,0:0:0:0:
394,310,66752,1,4,0:0:0:0:
290,346,67279,1,4,0:0:0:0:
247,244,67805,6,0,B|246:183|246:183|231:135,1,100,4|2,0:0|3:0,0:0:0:0:
208,38,68858,2,0,B|246:15|246:15|306:16,1,100,4|2,0:3|3:0,0:0:0:0:
403,56,69910,1,4,0:3:0:0:
471,142,70437,1,2,3:0:0:0:
407,231,70963,2,0,P|376:274|318:297,1,100,4|4,0:0|0:0,0:0:0:0:
228,266,72016,6,0,P|167:238|119:253,2,100,4|2|4,0:0|3:0|0:3,0:0:0:0:
298,350,73595,1,2,3:0:0:0:
382,279,74121,2,0,B|422:247|422:247|442:185,1,100,4|2,0:3|3:3,0:0:0:0:
435,89,75174,1,4,3:0:0:0:
339,34,75700,1,2,0:3:0:0:
231,56,76226,6,0,B|179:72|179:72|138:96,1,100,4|2,0:0|3:0,0:0:0:0:
141,205,77279,2,0,B|180:228|180:228|232:244,1,100,4|2,0:3|3:0,0:0:0:0:
341,230,78332,2,0,P|339:273|295:330,2,100,4|2|4,0:3|3:0|0:3,0:0:0:0:
298,128,79911,1,2,0:3:0:0:
191,106,80437,6,0,L|90:73,1,100,4|2,0:3|3:0,0:0:0:0:
61,181,81490,2,0,L|173:221,1,100,4|2,0:3|3:0,0:0:0:0:
228,296,82542,2,0,P|279:313|325:295,1,100,4|2,3:0|3:0,0:0:0:0:
411,237,83595,2,0,B|426:209|444:196|444:196|432:164|437:135,1,100,4|8,0:3|2:0,0:0:0:0:
348,81,84648,6,0,L|239:39,1,100,4|2,0:0|3:0,0:0:0:0:
143,47,85700,2,0,L|49:82,1,100,4|2,0:3|3:0,0:0:0:0:
16,187,86753,2,0,P|49:222|118:246,1,100,4|2,0:3|3:0,0:0:0:0:
199,281,87806,1,4,0:3:0:0:
299,326,88332,1,2,3:0:0:0:
356,232,88858,6,0,P|382:188|431:174,1,100,4|2,0:0|3:0,0:0:0:0:
427,64,89911,2,0,P|379:57|344:13,1,100,4|2,0:3|3:0,0:0:0:0:
236,20,90964,2,0,P|182:34|152:86,2,100,4|2|4,0:3|3:0|0:3,0:0:0:0:
346,19,92543,1,8,0:0:0:0:
407,109,93069,6,0,B|408:166|359:194|359:194|293:203|281:259,1,200,4|4,0:3|0:3,0:0:0:0:
216,334,94648,1,2,3:0:0:0:
109,305,95175,1,4,0:3:0:0:
104,195,95701,2,0,B|125:151|188:160|188:160|186:97|244:87,1,200,2|2,3:0|3:0,0:0:0:0:
347,52,97280,6,0,B|404:28|404:28|437:39|476:58|487:133,1,200,4|4,0:0|0:3,0:0:0:0:
460,235,98859,1,2,0:3:0:0:
421,338,99385,1,4,0:3:0:0:
313,314,99912,2,0,P|200:325|113:288,1,200,2|2,3:0|3:0,0:0:0:0:
106,184,101491,6,0,B|149:156|149:156|199:142,1,100,6|2,0:0|3:0,0:0:0:0:
304,141,102543,2,0,B|350:154|350:154|393:182,1,100,4|2,0:3|3:0,0:0:0:0:
475,256,103596,1,4,0:3:0:0:
394,330,104122,1,2,3:3:0:0:
294,283,104649,2,0,B|243:260|243:260|214:224,1,100,4|2,0:3|3:0,0:0:0:0:
204,116,105701,6,0,B|252:87|299:106|299:106|327:62|399:62,2,200,4|4|4,0:0|0:0|0:0,0:0:0:0:
161,217,108333,2,0,B|200:251|200:251|258:279,1,100,2|4,0:0|0:2,0:0:0:0:
349,299,109386,1,4,0:3:0:0:
415,212,109912,6,0,P|451:178|457:128,1,100,4|2,0:0|3:0,0:0:0:0:
372,60,110965,2,0,P|323:91|274:84,1,100,4|2,0:3|3:0,0:0:0:0:
177,55,112017,1,4,0:0:0:0:
88,120,112544,1,2,3:0:0:0:
172,192,113070,2,0,B|220:209|220:209|273:197,1,100,4|2,0:3|3:0,0:0:0:0:
376,180,114123,6,0,L|438:260,1,100,4|2,0:0|3:0,0:0:0:0:
348,324,115175,2,0,L|280:235,1,100,4|2,0:3|3:0,0:0:0:0:
228,151,116228,1,4,0:0:0:0:
291,61,116754,1,2,3:0:0:0:
385,115,117281,2,0,L|466:190,1,100,4|4,0:0|0:0,0:0:0:0:
430,289,118333,6,0,P|379:318|326:304,1,100,4|2,0:0|3:0,0:0:0:0:
229,312,119386,2,0,P|180:315|139:288,1,100,4|2,0:3|3:0,0:0:0:0:
115,181,120439,1,4,0:0:0:0:
206,120,120965,1,2,3:0:0:0:
298,179,121492,2,0,P|341:202|396:197,1,100,4|2,0:3|3:0,0:0:0:0:
431,100,122544,6,0,B|401:60|401:60|355:38,1,100,4|2,0:0|3:0,0:0:0:0:
245,34,123597,2,0,B|199:56|199:56|169:96,1,100,4|2,0:3|3:0,0:0:0:0:
100,180,124650,1,4,0:0:0:0:
163,269,125176,1,2,3:0:0:0:
269,240,125702,2,0,P|331:215|378:216,1,100,4|4,0:0|0:0,0:0:0:0:
454,151,126755,6,0,P|419:83|392:66,1,100,4|2,0:0|3:0,0:0:0:0:
291,72,127808,2,0,P|234:86|183:66,1,100,4|2,0:3|3:0,0:0:0:0:
199,184,128860,2,0,P|262:191|317:172,1,100,4|2,0:3|3:0,0:0:0:0:
404,156,129913,2,0,B|423:106|421:45,1,100,4|4,0:0|0:0,0:0:0:0:
311,50,130966,6,0,L|215:115,1,100,4|2,0:0|3:0,0:0:0:0:
294,193,132018,2,0,L|382:132,1,100,4|2,0:3|3:0,0:0:0:0:
477,92,133071,2,0,B|488:142|476:191,1,100,4|2,0:3|3:0,0:0:0:0:
433,290,134124,1,4,0:0:0:0:
332,334,134650,1,4,0:0:0:0:
230,289,135176,6,0,P|185:268|125:276,1,100,4|2,0:0|3:3,0:0:0:0:
127,162,136229,2,0,P|176:165|221:144,1,100,4|2,3:0|3:0,0:0:0:0:
309,68,137282,1,4,0:3:0:0:
399,136,137808,1,2,3:0:0:0:
327,219,138334,2,0,B|295:267|245:291,1,100,4|4,0:0|0:0,0:0:0:0:
145,286,139387,6,0,B|100:257|73:218,1,100,4|2,0:0|3:0,0:0:0:0:
103,112,140440,2,0,B|149:102|211:107,1,100,4|2,0:3|3:0,0:0:0:0:
310,113,141492,1,4,0:3:0:0:
353,214,142019,1,2,3:0:0:0:
325,318,142545,2,0,P|277:342|220:348,1,100,4|2,0:3|0:3,0:0:0:0:
135,293,143598,6,0,P|109:198|114:89,2,200,4|2|2,0:0|0:0|0:0,0:0:0:0:
235,337,146229,2,0,P|282:341|353:225,1,200,2|0,0:0|0:0,0:0:0:0:
287,137,147808,6,0,P|216:103|90:97,2,200,2|2|2,0:0|0:0|0:0,0:0:0:0:
338,234,150440,2,0,P|303:296|177:284,1,200,2|0,0:0|0:0,0:0:0:0:
138,193,152019,6,0,L|206:111,1,100,2|0,0:0|0:0,0:0:0:0:
270,29,153072,1,2,0:0:0:0:
369,75,153598,1,0,0:0:0:0:
325,176,154125,2,0,P|287:209|230:228,2,100,2|0|2,0:0|0:0|0:0,0:0:0:0:
369,75,155704,1,0,0:0:0:0:
264,41,156230,6,0,P|167:54|65:105,1,200,2|2,0:0|0:0,0:0:0:0:
10,186,157809,1,0,0:0:0:0:
111,228,158335,1,2,0:0:0:0:
171,320,158862,2,0,P|241:350|317:263,1,200,2|2,0:0|0:0,0:0:0:0:
318,159,160441,1,4,0:2:0:0:
144,288,168862,6,0,P|188:290|247:256,1,100,4|2,0:0|3:0,0:0:0:0:
299,175,169915,2,0,P|343:124|394:111,1,100,4|2,0:3|3:0,0:0:0:0:
482,111,170967,1,4,0:0:0:0:
456,218,171494,1,2,3:0:0:0:
345,221,172020,2,0,P|292:222|229:248,1,100,4|2,0:3|3:0,0:0:0:0:
154,294,173073,6,0,L|51:363,1,100,4|2,0:0|3:0,0:0:0:0:
3,262,174125,2,0,L|96:198,1,100,4|2,0:3|3:0,0:0:0:0:
177,145,175178,1,4,0:0:0:0:
280,186,175704,1,2,3:0:0:0:
377,134,176231,2,0,P|424:150|459:187,1,100,4|4,0:0|0:0,0:0:0:0:
439,294,177283,6,0,P|389:317|334:324,1,100,4|2,0:0|3:0,0:0:0:0:
234,322,178336,2,0,P|184:315|140:293,1,100,4|2,0:3|3:0,0:0:0:0:
63,214,179389,1,4,0:0:0:0:
125,122,179915,1,2,3:0:0:0:
234,123,180441,2,0,P|280:130|331:157,1,100,4|2,0:3|3:0,0:0:0:0:
373,254,181494,6,0,P|298:310|275:314,1,100,4|2,0:0|3:0,0:0:0:0:
183,310,182547,2,0,P|137:289|103:252,1,100,4|2,0:3|3:0,0:0:0:0:
53,155,183600,1,4,0:0:0:0:
119,67,184126,1,2,3:0:0:0:
228,81,184652,2,0,L|323:130,1,100,4|4,0:0|0:0,0:0:0:0:
393,206,185705,6,0,P|359:258|313:276,2,100,4|2|4,0:0|3:0|0:3,0:0:0:0:
388,95,187284,1,2,3:0:0:0:
284,58,187810,2,0,P|236:46|181:49,1,100,4|2,0:0|3:0,0:0:0:0:
81,84,188863,1,4,0:0:0:0:
144,173,189389,1,4,0:0:0:0:
249,207,189916,6,0,P|291:211|339:182,2,100,4|2|4,0:0|3:0|0:3,0:0:0:0:
145,173,191495,1,2,3:0:0:0:
77,259,192021,2,0,P|94:306|143:349,1,100,4|2,0:0|3:0,0:0:0:0:
237,358,193074,1,4,0:0:0:0:
308,274,193600,1,4,0:0:0:0:
236,190,194126,6,0,P|203:150|139:129,2,100,4|2|4,0:0|3:0|0:3,0:0:0:0:
308,274,195705,1,2,3:0:0:0:
383,194,196232,2,0,P|416:147|419:93,1,100,4|2,0:0|3:0,0:0:0:0:
356,16,197284,1,4,0:0:0:0:
255,61,197811,1,4,0:0:0:0:
209,161,198337,6,0,P|213:212|247:266,2,100,4|2|4,0:0|3:0|0:3,0:0:0:0:
169,57,199916,1,2,3:0:0:0:
279,60,200442,2,0,P|329:62|377:46,1,100,4|2,0:0|3:0,0:0:0:0:
471,101,201495,2,0,P|473:167|450:210,2,100,2|2|2,0:0|0:3|0:0,0:0:0:0:
