osu file format v6

[General]
AudioFilename: 01 Dokkyun Heart.mp3
AudioLeadIn: 0
PreviewTime: -1
Countdown: 1
SampleSet: Normal
StackLeniency: 0.7
Mode: 0
LetterboxInBreaks: 0

[Editor]
Bookmarks: 6331
DistanceSpacing: 0.800000011920929
BeatDivisor: 4
GridSize: 8

[Metadata]
Title:Dokkyun Heart
Artist:Marina Inoue
Creator:Rena-chan
Version:FUN!
Source:Jessica Ushiromiya
Tags:Umineko No Naku Koro Ni

[Difficulty]
HPDrainRate:5
CircleSize:5
OverallDifficulty:7
SliderMultiplier:2.2
SliderTickRate:1

[Events]
//Background and Video events
0,0,"dokkyunbg.jpg"
//Break Periods
2,70531,81067
2,116712,130885
2,169258,172703
2,175076,178522
2,180894,184340
2,188167,192703
//Storyboard Layer 0 (Background)
//Storyboard Layer 1 (Fail)
//Storyboard Layer 2 (Pass)
//Storyboard Layer 3 (Foreground)
//Storyboard Sound Samples
//Background Colour Transformations
3,100,163,162,255

[TimingPoints]
513,363.636363636364,4,1,0,100,1,0
31785,-200,4,1,0,100,0,0
41240,-100,4,1,0,100,0,0
94331,-200,4,1,0,100,0,0
103785,-100,4,1,0,100,0,0
131785,-200,4,1,0,100,0,0
143058,-100,4,1,0,100,0,0

[HitObjects]
64,192,6331,1,4
144,160,6513,1,0
224,192,6694,1,8
304,224,6876,1,0
384,192,7058,2,2,B|408:96|432:192,2,110,2|2|10
256,64,7785,5,4
256,64,7967,1,0
256,152,8149,1,8
256,152,8331,1,0
256,240,8513,2,2,B|256:352,2,110,2|2|10
408,320,9240,5,4
456,248,9422,1,0
456,160,9603,1,8
416,80,9785,1,0
328,48,9967,2,2,B|272:80|216:48,2,110,2|2|10
256,208,10694,5,4
256,208,10876,1,0
256,208,11058,1,8
256,208,11240,1,0
256,208,11422,2,2,B|192:208|160:160,2,110,2|2|10
256,208,12149,5,4
256,208,12331,1,0
256,208,12513,1,8
256,208,12695,1,0
256,208,12877,2,2,B|320:208|352:160,2,110,2|2|10
80,192,13603,5,4
144,136,13785,1,0
144,136,13967,1,8
200,64,14149,1,0
256,136,14331,2,2,B|304:168|368:128,2,110,2|2|10
432,136,15058,6,0,B|432:200|400:256|344:280|280:280|240:232|176:280,1,330,4|0
180,276,15785,1,8
256,112,16149,2,2,B|256:224,1,110
256,312,16513,5,4
256,312,16694,1,0
256,312,16876,1,8
256,312,17058,1,0
256,312,17240,1,2
256,312,17603,1,4
384,192,17967,5,4
344,112,18149,1,0
256,88,18331,1,8
168,112,18513,1,0
128,192,18694,1,2
256,312,19058,1,4
256,136,19422,5,4
256,136,19603,1,0
320,192,19785,5,8
320,192,19967,1,0
256,256,20149,5,0
256,256,20331,1,0
320,192,20513,5,8
304,176,20603,1,0
288,192,20694,1,0
272,176,20785,1,0
256,192,20876,1,4
240,176,20967,1,0
224,192,21058,1,0
208,176,21149,1,0
192,192,21240,1,8
176,176,21331,1,0
160,192,21422,1,0
72,192,21603,5,0
72,192,21694,1,0
72,192,21785,1,0
72,192,21876,1,0
72,192,21967,1,8
184,56,22331,5,4
184,56,22422,1,0
184,56,22513,1,0
256,104,22694,1,8
328,56,22876,1,0
328,56,23058,1,0
360,80,23149,1,0
392,104,23240,1,0
424,128,23331,1,0
456,152,23422,1,8
288,192,23785,5,4
256,272,23967,1,0
224,192,24149,1,8
256,112,24331,1,0
256,112,24513,1,2
256,112,24603,1,0
256,112,24694,1,2
256,112,24876,1,10
360,248,25240,6,0,B|360:320|288:320,1,110,4|0
208,320,25603,2,0,B|136:320|136:248,1,110,8|0
136,168,25967,2,0,B|136:96|208:96,1,110
288,96,26331,2,0,B|360:96|360:168,1,110,8|0
360,248,26694,5,4
360,336,26876,2,0,B|312:304|248:336,2,110,0|8|0
432,288,27422,1,0
464,256,27513,1,0
464,208,27603,1,0
432,120,27785,1,10
432,120,27876,1,0
296,112,28149,5,4
248,112,28240,1,0
200,112,28331,2,0,B|144:112|144:200,1,110,2|8
144,232,28603,1,0
144,272,28694,2,0,B|144:328|232:328,1,110,2|0
264,328,28967,1,0
304,328,29058,2,0,B|360:328|360:232,1,110,2|8
360,200,29331,1,0
360,152,29422,1,2
360,64,29603,5,4
360,64,29694,1,0
312,64,29785,1,0
272,64,29876,1,0
272,64,29967,1,8
224,64,30058,1,0
224,64,30149,2,2,B|168:64|168:208|72:208,1,220
73,207,30603,5,0
73,207,30694,1,8
73,207,30785,1,0
73,207,30876,1,0
73,207,30967,2,2,B|256:104|448:216,1,385
440,296,31785,6,0,B|408:320|384:288,1,55,0|0
416,256,32149,2,0,B|392:240|360:256,1,55,8|0
328,280,32513,1,2
240,280,32876,1,8
240,280,33058,2,2,B|296:280|296:72|400:72,1,275,2|6
464,232,34694,5,0
400,288,35058,1,8
312,272,35422,1,2
280,192,35785,1,8
280,192,35967,2,2,B|312:136|288:80,2,110
280,192,36876,5,4
232,240,37058,1,0
152,272,37240,1,8
72,192,37422,2,2,B|72:136,1,55
176,152,37785,1,0
280,192,37967,1,8
392,200,38149,2,2,B|392:256|320:288,1,110
88,56,39058,5,2
256,56,39331,1,0
416,56,39603,1,2
472,152,39785,2,0,B|456:216|400:240,1,110,4|8
407,236,40331,1,0
256,192,40513,12,0,41240
256,192,41331,6,0,B|256:136,2,55,0|0|0
224,160,41603,2,0,B|200:104,2,55
136,144,41967,1,0
64,192,42149,1,0
40,272,42331,6,0,B|80:344|144:328|184:288|248:328,1,220,0|4
238,322,42876,1,0
256,232,43058,5,8
256,232,43240,1,0
176,192,43422,5,0
176,192,43513,1,0
176,192,43603,2,2,B|192:128|256:112,2,110,2|10|2
256,232,44149,5,4
256,232,44331,1,0
336,192,44513,5,8
336,192,44694,1,0
392,120,44876,5,0
368,80,44967,1,0
328,64,45058,2,2,B|264:56|232:184|136:160,1,220
80,224,45603,5,4
168,224,45785,1,0
432,224,45967,5,8
344,224,46149,1,0
256,224,46331,5,0
256,176,46422,1,0
272,136,46513,2,2,B|256:32|240:144,1,110,2|10
256,312,47058,6,0,B|312:312,1,55,4|0
256,312,47240,2,0,B|192:312,1,55
256,312,47422,2,0,B|256:256,1,55,8|0
256,257,47603,2,2,B|256:32,1,220
256,37,48149,1,10
256,37,48331,1,2
101,192,48513,5,4
101,192,48695,1,0
411,192,48876,5,8
411,192,49058,1,0
320,192,49240,5,0
312,192,49331,1,0
304,192,49422,2,2,B|272:224|240:160|200:192,2,110,2|10|2
392,192,49967,5,4
387,104,50149,1,0
320,40,50331,1,8
232,40,50513,1,0
176,104,50694,5,0
176,104,50785,1,0
176,104,50876,2,2,B|128:152|264:232|152:320,1,220
256,328,51422,5,4
256,328,51603,1,0
256,192,51785,5,8
256,192,51967,1,0
256,144,52058,6,0,B|256:88,1,55,0|2
176,192,52422,1,0
176,192,52603,1,0
88,192,52785,2,2,B|96:264|152:296|208:296,1,165
376,280,53422,6,0,B|376:224,1,55
376,176,53603,1,4
432,112,53785,2,0,B|376:80|320:112,1,110,0|8
256,272,54331,5,4
256,272,54513,1,0
256,184,54694,5,8
256,184,54876,1,0
256,96,55058,6,0,B|224:48,1,55
208,88,55240,2,0,B|152:72,1,55
168,112,55422,2,2,B|112:112|72:168,1,110,10|2
160,192,55785,5,4
160,280,55967,1,0
352,192,56149,5,8
352,280,56331,1,0
256,280,56513,5,0
256,264,56603,1,0
256,248,56694,2,2,L|232:240|272:232|224:216|280:208|248:168,1,220
256,80,57240,5,4
256,80,57422,1,0
256,80,57603,5,8
256,80,57785,1,0
168,104,57967,5,0
136,136,58058,1,0
128,176,58149,2,2,B|128:240|176:288|240:296|296:264,1,220
352,184,58694,5,0
328,144,58785,1,0
304,184,58876,1,2
328,264,59058,1,8
344,304,59149,1,0
384,320,59240,2,0,B|440:280|440:216,1,110
440,144,59603,5,2
256,48,59785,5,10
288,224,60149,6,0,B|288:336,1,110,4|0
224,224,60513,2,0,B|224:336,1,110,8|0
136,336,60876,6,0,B|136:280,1,55
136,281,61058,2,0,B|136:224,1,55
136,226,61240,2,0,B|144:160|200:136,1,110,8|2
256,192,61603,5,4
256,192,61785,1,0
256,104,61967,5,8
256,104,62149,1,0
344,104,62331,6,0,B|344:48,2,55
344,144,62603,2,2,B|344:216|304:248|232:280|184:280,1,220
152,280,63058,2,0,B|136:176|120:280,1,110,4|0
152,104,63422,6,0,B|136:208|120:104,1,110,8|0
120,64,63694,2,2,B|176:32|232:64,1,110
264,80,63967,1,0
328,144,64149,1,8
352,224,64331,2,2,B|312:280|192:216|144:288,1,220
256,144,65058,5,0
256,144,65149,1,0
208,144,65240,2,2,B|256:96|312:144,1,110
207,144,65603,2,0,B|255:192|305:148,1,110,0|2
256,192,65967,12,0,66694
256,192,67058,5,0
256,192,67240,1,0
256,192,67422,1,4
256,192,67513,1,0
256,192,67603,1,2
168,192,67785,5,8
168,192,67876,1,0
168,192,67967,1,2
256,104,68149,5,0
256,104,68240,1,0
256,104,68331,1,2
256,192,68513,1,8
256,192,68694,5,2
256,192,68876,5,4
256,192,68967,1,0
256,192,69057,1,2
344,192,69240,5,8
344,192,69330,1,0
344,192,69421,1,2
256,280,69603,5,0
256,280,69694,1,0
256,280,69785,1,2
256,192,69967,1,8
256,192,70149,5,2
256,192,70331,1,4
56,192,81967,6,0,B|152:128,1,110,4|0
120,216,82331,2,0,B|216:280,1,110,8|0
176,192,82694,2,0,B|272:128,1,110
312,120,82967,1,0
352,128,83058,1,8
384,152,83149,1,0
400,192,83240,1,0
400,280,83422,5,4
400,280,83513,1,0
400,280,83603,1,0
352,280,83694,1,0
352,280,83785,1,8
352,280,83876,1,0
304,280,83967,1,0
304,280,84058,1,0
304,280,84149,1,0
256,280,84240,1,0
256,280,84331,1,2
208,280,84422,1,0
208,280,84513,1,10
56,192,84876,5,4
96,112,85058,1,0
168,56,85240,1,8
256,40,85422,1,0
344,56,85603,1,2
416,112,85785,1,0
456,192,85967,1,10
56,192,86331,5,4
96,272,86513,1,0
168,328,86695,1,8
256,344,86877,1,0
344,328,87058,1,0
367,304,87149,1,0
416,272,87240,1,2
456,192,87422,1,10
256,192,87785,5,4
168,192,87967,5,0
128,168,88058,1,0
96,136,88149,1,8
344,192,88331,5,0
384,168,88422,1,0
416,136,88513,1,0
256,192,88694,5,0
256,144,88785,1,0
256,96,88876,1,8
256,144,88967,1,0
256,192,89058,1,0
256,280,89240,5,4
256,280,89331,2,0,B|256:224,1,55,0|0
256,225,89513,1,0
256,225,89603,2,0,B|256:168,1,55,8|0
256,170,89785,1,0
168,192,89967,5,0
168,192,90058,1,0
168,192,90149,1,0
168,192,90331,1,10
168,192,90422,1,0
408,192,90694,5,4
408,192,90785,1,0
408,192,90876,1,2
256,40,91058,5,8
256,40,91149,1,0
256,40,91240,1,2
104,192,91422,5,0
104,192,91513,1,0
104,192,91604,1,2
256,344,91785,5,8
256,344,91876,1,0
256,344,91967,1,2
256,192,92149,5,4
256,192,92331,1,0
256,192,92422,1,0
256,192,92513,1,8
256,192,92694,2,2,B|224:136|152:288|56:192,1,220
72,104,93240,1,0
144,56,93422,1,0
232,56,93603,2,2,B|344:56|432:160|360:296,1,330,6|2
288,336,94331,6,0,B|248:344|232:320,1,55,8|0
200,296,94694,2,0,B|184:272|184:232,1,55,0|0
184,200,95058,1,2
224,120,95422,5,8
264,104,95603,2,2,B|320:88|384:112|416:168|392:232,1,220
394,225,96513,1,4
192,320,97240,6,0,B|80:184,1,165,8|0
72,152,97967,1,2
112,72,98331,1,8
152,56,98513,2,2,B|264:56,1,110
392,56,99422,5,4
440,104,99603,1,0
440,192,99785,1,8
376,272,99967,2,2,B|352:296|320:280,1,55
232,248,100331,1,0
168,152,100513,1,8
256,88,100694,2,2,B|256:200,1,110
472,192,101603,6,0,B|408:192,1,55,2|0
304,192,101967,2,0,B|360:192,1,55,2|0
248,192,102331,2,2,B|136:192,1,110
256,192,102876,12,0,103785
256,192,103876,6,0,B|256:136,2,55
256,192,104149,2,0,B|256:256,2,55
168,192,104513,1,0
80,192,104694,1,0
80,104,104876,2,0,B|128:48|176:104,1,110
168,192,105240,5,4
256,192,105422,1,0
344,192,105603,5,8
256,192,105785,1,0
256,280,105967,5,0
256,280,106058,1,0
256,280,106149,1,0
256,232,106240,2,2,B|256:120,2,110,2|2|2
256,280,106694,5,4
256,280,106876,1,0
256,192,107058,5,8
256,192,107240,1,0
168,192,107422,5,0
136,160,107513,1,0
128,112,107603,2,2,B|176:64|232:56|296:72|328:112,1,220
359,192,108149,5,4
360,192,108331,1,0
152,192,108513,5,8
152,192,108695,1,0
64,192,108876,6,2,B|88:96|112:192,1,110
152,192,109149,1,0
200,192,109240,2,0,B|224:288|248:192,1,110,8|0
256,104,109603,5,0
296,80,109694,1,0
336,104,109785,2,2,B|384:144|416:192|392:256,1,165
360,280,110149,1,0
320,288,110240,2,2,B|256:296|320:200|208:136,1,165
239,158,110694,5,10
239,158,110876,5,2
160,192,111058,6,0,B|256:136,1,110,4|0
352,192,111422,2,0,B|256:136,1,110,8|0
256,224,111785,5,0
256,264,111876,2,0,B|280:320|360:312,1,110,0|2
392,312,112149,2,0,B|448:304|464:232,1,110,8|2
384,192,112513,6,0,B|336:152|280:192,1,110,4|0
182,188,112876,2,0,B|230:228|286:188,1,110,8|0
232,112,113240,6,0,B|200:88|176:112,1,55
152,136,113422,2,2,B|112:184|112:240|152:296|224:296,1,220
256,216,113967,5,4
256,216,114149,1,0
256,216,114331,5,8
256,216,114513,1,0
256,128,114694,5,2
256,128,114876,1,0
256,128,114967,1,2
256,128,115149,1,0
256,128,115331,1,2
168,328,115785,5,0
256,328,115967,1,0
344,328,116149,1,8
344,328,116331,2,0,B|392:288|400:224,1,110,0|2
96,192,131785,5,0
176,160,132149,1,2
256,192,132513,1,0
416,192,133240,5,0
336,224,133604,1,2
256,192,133968,1,0
256,192,134694,5,0
256,192,135058,1,2
256,192,135422,1,0
80,192,136149,6,0,B|104:160|168:232|184:192,2,110,0|2|0
432,192,137603,6,0,B|408:160|344:232|328:192,2,110,0|2|0
432,192,139058,5,0
256,48,139422,1,2
80,192,139785,1,0
432,192,140513,5,0
256,336,140877,1,2
80,192,141240,1,0
256,192,141603,5,0
256,192,141694,1,0
256,192,141785,1,0
144,192,141967,5,0
256,80,142331,1,2
368,192,142694,1,0
256,304,143058,5,4
256,304,143240,1,0
256,80,143422,5,8
256,88,143603,1,0
256,192,143785,5,0
256,192,143876,1,0
256,192,143967,2,2,B|208:160|144:192,2,110
368,192,144513,5,4
368,192,144694,1,0
144,192,144876,5,8
144,192,145058,1,0
144,192,145240,5,0
176,160,145331,1,0
208,192,145422,2,2,B|248:232|368:160|432:208,1,220
440,112,145967,6,0,B|344:48,1,110,4|0
376,136,146331,2,0,B|264:112,1,110,8|0
320,184,146694,5,0
272,184,146785,1,0
224,184,146876,2,2,B|192:160|144:200|112:168,1,110,2|10
64,296,147331,5,0
80,288,147422,1,4
96,296,147513,1,0
112,288,147603,1,0
120,296,147694,1,0
136,288,147785,1,8
144,296,147876,1,0
160,288,147967,2,2,B|216:288|280:264|320:240|376:296,1,220
370,290,148513,1,10
370,290,148694,1,2
432,232,148876,5,4
376,168,149058,1,0
136,168,149240,5,8
80,232,149422,1,0
112,312,149603,6,0,B|152:320|176:296,1,55
200,280,149785,2,2,B|256:240|312:280,2,110,2|10|2
256,208,150331,6,0,B|256:88,1,110,4|0
256,208,150694,2,0,B|256:320,1,110,8|0
344,312,151058,1,0
344,312,151149,1,0
344,312,151240,2,2,B|344:88,1,220
344,92,151785,5,4
344,92,151967,1,0
168,92,152149,1,8
168,92,152331,1,0
168,92,152422,6,2,B|120:152|176:192,1,110
256,216,152785,1,0
256,128,152967,1,2
176,88,153149,2,2,B|232:64|288:64|344:88,1,165
472,192,153785,6,2,B|472:224|440:232,1,55
440,231,153967,2,0,B|384:232|352:296,1,110,4|0
354,291,154240,2,2,B|328:344|200:344,1,165
144,280,154694,6,0,B|80:184,1,110,4|0
144,280,155058,2,0,B|208:184,1,110,8|0
256,112,155422,5,0
288,80,155513,1,0
312,112,155603,1,0
288,192,155785,1,10
288,192,155967,1,0
376,192,156149,6,0,B|376:264|304:264,1,110,4|0
208,192,156513,2,0,B|208:120|280:120,1,110,8|0
288,192,156876,5,0
288,192,156967,1,0
288,192,157058,2,2,B|248:128|160:264|80:184,1,220
144,120,157603,6,0,B|200:96|256:120,1,110,4|0
192,184,157967,2,8,B|256:208|312:184,1,110,8|0
384,192,158331,5,0
424,168,158422,1,0
416,120,158513,2,2,B|344:64|256:56|192:80,1,220
208,74,158967,5,0
168,96,159058,1,4
168,96,159149,1,0
136,128,159240,1,2
136,128,159331,1,0
120,168,159422,1,8
120,168,159513,1,0
112,208,159603,2,2,B|136:280|208:296|256:232|280:328,1,220
278,321,160149,5,10
278,321,160331,1,2
400,192,160513,5,4
400,192,160694,1,0
256,88,160876,5,8
256,88,161058,1,0
256,88,161240,5,0
232,96,161331,1,0
216,112,161422,1,0
208,128,161513,1,2
208,152,161603,2,2,B|208:216|256:248,1,110,8|2
320,192,161967,6,0,B|368:224|432:192,1,110,4|0
376,120,162331,2,0,B|328:88|264:120,1,110,8|0
320,192,162694,6,0,B|296:200|264:200,1,55
224,200,162876,2,2,B|160:200|160:48|80:48,1,220
80,136,163422,6,0,B|80:248,1,110,4|0
80,136,163785,2,0,B|200:136,1,110,8|0
256,192,164149,5,2
256,192,164240,1,0
256,192,164331,1,0
256,192,164422,1,2
256,192,164513,1,8
352,192,164694,2,2,B|256:120|144:192,1,220
256,192,165331,5,0
256,192,165422,1,0
256,192,165513,1,0
256,192,165603,2,0,B|256:264|176:264,1,110,4|2
192,352,165967,2,0,B|256:352|256:272,1,110,8|2
256,192,166331,12,0,167058
256,192,167149,5,0
256,192,167240,1,0
256,192,167331,1,0
256,192,167422,1,0
256,192,167603,5,0
256,192,167785,5,4
296,192,167876,1,0
336,192,167967,1,2
336,104,168149,5,8
288,104,168240,1,0
240,104,168331,1,2
152,104,168513,5,0
152,144,168603,1,0
152,184,168694,1,2
152,272,168876,5,8
240,272,169058,5,2
144,192,173603,5,0
144,192,173694,1,0
144,192,173785,1,2
256,80,173967,5,0
256,80,174058,1,0
256,80,174149,1,2
368,192,174331,5,0
368,192,174422,1,0
368,192,174513,1,2
256,304,174694,5,0
256,304,174785,1,0
256,304,174876,1,2
72,192,179422,5,0
144,152,179603,1,0
216,192,179785,1,2
296,152,179967,1,2
376,192,180149,1,0
376,192,180240,1,0
376,192,180331,1,0
376,192,180422,1,0
376,192,180513,2,2,B|480:144,1,110
256,192,185240,6,0,B|144:192,1,110,0|2
256,192,185603,6,0,B|256:80,1,110,0|2
256,192,185967,6,0,B|368:192,1,110,0|2
256,192,186331,6,2,B|256:304,1,110
344,328,186694,5,4
344,328,186876,1,0
344,240,187058,1,8
344,240,187240,1,0
344,152,187422,1,2
344,152,187513,1,0
344,152,187603,1,0
344,64,187785,1,8
344,64,187967,1,2
256,192,193603,12,0,194331
256,192,194513,5,0
256,192,194694,1,0
256,48,195422,1,0
168,72,195603,1,0
256,88,195785,1,0
344,104,195967,1,0
256,128,196149,1,0
256,192,196694,12,0,198876
256,192,198967,5,0
256,192,199058,1,0
256,192,199331,1,0
