osu file format v14

[General]
AudioFilename: Weeds.mp3
AudioLeadIn: 0
PreviewTime: 80826
Countdown: 0
SampleSet: Soft
StackLeniency: 0.7
Mode: 0
LetterboxInBreaks: 0
WidescreenStoryboard: 1

[Editor]
DistanceSpacing: 1
BeatDivisor: 4
GridSize: 4
TimelineZoom: 1.4

[Metadata]
Title:Weeds
TitleUnicode:Weeds
Artist:Marina And The Diamonds
ArtistUnicode:Marina And The Diamonds
Creator:Desperate-kun
Version:Normal
Source:
Tags:Sieg Mao -Bakari- Collab Froot Marina Lambrini Diamandis Μαρίνα Λαμπρινή Διαμαντή
BeatmapID:749482
BeatmapSetID:297042

[Difficulty]
HPDrainRate:3
CircleSize:3.6
OverallDifficulty:3
ApproachRate:4
SliderMultiplier:1
SliderTickRate:2

[Events]
//Background and Video events
0,0,"bg.png",0,0
//Break Periods
//Storyboard Layer 0 (Background)
//Storyboard Layer 1 (Fail)
//Storyboard Layer 2 (Pass)
//Storyboard Layer 3 (Foreground)
//Storyboard Sound Samples

[TimingPoints]
306,480,4,2,2,50,1,0
31026,-100,4,2,1,65,0,0
46386,-100,4,2,1,80,0,0
61746,-100,4,2,2,50,0,0
64386,-100,4,2,2,25,0,0
65586,-100,4,2,1,80,0,0
80946,-100,4,2,1,65,0,0
111666,-100,4,2,1,80,0,0
127026,-100,4,2,2,50,0,0
129666,-100,4,2,2,25,0,0
130866,-100,4,2,1,80,0,0
163506,-133.333333333333,4,2,2,25,0,0
165426,-133.333333333333,4,2,2,5,0,0
167346,-133.333333333333,4,2,2,25,0,0
169266,-133.333333333333,4,2,2,5,0,0
171186,-133.333333333333,4,2,2,25,0,0
173106,-133.333333333333,4,2,2,5,0,0
175026,-133.333333333333,4,2,2,25,0,0
176946,-133.333333333333,4,2,2,5,0,0

[Colours]
Combo1 : 179,179,255
Combo2 : 255,176,98
Combo3 : 149,183,134
Combo4 : 236,198,236

[HitObjects]
131,194,15666,5,2,0:0:0:0:
221,236,16146,1,0,0:0:0:0:
280,156,16626,2,0,P|279:115|239:74,1,100,0|2,0:0|0:0,0:0:0:0:
142,101,17586,2,0,L|122:250,1,150,0|2,0:0|0:0,0:0:0:0:
134,288,18546,2,0,P|167:324|216:334,1,100,0|2,0:0|0:0,0:0:0:0:
253,320,19266,6,0,B|303:306|303:306|343:336|397:319,1,150
463,245,20466,1,0,0:0:0:0:
363,224,20946,2,0,P|330:205|314:146,1,100,2|0,0:0|0:0,0:0:0:0:
334,50,21906,1,0,0:0:0:0:
295,38,22146,2,0,L|141:54,1,150,2|2,0:0|0:0,0:0:0:0:
112,75,23106,6,0,P|139:130|225:138,1,150
284,216,24306,1,0,0:0:0:0:
359,150,24786,2,0,B|409:139|409:139|451:168,1,100,2|0,0:0|0:0,0:0:0:0:
380,300,25986,2,0,P|348:343|246:329,1,150,2|2,0:0|0:0,0:0:0:0:
185,271,27186,6,0,L|33:283,1,150,2|2,0:0|0:0,0:0:0:0:
48,183,28386,2,0,L|157:173,1,100,0|0,0:0|0:0,0:0:0:0:
187,169,29106,6,0,L|49:103,1,150,2|2,0:0|0:0,0:0:0:0:
113,24,30306,2,0,L|212:69,1,100,0|0,0:0|0:0,0:0:0:0:
242,56,31026,6,0,P|287:124|356:129,1,150,8|8,0:0|0:0,0:0:0:0:
434,76,32226,1,0,0:0:0:0:
434,76,32466,1,2,0:0:0:0:
476,166,32946,2,0,L|462:316,1,150,8|8,0:0|0:0,0:0:0:0:
423,303,33906,2,0,P|375:309|338:345,1,100,2|0,0:0|0:0,0:0:0:0:
253,291,34866,6,0,P|182:327|117:297,1,150,8|8,0:0|0:0,0:0:0:0:
75,212,36066,1,0,0:0:0:0:
75,212,36306,1,2,0:0:0:0:
118,121,36786,2,0,B|163:99|163:99|260:122,1,150,10|10,0:0|0:0,0:0:0:0:
331,192,37986,1,0,0:0:0:0:
383,106,38466,1,2,0:0:0:0:
400,70,38706,6,0,P|418:147|481:178,1,150,8|8,0:0|0:0,0:0:0:0:
433,321,40146,2,0,L|380:326,1,50,2|0,0:0|0:0,0:0:0:0:
358,294,40626,2,0,L|304:284,1,50,10|0,0:0|0:0,0:0:0:0:
203,284,41346,2,0,L|154:294,1,50,10|0,0:0|0:0,0:0:0:0:
128,325,41826,2,0,L|77:321,1,50,0|2,0:0|0:0,0:0:0:0:
25,236,42546,6,0,P|44:164|115:142,1,150,8|8,0:0|0:0,0:0:0:0:
256,174,43986,1,2,0:0:0:0:
312,256,44466,2,0,P|344:292|393:298,1,100,10|0,0:0|0:0,0:0:0:0:
437,273,45186,1,8,0:0:0:0:
437,222,45426,2,0,P|404:185|355:179,1,100,2|2,0:0|0:0,0:0:0:0:
299,96,46386,6,0,P|253:139|161:133,2,150,4|4|2,0:1|0:3|0:3,0:0:0:0:
345,76,48066,1,0,0:0:0:0:
391,56,48306,2,0,L|384:207,1,150,8|4,0:3|0:3,0:0:0:0:
351,300,49506,1,0,0:0:0:0:
351,300,49746,1,2,0:3:0:0:
255,265,50226,6,0,P|207:275|176:313,1,100,4|0,0:0|0:0,0:0:0:0:
130,333,50946,2,0,P|81:323|50:285,1,100,4|2,0:3|0:2,0:0:0:0:
45,235,51666,1,2,0:3:0:0:
130,183,52146,2,0,L|140:78,1,100,4|0,0:3|0:0,0:0:0:0:
116,38,52866,1,4,0:3:0:0:
214,20,53346,2,0,L|267:30,1,50,4|2,0:0|0:3,0:0:0:0:
330,103,54066,6,0,P|389:159|456:153,2,150,4|4|2,0:1|0:3|0:3,0:0:0:0:
280,97,55746,1,0,0:0:0:0:
239,126,55986,2,0,P|215:203|154:232,1,150,8|4,0:3|0:3,0:0:0:0:
65,194,57186,1,0,0:0:0:0:
65,194,57426,1,2,0:3:0:0:
145,133,57906,6,0,L|124:35,1,100,4|0,0:0|0:0,0:0:0:0:
171,18,58626,2,0,P|220:23|255:63,1,100,4|2,0:3|0:2,0:0:0:0:
265,107,59346,1,2,0:3:0:0:
225,198,59826,2,0,P|236:245|276:274,1,100,4|0,0:3|0:0,0:0:0:0:
325,280,60546,1,2,0:2:0:0:
417,243,61026,2,0,L|419:193,1,50,4|0,0:0|0:0,0:0:0:0:
256,192,61746,12,0,64386,0:0:0:0:
338,113,65586,6,0,L|489:102,2,150,4|4|2,0:1|0:3|0:3,0:0:0:0:
320,159,67266,1,0,0:0:0:0:
300,204,67506,2,0,P|235:229|166:190,1,150,8|4,0:3|0:3,0:0:0:0:
124,102,68706,2,0,L|131:43,1,50,0|2,0:0|0:3,0:0:0:0:
34,127,69426,6,0,L|60:279,1,150,4|4,0:2|0:3,0:0:0:0:
191,345,70866,2,0,P|221:344|247:331,1,50,2|0,0:3|0:0,0:0:0:0:
278,305,71346,2,0,P|328:277|419:303,1,150,4|0,0:3|0:0,0:0:0:0:
490,234,72546,1,0,0:0:0:0:
490,234,72786,1,2,0:3:0:0:
438,148,73266,6,0,P|380:147|314:79,2,150,4|4|2,0:2|0:3|0:3,0:0:0:0:
465,106,74946,1,0,0:0:0:0:
493,64,75186,2,0,L|475:216,1,150,8|4,0:3|0:3,0:0:0:0:
391,267,76386,2,0,L|325:260,1,50,2|2,0:2|0:3,0:0:0:0:
452,339,77106,6,0,L|301:360,1,150,4|4,0:2|0:3,0:0:0:0:
217,306,78306,2,0,P|209:282|211:257,1,50,2|2,0:2|0:3,0:0:0:0:
129,353,79026,2,0,P|79:330|55:239,2,150,4|8|2,0:0|0:3|0:3,0:0:0:0:
217,306,80946,1,12,0:1:0:0:
171,70,82386,6,0,L|223:67,1,50,2|2,0:3|2:0,0:0:0:0:
258,80,82866,2,0,P|289:138|369:140,1,150,4|8,0:3|0:3,0:0:0:0:
401,121,83826,1,0,0:0:0:0:
477,185,84306,1,2,0:3:0:0:
437,276,84786,6,0,P|392:324|314:305,1,150,4|4,0:3|0:3,0:0:0:0:
232,253,85986,1,0,0:0:0:0:
232,253,86226,1,2,0:3:0:0:
303,183,86706,2,0,P|309:111|251:69,1,150,4|8,0:3|0:3,0:0:0:0:
211,63,87666,2,0,L|109:74,1,100,0|4,0:0|0:2,0:0:0:0:
73,166,88626,6,0,L|222:149,2,150,4|8|2,0:3|0:3|0:3,0:0:0:0:
38,259,90546,2,0,P|65:315|150:328,1,150,4|8,0:2|0:3,0:0:0:0:
182,313,91506,1,2,0:2:0:0:
256,246,91986,1,4,0:2:0:0:
330,313,92466,6,0,B|380:325|380:325|472:291,1,150,0|8,0:0|0:3,0:0:0:0:
504,196,93666,2,0,L|494:144,1,50,0|2,0:0|0:3,0:0:0:0:
420,79,94386,2,0,B|370:67|370:67|278:101,1,150,4|8,0:3|0:3,0:0:0:0:
246,196,95586,2,0,L|256:248,2,50,0|2|0,0:0|0:3|0:0,0:0:0:0:
215,170,96306,6,0,P|145:147|82:182,1,150,4|0,0:2|0:0,0:0:0:0:
56,279,97506,1,0,0:0:0:0:
56,279,97746,1,2,0:3:0:0:
138,336,98226,2,0,P|207:358|270:323,1,150,4|8,0:3|0:3,0:0:0:0:
294,290,99186,2,0,P|343:274|393:292,1,100,2|2,0:2|0:3,0:0:0:0:
475,239,100146,6,0,L|459:90,1,150,4|4,0:2|0:2,0:0:0:0:
361,66,101346,1,0,0:0:0:0:
361,66,101586,1,2,3:0:0:0:
329,167,102066,2,0,P|280:181|203:125,1,150,4|8,0:3|0:3,0:0:0:0:
182,93,103026,2,0,P|141:83|84:103,1,100,0|2,0:0|0:3,0:0:0:0:
46,191,103986,6,0,P|67:260|134:287,1,150,4|4,0:3|0:2,0:0:0:0:
276,238,105426,2,0,L|269:298,1,50,2|2,0:3|0:2,0:0:0:0:
296,317,105906,2,0,P|368:308|406:246,1,150,4|8,0:3|0:3,0:0:0:0:
402,206,106866,1,0,0:0:0:0:
501,219,107346,1,4,0:2:0:0:
486,120,107826,6,0,P|437:66|364:69,1,150,2|8,0:3|0:3,0:0:0:0:
256,174,109266,1,2,0:3:0:0:
200,256,109746,2,0,P|168:292|119:298,1,100,4|0,0:3|0:0,0:0:0:0:
75,273,110466,1,2,0:0:0:0:
75,222,110706,2,0,P|108:185|157:179,1,100,4|0,0:2|0:0,0:0:0:0:
213,96,111666,6,0,P|259:139|351:133,2,150,4|4|2,0:1|0:3|0:3,0:0:0:0:
167,76,113346,1,0,0:0:0:0:
121,56,113586,2,0,L|128:207,1,150,8|4,0:3|0:3,0:0:0:0:
161,300,114786,1,0,0:0:0:0:
161,300,115026,1,2,0:3:0:0:
257,265,115506,6,0,P|305:275|336:313,1,100,2|0,0:2|0:0,0:0:0:0:
382,333,116226,2,0,P|431:323|462:285,1,100,4|2,0:3|0:2,0:0:0:0:
467,235,116946,1,2,0:3:0:0:
382,183,117426,2,0,L|372:78,1,100,4|0,0:3|0:0,0:0:0:0:
396,38,118146,1,4,0:3:0:0:
298,20,118626,2,0,L|245:30,1,50,4|2,0:0|0:3,0:0:0:0:
182,103,119346,6,0,P|123:159|56:153,2,150,4|4|2,0:1|0:3|0:3,0:0:0:0:
232,97,121026,1,0,0:0:0:0:
273,126,121266,2,0,P|297:203|358:232,1,150,8|4,0:3|0:3,0:0:0:0:
447,194,122466,1,0,0:0:0:0:
447,194,122706,1,2,0:3:0:0:
367,133,123186,6,0,L|388:35,1,100,4|0,0:0|0:2,0:0:0:0:
341,18,123906,2,0,P|292:23|257:63,1,100,4|2,0:3|0:2,0:0:0:0:
247,107,124626,1,2,0:3:0:0:
287,198,125106,2,0,P|276:245|236:274,1,100,4|0,0:3|0:0,0:0:0:0:
187,280,125826,1,2,0:2:0:0:
95,243,126306,2,0,L|93:193,1,50,4|0,0:0|0:0,0:0:0:0:
256,192,127026,12,0,129666,0:0:0:0:
174,113,130866,6,0,L|23:102,2,150,4|4|2,0:1|0:3|0:3,0:0:0:0:
192,159,132546,1,0,0:0:0:0:
212,204,132786,2,0,P|277:229|346:190,1,150,8|4,0:3|0:3,0:0:0:0:
388,102,133986,2,0,L|381:43,1,50,0|2,0:0|0:3,0:0:0:0:
478,127,134706,6,0,L|452:279,1,150,2|4,0:2|0:3,0:0:0:0:
321,345,136146,2,0,P|291:344|265:331,1,50,2|0,0:3|0:0,0:0:0:0:
234,305,136626,2,0,P|184:277|93:303,1,150,4|4,0:3|0:3,0:0:0:0:
22,234,137826,1,0,0:0:0:0:
22,234,138066,1,2,0:3:0:0:
74,148,138546,6,0,P|132:147|198:79,2,150,4|4|2,0:1|0:3|0:3,0:0:0:0:
47,106,140226,1,0,0:0:0:0:
19,64,140466,2,0,L|37:216,1,150,8|4,0:3|0:3,0:0:0:0:
121,267,141666,2,0,L|187:260,1,50,2|2,0:2|0:3,0:0:0:0:
60,339,142386,6,0,L|211:360,1,150,4|4,0:2|0:3,0:0:0:0:
295,306,143586,2,0,P|303:282|301:257,1,50,2|2,0:2|0:3,0:0:0:0:
383,353,144306,2,0,P|433:330|457:239,2,150,4|8|2,0:0|0:3|0:3,0:0:0:0:
295,306,146226,6,0,L|278:146,2,150,4|4|2,0:1|0:3|0:3,0:0:0:0:
261,342,147906,1,0,0:0:0:0:
218,315,148146,2,0,P|147:297|87:338,1,150,8|4,0:3|0:3,0:0:0:0:
18,265,149346,2,0,L|12:213,1,50,0|2,0:0|0:3,0:0:0:0:
120,205,150066,6,0,B|115:155|115:155|133:101|187:93,1,150,2|4,0:2|0:3,0:0:0:0:
225,238,151506,2,0,L|212:295,1,50,2|0,0:3|0:0,0:0:0:0:
244,326,151986,2,0,P|308:333|367:274,1,150,4|4,0:3|0:3,0:0:0:0:
355,183,153186,1,0,0:0:0:0:
355,183,153426,1,2,0:3:0:0:
437,125,153906,6,0,P|445:198|506:238,2,150,4|4|2,0:1|0:3|0:3,0:0:0:0:
426,76,155586,1,0,0:0:0:0:
393,38,155826,2,0,L|352:191,1,150,8|4,0:3|0:3,0:0:0:0:
322,277,157026,2,0,P|300:289|275:292,1,50,2|2,0:2|0:3,0:0:0:0:
417,270,157746,6,0,P|395:340|330:373,1,150,4|4,0:2|0:3,0:0:0:0:
275,292,158946,2,0,P|274:267|284:244,1,50,2|2,0:2|0:3,0:0:0:0:
232,377,159666,2,0,P|182:323|187:250,1,150,4|8,0:0|0:3,0:0:0:0:
221,156,160866,2,0,L|169:159,2,50,0|2|0,0:0|0:3|0:0,0:0:0:0:
256,192,161586,1,4,0:0:0:0:
376,76,163506,6,0,P|456:192|376:308,1,300.000011444092,4|4,0:0|0:0,0:0:0:0:
136,308,167346,6,0,P|56:192|136:75,1,300.000011444092,4|4,0:0|0:2,0:0:0:0:
382,132,171186,6,0,B|301:109|254:188|257:195|210:274|129:251,1,300.000011444092,4|4,0:0|0:0,0:0:0:0:
129,132,175026,6,0,B|210:109|257:188|254:195|301:274|382:251,1,300.000011444092,4|0,0:0|0:0,0:0:0:0:
