osu file format v14

[General]
AudioFilename: Weeds.mp3
AudioLeadIn: 0
PreviewTime: 80826
Countdown: 0
SampleSet: Soft
StackLeniency: 0.7
Mode: 0
LetterboxInBreaks: 0
WidescreenStoryboard: 1

[Editor]
Bookmarks: 15666,80946,161586,176946
DistanceSpacing: 1.4
BeatDivisor: 4
GridSize: 4
TimelineZoom: 2.4

[Metadata]
Title:Weeds
TitleUnicode:Weeds
Artist:Marina And The Diamonds
ArtistUnicode:Marina And The Diamonds
Creator:Desperate-kun
Version:Collab Hard
Source:
Tags:Sieg Mao -Bakari- Collab Froot Marina Lambrini Diamandis Μαρίνα Λαμπρινή Διαμαντή
BeatmapID:666877
BeatmapSetID:297042

[Difficulty]
HPDrainRate:7
CircleSize:4
OverallDifficulty:7
ApproachRate:7.5
SliderMultiplier:1.8
SliderTickRate:2

[Events]
//Background and Video events
0,0,"bg.png",0,0
//Break Periods
2,161786,162681
2,165625,166521
2,169465,170361
2,173305,174201
//Storyboard Layer 0 (Background)
//Storyboard Layer 1 (Fail)
//Storyboard Layer 2 (Pass)
//Storyboard Layer 3 (Foreground)
//Storyboard Sound Samples

[TimingPoints]
306,480,4,2,2,50,1,0
15666,-133.333333333333,4,2,2,50,0,0
31026,-114.942528735632,4,2,1,65,0,0
46386,-100,4,2,1,80,0,0
61746,-133.333333333333,4,2,2,50,0,0
65586,-100,4,2,1,80,0,0
80946,-114.942528735632,4,2,1,65,0,0
111666,-100,4,2,1,80,0,0
127026,-133.333333333333,4,2,2,50,0,0
130866,-100,4,2,1,80,0,0
163506,-166.666666666667,4,2,2,25,0,0
165426,-166.666666666667,4,2,2,5,0,0
167346,-166.666666666667,4,2,2,25,0,0
169266,-166.666666666667,4,2,2,5,0,0
171186,-166.666666666667,4,2,2,25,0,0
173106,-166.666666666667,4,2,2,5,0,0
175026,-166.666666666667,4,2,2,25,0,0
176946,-166.666666666667,4,2,2,5,0,0

[Colours]
Combo1 : 179,179,255
Combo2 : 255,176,98
Combo3 : 149,183,134
Combo4 : 236,198,236

[HitObjects]
209,98,15666,6,0,P|234:119|271:123,1,67.5000025749208,2|0,0:0|0:0,0:0:0:0:
422,92,16146,2,0,P|388:96|363:117,1,67.5000025749208,0|2,0:0|0:0,0:0:0:0:
323,229,16626,2,0,P|260:224|206:282,2,135.000005149842,0|2|0,0:0|0:0|0:0,0:0:0:0:
339,238,18306,5,2,0:0:0:0:
284,315,18546,2,0,L|142:338,1,135.000005149842,0|2,0:0|0:0,0:0:0:0:
24,234,19266,6,0,P|84:260|147:240,1,135.000005149842,0|0,0:0|0:0,0:0:0:0:
208,168,19986,2,0,P|219:135|248:113,1,67.5000025749208,0|2,0:0|0:0,0:0:0:0:
111,156,20466,2,0,P|108:121|86:92,1,67.5000025749208,0|0,0:0|0:0,0:0:0:0:
177,37,20946,2,0,P|212:64|316:50,1,135.000005149842,2|0,0:0|0:0,0:0:0:0:
314,53,21906,5,0,0:0:0:0:
404,24,22146,2,0,B|413:74|413:74|395:104|395:104|405:155,1,135.000005149842,2|0,0:0|0:0,0:0:0:0:
495,123,22866,1,2,0:0:0:0:
466,253,23106,6,0,P|411:261|370:332,1,135.000005149842,0|0,0:0|0:0,0:0:0:0:
241,316,23826,2,0,P|254:346|283:362,1,67.5000025749208,0|2,0:0|0:0,0:0:0:0:
284,224,24306,2,0,P|271:194|242:178,1,67.5000025749208
150,275,24786,2,0,L|61:266,2,67.5000025749208,2|0|0,0:0|0:0|0:0,0:0:0:0:
161,290,25746,5,0,0:0:0:0:
84,345,25986,2,0,P|39:332|8:246,1,135.000005149842,2|0,0:0|0:0,0:0:0:0:
59,179,26706,2,0,P|63:144|52:110,1,67.5000025749208,2|0,0:0|0:0,0:0:0:0:
166,37,27186,5,2,0:0:0:0:
244,121,27426,1,0,0:0:0:0:
325,53,27666,1,0,0:0:0:0:
401,108,27906,2,0,P|436:115|468:108,1,67.5000025749208,2|0,0:0|0:0,0:0:0:0:
386,209,28386,2,0,P|324:191|259:232,1,135.000005149842,0|0,0:0|0:0,0:0:0:0:
340,334,29106,5,2,0:0:0:0:
228,355,29346,1,0,0:0:0:0:
148,287,29586,1,0,0:0:0:0:
204,212,29826,2,0,P|229:235|240:267,1,67.5000025749208,2|0,0:0|0:0,0:0:0:0:
150,362,30306,2,0,P|109:319|29:322,1,135.000005149842,0|0,0:0|0:0,0:0:0:0:
60,198,31026,6,0,L|241:179,1,156.60000131424,8|0,0:0|0:0,0:0:0:0:
296,273,31746,2,0,L|460:287,1,156.60000131424,8|0,0:0|0:0,0:0:0:0:
500,174,32466,2,0,P|478:148|470:103,1,78.3000006571198,0|2,0:0|0:0,0:0:0:0:
327,45,32946,6,0,P|312:75|316:121,1,78.3000006571198,8|0,0:0|0:0,0:0:0:0:
391,198,33426,1,2,0:0:0:0:
359,303,33666,1,8,0:0:0:0:
284,224,33906,1,2,0:0:0:0:
411,112,34146,2,0,P|416:180|491:224,1,156.60000131424,0|0,0:0|0:0,0:0:0:0:
423,346,34866,6,0,L|251:370,1,156.60000131424,8|0,0:0|0:0,0:0:0:0:
191,275,35586,2,0,L|19:251,1,156.60000131424,8|0,0:0|0:0,0:0:0:0:
12,133,36306,1,2,0:0:0:0:
121,50,36546,1,0,0:0:0:0:
276,93,36786,5,10,0:0:0:0:
274,202,37026,2,0,P|232:198|201:170,1,78.3000006571198
352,169,37506,2,0,P|346:245|283:287,2,156.60000131424,10|0|2,0:0|0:0|0:0,0:0:0:0:
251,67,38706,6,0,L|437:58,1,156.60000131424,8|0,0:0|0:0,0:0:0:0:
353,170,39426,2,0,L|509:182,1,156.60000131424,8|0,0:0|0:0,0:0:0:0:
459,296,40146,2,0,P|418:304|390:335,1,78.3000006571198,2|0,0:0|0:0,0:0:0:0:
288,272,40626,5,10,0:0:0:0:
194,345,40866,2,0,P|161:323|123:323,1,78.3000006571198
187,176,41346,1,10,0:0:0:0:
74,212,41586,2,0,P|35:212|3:190,1,78.3000006571198,0|0,0:0|0:0,0:0:0:0:
45,53,42066,2,0,P|44:91|63:125,1,78.3000006571198,2|0,0:0|0:0,0:0:0:0:
201,57,42546,6,0,P|199:117|279:168,1,156.60000131424,8|0,0:0|0:0,0:0:0:0:
391,149,43266,2,0,L|363:332,1,156.60000131424,8|0,0:0|0:0,0:0:0:0:
270,374,43986,1,2,0:0:0:0:
133,352,44226,1,0,0:0:0:0:
96,193,44466,6,0,P|142:253|217:266,1,156.60000131424,10|0,0:0|0:0,0:0:0:0:
200,158,45186,1,8,0:0:0:0:
329,287,45426,2,0,L|352:132,1,156.60000131424,2|2,0:0|0:0,0:0:0:0:
10,79,46386,6,0,P|79:98|153:31,1,180,4|0,0:1|0:0,0:0:0:0:
258,96,47106,2,0,P|316:32|401:47,1,180,4|0,0:3|0:0,0:0:0:0:
493,135,47826,1,2,0:3:0:0:
402,239,48066,1,0,0:0:0:0:
510,347,48306,6,0,B|451:361|451:361|394:342|394:342|333:357,1,180,8|0,0:3|0:0,0:0:0:0:
241,273,49026,2,0,P|182:336|97:321,1,180,4|0,0:3|0:0,0:0:0:0:
22,219,49746,1,2,0:3:0:0:
153,252,49986,1,0,0:0:0:0:
207,105,50226,6,0,L|117:117,2,90,4|0|0,0:0|0:0|0:0,0:0:0:0:
315,225,50946,1,4,0:3:0:0:
416,122,51186,1,0,0:0:0:0:
507,208,51426,1,2,0:2:0:0:
436,312,51666,2,0,P|390:313|354:344,1,90,2|0,0:3|0:0,0:0:0:0:
206,277,52146,6,0,P|160:276|124:245,2,90,4|0|0,0:3|0:0|0:0,0:0:0:0:
346,195,52866,1,4,0:3:0:0:
235,102,53106,1,2,0:2:0:0:
350,52,53346,2,0,P|396:53|432:84,2,90,4|2|0,0:0|0:3|0:0,0:0:0:0:
159,61,54066,6,0,P|160:146|236:188,1,180,4|0,0:1|0:0,0:0:0:0:
302,296,54786,2,0,L|108:316,1,180,4|0,0:3|0:0,0:0:0:0:
23,236,55506,1,2,0:3:0:0:
143,158,55746,1,0,0:0:0:0:
292,224,55986,6,0,P|320:271|441:274,1,180,8|0,0:3|0:0,0:0:0:0:
506,173,56706,2,0,L|447:0,1,180,4|0,0:3|0:0,0:0:0:0:
357,90,57426,1,2,0:3:0:0:
232,18,57666,1,0,0:0:0:0:
106,121,57906,6,0,P|61:133|16:121,2,90,4|0|0,0:0|0:0|0:0,0:0:0:0:
238,216,58626,1,4,0:3:0:0:
173,345,58866,1,0,0:0:0:0:
56,298,59106,1,2,0:2:0:0:
148,211,59346,2,0,L|238:216,1,90,2|0,0:3|0:0,0:0:0:0:
369,314,59826,6,0,P|414:302|459:314,2,90,4|0|0,0:3|0:0|0:0,0:0:0:0:
313,159,60546,2,0,L|320:64,1,90,2|0,0:2|0:0,0:0:0:0:
439,115,61026,2,0,L|432:204,1,90,4|0,0:0|0:0,0:0:0:0:
344,341,61506,1,0,0:0:0:0:
226,292,61746,6,0,B|122:259|136:347|33:314,2,202.500007724762,2|0|0,0:2|0:0|0:0,0:0:0:0:
256,192,63426,12,0,65106,0:2:0:0:
146,103,65586,6,0,B|196:132|196:132|315:105,1,180,4|0,0:1|0:0,0:0:0:0:
430,51,66306,2,0,P|446:102|387:213,1,180,4|0,0:3|0:0,0:0:0:0:
270,242,67026,1,2,0:3:0:0:
380,330,67266,1,0,0:0:0:0:
218,345,67506,6,0,P|142:322|60:382,1,180,8|0,0:3|0:0,0:0:0:0:
67,379,68226,2,0,P|90:303|30:221,1,180,4|0,0:3|0:0,0:0:0:0:
8,101,68946,1,2,0:3:0:0:
143,155,69186,1,0,0:0:0:0:
278,64,69426,6,0,B|261:97|277:128|277:128|249:158|241:195|256:237,1,180,4|0,0:2|0:0,0:0:0:0:
305,350,70146,2,0,P|359:282|339:197,1,180,4|0,0:3|0:0,0:0:0:0:
402,88,70866,1,2,0:3:0:0:
476,198,71106,1,0,0:0:0:0:
293,105,71346,6,0,P|238:173|258:258,1,180,4|0,0:3|0:0,0:0:0:0:
163,334,72066,1,0,0:0:0:0:
45,305,72306,1,2,0:2:0:0:
0,194,72546,1,0,0:0:0:0:
53,87,72786,1,2,0:3:0:0:
194,55,73026,1,0,0:0:0:0:
316,154,73266,6,0,B|352:182|352:182|406:188|446:152|448:106,1,180,4|0,0:2|0:0,0:0:0:0:
336,50,73986,2,0,P|276:55|210:163,1,180,4|0,0:3|0:0,0:0:0:0:
257,263,74706,1,2,0:3:0:0:
161,366,74946,1,0,0:0:0:0:
86,224,75186,6,0,B|153:230|153:230|190:258|190:258|257:263,1,180,8|0,0:3|0:0,0:0:0:0:
350,346,75906,2,0,P|435:346|489:267,1,180,4|2,0:3|0:2,0:0:0:0:
351,108,76626,1,2,0:3:0:0:
476,93,76866,1,0,0:0:0:0:
281,224,77106,6,0,P|207:181|121:222,1,180,4|0,0:2|0:0,0:0:0:0:
56,329,77826,2,0,P|142:341|202:278,1,180,4|2,0:3|0:2,0:0:0:0:
71,105,78546,1,2,0:3:0:0:
0,214,78786,1,0,0:0:0:0:
214,173,79026,6,0,B|220:227|220:227|262:280|262:280|270:340,1,180,4|0,0:0|0:0,0:0:0:0:
391,371,79746,2,0,P|444:308|422:217,1,180,8|0,0:3|0:0,0:0:0:0:
325,140,80466,2,0,P|309:94|317:49,1,90,2|0,0:3|0:0,0:0:0:0:
483,26,80946,5,12,0:1:0:0:
96,44,81666,1,4,0:3:0:0:
338,190,82386,1,2,0:3:0:0:
252,285,82626,1,2,2:0:0:0:
397,263,82867,6,0,L|474:280,1,78.3000006571198,4|0,0:3|0:0,0:0:0:0:
412,107,83346,1,0,0:0:0:0:
249,173,83586,2,0,L|267:95,1,78.3000006571198,8|0,0:3|0:0,0:0:0:0:
415,184,84066,1,0,0:0:0:0:
280,254,84306,6,0,P|212:251|161:174,2,156.60000131424,4|4|0,0:2|0:3|0:0,0:0:0:0:
214,78,85506,2,0,P|140:55|77:97,1,156.60000131424,4|0,0:3|0:0,0:0:0:0:
53,227,86226,1,2,0:3:0:0:
32,353,86466,1,2,0:2:0:0:
183,266,86706,6,0,L|262:232,1,78.3000006571198,4|0,0:3|0:0,0:0:0:0:
129,169,87186,1,0,0:0:0:0:
99,301,87427,2,0,P|155:351|230:340,1,156.60000131424,8|0,0:3|0:0,0:0:0:0:
327,220,88146,1,4,0:2:0:0:
414,302,88386,1,0,0:0:0:0:
512,171,88626,6,0,P|506:95|444:51,1,156.60000131424,4|0,0:3|0:0,0:0:0:0:
298,173,89346,2,0,P|372:187|430:138,1,156.60000131424,8|0,0:3|0:0,0:0:0:0:
283,51,90066,1,2,0:3:0:0:
176,115,90306,1,2,0:2:0:0:
100,268,90546,6,0,P|51:210|65:135,1,156.60000131424,4|0,0:2|0:0,0:0:0:0:
198,32,91266,1,8,0:3:0:0:
289,176,91506,2,0,L|277:272,1,78.3000006571198,2|0,0:2|0:0,0:0:0:0:
236,106,91986,2,0,P|310:91|368:140,1,156.60000131424,4|0,0:2|0:0,0:0:0:0:
396,306,92706,5,2,0:2:0:0:
283,349,92946,1,0,0:0:0:0:
162,243,93186,2,0,B|147:182|147:182|120:145|120:145|111:87,1,156.60000131424,8|0,0:3|0:0,0:0:0:0:
55,267,93906,2,0,L|69:353,1,78.3000006571198,2|0,0:3|0:0,0:0:0:0:
218,304,94386,5,4,0:3:0:0:
304,218,94626,1,0,0:2:0:0:
424,234,94866,1,2,0:2:0:0:
464,93,95106,2,0,P|388:98|336:43,1,156.60000131424,8|0,0:3|0:0,0:0:0:0:
220,151,95826,2,0,L|288:113,1,78.3000006571198,2|0,0:3|0:0,0:0:0:0:
137,155,96306,6,0,B|145:217|196:244|238:239|269:216|269:216|244:277|265:306|282:325|307:342,1,313.200002628479,4|0,0:2|0:0,0:0:0:0:
410,236,97506,2,0,P|371:242|340:264,1,78.3000006571198,0|2,0:0|0:3,0:0:0:0:
482,329,97986,1,2,0:2:0:0:
340,354,98226,6,0,P|270:323|251:250,1,156.60000131424,4|0,0:3|0:0,0:0:0:0:
344,157,98946,1,8,0:3:0:0:
289,36,99186,2,0,B|241:49|241:49|196:40|196:40|135:53,1,156.60000131424,2|2,0:2|0:3,0:0:0:0:
190,176,99906,1,0,0:0:0:0:
130,293,100146,6,0,P|55:277|21:210,1,156.60000131424,4|0,0:2|0:0,0:0:0:0:
199,246,100866,2,0,P|205:320|150:373,1,156.60000131424,4|0,0:3|0:0,0:0:0:0:
103,210,101586,1,2,3:0:0:0:
193,122,101826,1,0,0:0:0:0:
289,236,102066,6,0,L|298:317,1,78.3000006571198,4|0,0:3|0:0,0:0:0:0:
384,166,102546,1,0,0:0:0:0:
372,306,102786,2,0,P|429:353|504:339,1,156.60000131424,8|0,0:3|0:0,0:0:0:0:
477,204,103506,1,2,0:3:0:0:
497,80,103746,1,2,0:2:0:0:
368,27,103986,6,0,L|202:43,1,156.60000131424,4|0,0:3|0:0,0:0:0:0:
77,144,104706,2,0,B|136:138|136:138|169:123|169:123|230:117,1,156.60000131424,4|0,0:3|0:0,0:0:0:0:
362,184,105426,1,2,0:3:0:0:
396,304,105666,1,2,0:2:0:0:
257,347,105907,6,0,L|167:359,1,78.3000006571198,4|0,0:3|0:0,0:0:0:0:
251,218,106386,1,0,0:0:0:0:
73,311,106626,2,0,P|132:265|134:189,1,156.60000131424,8|0,0:3|0:0,0:0:0:0:
41,38,107346,2,0,B|4:120,1,78.3000006571198,4|0,0:2|0:0,0:0:0:0:
57,225,107826,5,2,0:3:0:0:
136,109,108066,2,0,B|173:27,1,78.3000006571198,2|0,0:2|0:0,0:0:0:0:
225,177,108546,2,0,P|280:228|274:304,1,156.60000131424,8|0,0:3|0:0,0:0:0:0:
344,153,109266,2,0,L|275:91,1,78.3000006571198,2|0,0:3|0:0,0:0:0:0:
365,232,109746,6,0,P|404:296|479:306,1,156.60000131424,4|0,0:3|0:0,0:0:0:0:
482,168,110466,1,2,0:0:0:0:
358,33,110706,2,0,L|522:58,1,156.60000131424,4|0,0:2|0:0,0:0:0:0:
256,336,111666,6,0,B|220:304|256:252|256:244|292:192|256:168,1,180,4|0,0:1|0:0,0:0:0:0:
45,254,112386,2,0,P|102:190|187:204,1,180,4|0,0:3|0:0,0:0:0:0:
320,294,113106,1,2,0:3:0:0:
444,221,113346,1,0,0:0:0:0:
353,49,113586,6,0,P|367:133|303:191,1,180,8|0,0:3|0:0,0:0:0:0:
140,152,114306,2,0,P|199:89|284:104,1,180,4|0,0:3|0:0,0:0:0:0:
192,294,115026,1,2,0:3:0:0:
68,221,115266,1,0,0:0:0:0:
225,136,115506,6,0,P|166:73|81:88,1,180,2|0,0:2|0:0,0:0:0:0:
253,33,116226,1,4,0:3:0:0:
396,40,116466,1,0,0:0:0:0:
320,162,116706,1,2,0:2:0:0:
138,157,116946,2,0,P|101:189|87:233,1,90,2|0,0:3|0:0,0:0:0:0:
187,363,117426,6,0,L|90:343,1,90,4|0,0:3|0:0,0:0:0:0:
215,246,117906,2,0,L|303:264,1,90,0|4,0:0|0:3,0:0:0:0:
416,360,118386,1,2,0:2:0:0:
488,239,118626,1,0,0:0:0:0:
457,103,118866,1,2,0:3:0:0:
339,26,119106,1,0,0:0:0:0:
112,80,119346,6,0,P|171:143|256:128,1,180,4|0,0:1|0:0,0:0:0:0:
208,274,120066,2,0,B|136:252|136:252|88:260|88:260|29:242,1,180,4|0,0:3|0:0,0:0:0:0:
113,81,120786,1,2,0:3:0:0:
247,30,121026,1,0,0:0:0:0:
363,228,121266,6,0,P|278:211|245:131,1,180,8|0,0:3|0:0,0:0:0:0:
453,206,121986,2,0,P|436:290|356:322,1,180,4|0,0:3|0:0,0:0:0:0:
334,141,122706,1,2,0:3:0:0:
441,45,122946,1,0,0:0:0:0:
225,35,123186,6,0,L|137:52,1,90,2|0,0:2|0:0,0:0:0:0:
0,129,123666,2,0,P|84:145|116:225,1,180,4|0,0:0|0:0,0:0:0:0:
27,347,124386,1,2,0:2:0:0:
173,308,124626,2,0,L|261:331,1,90,2|0,0:3|0:0,0:0:0:0:
219,168,125106,5,4,0:3:0:0:
150,45,125346,2,0,L|62:22,1,90,0|0,0:0|0:0,0:0:0:0:
256,35,125826,2,0,L|344:58,1,90,2|0,0:2|0:0,0:0:0:0:
512,129,126306,2,0,P|427:145|395:225,1,180,4|0,0:0|0:0,0:0:0:0:
485,347,127026,1,2,0:2:0:0:
256,192,127146,12,0,130386,0:2:0:0:
45,286,130866,6,0,P|61:201|141:169,1,180,4|0,0:1|0:0,0:0:0:0:
292,248,131586,2,0,P|317:330|400:354,1,180,4|0,0:3|0:0,0:0:0:0:
501,235,132306,1,2,0:3:0:0:
456,117,132546,1,0,0:0:0:0:
315,57,132786,6,0,B|243:35|243:35|195:43|195:43|136:25,1,180,8|0,0:3|0:0,0:0:0:0:
136,234,133506,2,0,B|182:172|141:106|141:106|95:86,1,180,4|0,0:3|0:0,0:0:0:0:
4,209,134226,1,2,0:3:0:0:
18,334,134466,1,0,0:0:0:0:
175,328,134706,6,0,B|250:333|250:333|292:357|292:357|353:362,1,180,2|0,0:2|0:0,0:0:0:0:
508,348,135426,2,0,P|423:320|398:237,1,180,4|0,0:3|0:0,0:0:0:0:
339,72,136146,2,0,B|314:170,1,90,2|0,0:3|0:0,0:0:0:0:
149,167,136626,6,0,P|232:190|257:273,1,180,4|0,0:3|0:0,0:0:0:0:
118,362,137346,1,4,0:3:0:0:
27,278,137586,1,2,0:2:0:0:
13,155,137826,1,0,0:0:0:0:
81,53,138066,1,2,0:3:0:0:
200,20,138306,1,0,0:0:0:0:
108,172,138546,6,0,P|176:225|257:196,1,180,4|0,0:1|0:0,0:0:0:0:
438,153,139266,2,0,P|359:188|345:273,1,180,4|0,0:3|0:0,0:0:0:0:
471,362,139986,1,2,0:3:0:0:
429,242,140226,1,0,0:0:0:0:
376,82,140466,6,0,P|311:24|228:46,1,180,8|0,0:3|0:0,0:0:0:0:
100,154,141186,2,0,L|195:188,1,90,4|0,0:3|0:0,0:0:0:0:
286,311,141666,2,0,L|191:277,1,90,2|2,0:2|0:3,0:0:0:0:
75,353,142146,1,0,0:0:0:0:
10,219,142386,6,0,B|15:143|15:143|39:101|39:101|44:40,1,180,4|0,0:2|0:0,0:0:0:0:
103,186,143106,2,0,L|99:283,1,90,4|0,0:3|0:0,0:0:0:0:
158,101,143586,2,0,L|162:4,1,90,2|2,0:2|0:3,0:0:0:0:
304,81,144066,1,0,0:0:0:0:
326,234,144306,6,0,P|411:242|466:175,1,180,8|0,0:3|0:0,0:0:0:0:
293,162,145026,2,0,P|206:162|159:234,1,180,8|0,0:3|0:0,0:0:0:0:
287,335,145746,2,0,L|194:344,1,90,2|0,0:3|0:0,0:0:0:0:
347,265,146226,6,0,B|377:306|377:306|453:330|504:268,1,180,4|0,0:1|0:0,0:0:0:0:
421,117,146946,2,0,P|368:48|282:54,1,180,4|0,0:3|0:0,0:0:0:0:
266,200,147666,1,2,0:3:0:0:
335,305,147906,1,0,0:0:0:0:
192,347,148146,6,0,P|105:353|53:284,1,180,8|0,0:3|0:0,0:0:0:0:
108,127,148866,2,0,B|147:143|147:143|188:209|142:271,1,180,4|0,0:3|0:0,0:0:0:0:
11,182,149586,1,2,0:3:0:0:
33,58,149826,1,0,0:0:0:0:
186,31,150066,6,0,B|261:36|261:36|303:60|303:60|364:65,1,180,2|0,0:2|0:0,0:0:0:0:
480,199,150786,2,0,P|412:145|327:165,1,180,4|0,0:3|0:0,0:0:0:0:
405,325,151506,2,0,B|391:218,1,90,2|0,0:3|0:0,0:0:0:0:
240,188,151986,6,0,P|259:272|205:340,1,180,4|0,0:3|0:0,0:0:0:0:
73,245,152706,1,4,0:3:0:0:
56,123,152946,1,2,0:2:0:0:
134,28,153186,1,0,0:0:0:0:
256,20,153426,1,2,0:3:0:0:
346,103,153666,1,0,0:0:0:0:
419,277,153906,6,0,B|424:202|424:202|448:160|448:160|453:99,1,180,4|0,0:1|0:0,0:0:0:0:
326,209,154626,2,0,P|261:150|175:164,1,180,4|0,0:3|0:0,0:0:0:0:
87,288,155346,1,2,0:3:0:0:
193,353,155586,1,0,0:0:0:0:
326,209,155826,6,0,P|409:232|434:314,1,180,8|0,0:3|0:0,0:0:0:0:
270,324,156546,2,0,P|310:296|369:293,1,90,4|0,0:3|0:0,0:0:0:0:
510,232,157026,2,0,P|482:192|479:133,1,90,2|2,0:2|0:3,0:0:0:0:
497,17,157506,1,0,0:0:0:0:
346,36,157746,6,0,B|271:41|271:41|229:65|229:65|168:70,1,180,4|0,0:2|0:0,0:0:0:0:
17,135,158466,2,0,P|59:149|84:190,1,90,4|0,0:3|0:0,0:0:0:0:
130,348,158946,2,0,P|137:304|173:273,1,90,2|2,0:2|0:3,0:0:0:0:
325,249,159426,1,0,0:0:0:0:
256,120,159666,6,0,B|292:152|256:204|256:212|220:264|254:287,1,180,4|0,0:3|0:0,0:0:0:0:
415,360,160386,2,0,P|481:305|470:219,1,180,8|0,0:3|0:0,0:0:0:0:
397,49,161106,2,0,P|359:71|343:113,1,90,2|0,0:3|0:0,0:0:0:0:
325,250,161586,1,4,0:0:0:0:
25,224,163506,6,0,B|43:173|109:150|155:190|155:190|200:228|271:212|291:156|291:156|278:199|294:232|325:250,1,431.999986816407,4|4,0:0|0:0,0:0:0:0:
512,94,167346,6,0,B|494:43|428:20|382:60|382:60|337:98|266:82|246:26|246:26|259:69|243:102|212:120,1,431.999986816407,4|4,0:0|0:0,0:1:0:0:
465,306,171186,6,0,B|382:352|221:230|344:118|507:153|428:340|333:341,1,431.999986816407,4|4,0:0|0:0,0:0:0:0:
47,306,175026,6,0,B|129:352|290:230|167:118|4:153|83:340|178:341,1,431.999986816407,4|0,0:0|0:0,0:0:0:0:
