osu file format v14

[General]
AudioFilename: 11 Savages.mp3
AudioLeadIn: 0
PreviewTime: 64150
Countdown: 0
SampleSet: Soft
StackLeniency: 0.7
Mode: 0
LetterboxInBreaks: 0
WidescreenStoryboard: 1

[Editor]
Bookmarks: 48275,64275,80275,96275,112275,128275,144275,160275,186275,194275,218275
DistanceSpacing: 1
BeatDivisor: 4
GridSize: 8
TimelineZoom: 1.2

[Metadata]
Title:Savages
TitleUnicode:Savages
Artist:Marina And The Diamonds
ArtistUnicode:Marina And The Diamonds
Creator:Mao
Version:Twin Average
Source:
Tags:-Bakari- FROOT Marina Lambrini Diamandis Μαρίνα Λαμπρινή Διαμαντή David Kosten Desperate-kun
BeatmapID:664762
BeatmapSetID:293155

[Difficulty]
HPDrainRate:3
CircleSize:3.3
OverallDifficulty:3
ApproachRate:4
SliderMultiplier:1
SliderTickRate:2

[Events]
//Background and Video events
0,0,"bg.jpg",0,0
//Break Periods
2,186475,192955
//Storyboard Layer 0 (Background)
//Storyboard Layer 1 (Fail)
//Storyboard Layer 2 (Pass)
//Storyboard Layer 3 (Foreground)
//Storyboard Sound Samples

[TimingPoints]
32275,500,4,2,0,80,1,0
63150,-100,4,2,0,60,0,0
63275,-100,4,2,0,80,0,0
64275,-86.9565217391304,4,2,1,80,0,1
80275,-100,4,2,0,80,0,0
128275,-86.9565217391304,4,2,1,80,0,1
144212,-86.9565217391304,4,2,1,80,0,0
144275,-86.9565217391304,4,2,1,80,0,1
160275,-105.263157894737,4,2,2,70,0,0
183400,-105.263157894737,4,2,2,45,0,0
194275,-100,4,2,2,55,0,0
202275,-86.9565217391304,4,2,1,80,0,1
218275,-100,4,2,1,80,0,0
246525,-100,4,2,1,5,0,0

[Colours]
Combo1 : 253,189,191
Combo2 : 252,172,129
Combo3 : 152,128,234
Combo4 : 237,10,55
Combo5 : 101,143,243

[HitObjects]
102,39,32275,6,0,L|96:100,1,50,4|4,0:0|0:3,0:0:0:0:
77,134,32775,2,0,P|105:171|117:242,1,100,0|4,1:0|3:0,0:0:0:0:
87,317,33775,1,0,1:0:0:0:
186,311,34275,2,0,B|235:318|235:318|273:359,1,100,4|0,3:0|1:0,0:0:0:0:
319,358,35025,1,0,0:0:0:0:
360,329,35275,2,0,B|371:279|371:279|410:249,1,100,4|0,3:0|1:0,0:0:0:0:
491,191,36275,5,4,0:3:0:0:
419,120,36775,2,0,P|376:118|315:157,2,100,0|4|0,1:0|3:0|1:0,0:0:0:0:
491,191,38275,2,0,L|479:255,1,50,4|4,3:0|0:3,0:0:0:0:
440,267,38775,2,0,L|412:319,1,50,0|2,1:0|0:0,0:0:0:0:
369,328,39275,2,0,B|323:348|323:348|253:343,1,100,4|0,3:0|1:0,0:0:0:0:
191,286,40275,5,4,0:0:0:0:
104,335,40775,1,0,1:0:0:0:
47,252,41275,2,0,L|-11:240,2,50,4|4|0,3:0|0:3|1:0,0:0:0:0:
134,202,42275,2,0,P|152:160|147:103,2,100,4|0|4,3:0|1:0|3:0,0:0:0:0:
191,286,43775,2,0,L|247:296,1,50,0|2,1:0|0:0,0:0:0:0:
287,279,44275,6,0,P|345:342|451:301,1,200,4|4,0:3|3:0,0:0:0:0:
485,220,45775,1,0,1:0:0:0:
487,120,46275,2,0,P|429:57|323:98,1,200,4|4,3:0|3:0,0:0:0:0:
289,179,47775,2,0,L|226:195,1,50,0|2,1:0|0:0,0:0:0:0:
201,222,48275,6,0,P|190:275|207:333,1,100,6|0,0:0|1:0,0:0:0:0:
242,347,49025,1,2,0:0:0:0:
291,352,49275,2,0,L|391:336,1,100,4|0,3:0|1:0,0:0:0:0:
485,365,50275,2,0,P|500:326|488:260,1,100,4|0,3:0|1:0,0:0:0:0:
465,227,51025,1,2,0:0:0:0:
435,186,51275,2,0,P|426:137|442:90,1,100,4|0,3:0|1:0,0:0:0:0:
358,36,52275,6,0,P|319:67|271:77,1,100,4|0,3:0|1:0,0:0:0:0:
225,57,53025,1,2,0:0:0:0:
183,29,53275,2,0,L|177:140,1,100,4|0,3:0|1:0,0:0:0:0:
177,228,54275,2,0,P|198:261|256:290,1,100,4|0,3:0|1:0,0:0:0:0:
349,303,55275,1,4,3:0:0:0:
447,284,55775,2,0,P|445:260|438:235,1,50,0|0,1:0|0:0,0:0:0:0:
404,199,56275,6,0,P|403:144|422:91,1,100,4|0,0:0|1:0,0:0:0:0:
449,64,57025,1,2,0:0:0:0:
423,20,57275,2,0,L|308:29,1,100,4|0,3:0|1:0,0:0:0:0:
223,31,58275,2,0,P|226:71|199:137,1,100,4|0,3:0|1:0,0:0:0:0:
172,163,59025,1,2,0:0:0:0:
124,178,59275,2,0,P|76:175|30:150,1,100,6|0,3:0|1:0,0:0:0:0:
6,247,60275,6,0,L|6:304,2,50,4|2|0,0:0|0:0|1:0,0:0:0:0:
48,272,61025,2,0,P|68:313|126:344,1,100,6|2,0:0|0:0,0:0:0:0:
203,298,62025,1,0,0:0:0:0:
246,273,62275,2,0,P|288:298|310:342,1,100,4|0,0:0|1:0,0:0:0:0:
355,365,63025,1,2,0:0:0:0:
405,365,63275,2,0,L|456:352,2,50,4|8|4,3:0|0:3|1:2,0:0:0:0:
384,251,64275,6,0,P|396:198|440:155,1,115.000002193451,4|8,1:0|1:0,0:0:0:0:
445,98,65025,1,0,0:0:0:0:
386,89,65275,2,0,P|337:117|280:116,1,115.000002193451,2|8,1:0|1:0,0:0:0:0:
226,96,66025,2,0,B|173:72|173:72|58:103,1,172.500003290176,2|10,0:1|1:0,0:0:0:0:
2,200,67275,2,0,L|-2:264,2,57.5000010967255,2|4|10,1:0|0:0|1:0,0:0:0:0:
110,237,68275,6,0,P|126:280|198:324,1,115.000002193451,4|8,1:0|1:0,0:0:0:0:
231,293,69025,1,4,0:3:0:0:
279,324,69275,2,0,P|329:298|386:304,1,115.000002193451,2|8,1:0|1:0,0:0:0:0:
436,333,70025,2,0,B|406:280|406:280|435:168,1,172.500003290176,2|10,0:1|1:0,0:0:0:0:
357,86,71275,2,0,P|348:53|348:13,2,57.5000010967255,2|4|10,1:0|0:0|1:0,0:0:0:0:
319,195,72275,5,4,1:0:0:0:
243,108,72775,1,8,1:0:0:0:
184,207,73275,2,0,P|145:222|70:213,1,115.000002193451,2|8,1:0|1:0,0:0:0:0:
21,189,74025,2,0,P|51:237|56:293,1,115.000002193451,2|4,0:1|3:0,0:0:0:0:
23,340,74775,2,0,B|69:373|69:373|129:362,1,115.000002193451,10|6,1:0|1:0,0:0:0:0:
230,313,75775,1,8,1:0:0:0:
333,362,76275,6,0,P|365:342|444:341,1,115.000002193451,4|8,1:0|1:0,0:0:0:0:
493,363,77025,2,0,B|470:246|470:246|489:189,1,172.500003290176,2|0,3:1|1:0,0:0:0:0:
411,108,78275,2,0,P|402:78|398:20,2,86.2500016450882,4|2|2,1:0|0:1|0:1,0:0:0:0:
384,159,79275,2,0,P|345:181|275:176,1,115.000002193451,2|0,1:0|1:0,0:0:0:0:
209,102,80275,6,0,L|107:89,1,100,4|0,1:2|1:0,0:0:0:0:
45,165,81275,2,0,L|145:178,1,100,4|0,3:0|1:0,0:0:0:0:
185,267,82275,2,0,P|185:302|189:332,2,50,4|4|0,3:0|0:3|1:0,0:0:0:0:
272,315,83275,2,0,P|289:345|307:369,2,50,4|4|0,3:0|0:3|1:0,0:0:0:0:
372,311,84275,6,0,P|414:336|480:334,1,100,4|0,3:0|1:0,0:0:0:0:
441,240,85275,2,0,L|437:134,2,100,4|0|4,3:0|1:0|3:0,0:0:0:0:
349,198,86775,1,0,1:0:0:0:
263,249,87275,2,0,L|209:242,1,50,4|4,3:0|0:3,0:0:0:0:
180,280,87775,2,0,L|126:273,1,50,0|2,1:0|0:3,0:0:0:0:
86,297,88275,6,0,P|65:246|65:189,1,100,4|0,0:0|1:0,0:0:0:0:
135,133,89275,2,0,L|184:140,2,50,4|4|0,3:0|0:3|1:0,0:0:0:0:
123,33,90275,2,0,L|235:48,1,100,4|0,3:0|1:0,0:0:0:0:
289,120,91275,2,0,L|401:135,1,100,4|0,3:0|1:0,0:0:0:0:
470,189,92275,6,0,P|479:247|455:292,1,100,4|0,3:0|1:0,0:0:0:0:
377,335,93275,2,0,L|324:347,2,50,4|4|0,3:0|0:3|1:0,0:0:0:0:
313,257,94275,2,0,L|261:240,2,50,4|4|0,3:0|0:3|1:0,0:0:0:0:
297,158,95275,2,0,L|260:118,2,50,4|4|0,3:0|0:3|1:0,0:0:0:0:
338,66,96275,6,0,P|380:44|444:47,1,100,4|0,0:0|1:0,0:0:0:0:
488,125,97275,2,0,P|446:147|382:144,1,100,4|0,3:0|1:0,0:0:0:0:
309,200,98275,2,0,L|318:258,2,50,4|4|0,0:0|0:3|1:0,0:0:0:0:
203,200,99275,2,0,L|194:258,2,50,4|4|0,3:0|0:3|1:0,0:0:0:0:
117,147,100275,6,0,P|67:147|23:169,1,100,4|0,0:0|1:0,0:0:0:0:
2,267,101275,1,4,3:0:0:0:
68,341,101775,1,0,1:0:0:0:
163,310,102275,2,0,L|218:313,1,50,4|4,0:0|0:3,0:0:0:0:
258,334,102775,2,0,L|312:323,1,50,0|2,1:0|0:0,0:0:0:0:
354,340,103275,2,0,B|400:318|400:318|455:325,1,100,4|0,3:0|1:0,0:0:0:0:
503,240,104275,5,4,0:0:0:0:
428,173,104775,1,0,1:0:0:0:
428,73,105275,2,0,L|477:55,2,50,4|4|0,3:0|0:3|1:0,0:0:0:0:
331,48,106275,2,0,P|286:51|243:88,2,100,4|0|4,0:0|1:0|3:0,0:0:0:0:
324,147,107775,1,0,1:0:0:0:
237,197,108275,6,0,L|120:208,1,100,4|0,0:0|1:0,0:0:0:0:
66,276,109275,2,0,L|14:271,2,50,4|4|0,3:0|0:3|1:0,0:0:0:0:
143,338,110275,1,4,0:0:0:0:
143,338,111775,1,4,3:0:0:0:
217,271,112275,6,0,P|211:236|203:212,2,50,6|2|0,0:0|0:0|1:0,0:0:0:0:
272,354,113275,2,0,P|314:366|375:351,1,100,4|0,3:0|1:0,0:0:0:0:
457,308,114275,2,0,L|462:202,1,100,4|0,3:0|1:0,0:0:0:0:
421,177,115025,1,2,0:0:0:0:
381,146,115275,2,0,L|386:40,1,100,4|0,3:0|1:0,0:0:0:0:
289,74,116275,6,0,P|262:117|223:149,1,100,4|0,3:0|1:0,0:0:0:0:
177,166,117025,1,2,0:0:0:0:
127,164,117275,2,0,P|87:150|40:110,1,100,4|0,3:0|1:0,0:0:0:0:
13,209,118275,2,0,L|18:316,1,100,4|0,3:0|1:0,0:0:0:0:
99,367,119275,1,4,3:0:0:0:
181,311,119775,2,0,P|215:309|247:315,1,50,0|0,1:0|0:0,0:0:0:0:
276,331,120275,6,0,P|321:350|372:346,1,100,4|0,0:0|1:0,0:0:0:0:
413,320,121025,1,2,0:0:0:0:
432,272,121275,2,0,B|424:232|424:232|432:216|432:216|424:173,1,100,4|0,3:0|1:0,0:0:0:0:
329,144,122275,2,0,B|337:104|337:104|329:88|329:88|337:45,1,100,4|0,3:0|1:0,0:0:0:0:
292,24,123025,1,2,0:0:0:0:
246,43,123275,2,0,P|221:93|184:120,1,100,6|0,3:0|1:0,0:0:0:0:
87,135,124275,6,0,L|23:124,2,50,4|2|0,0:0|0:0|1:0,0:0:0:0:
109,179,125025,2,0,P|115:221|101:285,1,100,4|0,0:0|0:0,0:0:0:0:
177,345,126025,1,0,0:0:0:0:
217,316,126275,2,0,L|329:331,1,100,4|0,0:0|1:0,0:0:0:0:
361,351,127025,1,2,0:0:0:0:
407,332,127275,2,0,P|410:308|415:283,2,50,4|8|4,3:0|3:0|1:2,0:0:0:0:
335,241,128275,6,0,P|321:199|324:129,1,115.000002193451,4|8,1:0|1:0,0:0:0:0:
350,77,129025,1,0,0:0:0:0:
378,27,129275,2,0,L|254:38,1,115.000002193451,2|8,1:0|1:0,0:0:0:0:
235,87,130025,2,0,L|48:74,1,172.500003290176,2|10,0:1|1:0,0:0:0:0:
41,188,131275,2,0,L|111:184,2,57.5000010967255,2|4|10,1:0|0:0|1:0,0:0:0:0:
81,295,132275,6,0,P|127:313|198:305,1,115.000002193451,4|8,1:0|1:0,0:0:0:0:
245,284,133025,1,4,3:0:0:0:
297,261,133275,2,0,L|316:382,1,115.000002193451,2|8,1:0|1:0,0:0:0:0:
360,340,134025,2,0,P|389:304|358:180,1,172.500003290176,2|10,0:1|1:0,0:0:0:0:
264,137,135275,2,0,L|196:142,2,57.5000010967255,2|4|10,1:0|0:0|1:0,0:0:0:0:
352,63,136275,5,4,1:0:0:0:
455,113,136775,1,8,1:0:0:0:
367,188,137275,2,0,P|364:247|390:303,1,115.000002193451,2|8,1:0|1:0,0:0:0:0:
408,350,138025,2,0,P|358:317|297:311,1,115.000002193451,2|4,0:1|3:0,0:0:0:0:
247,303,138775,2,0,P|299:276|335:226,2,115.000002193451,10|2|8,1:0|1:0|1:0,0:0:0:0:
132,316,140275,5,4,1:0:0:0:
63,223,140775,1,8,1:0:0:0:
50,165,141025,2,0,L|226:185,1,172.500003290176,2|8,0:1|1:0,0:0:0:0:
328,143,142275,2,0,P|335:98|329:58,2,86.2500016450882,4|2|2,1:0|0:1|0:1,0:0:0:0:
338,199,143275,2,0,P|373:228|446:223,1,115.000002193451,2|0,1:0|1:0,0:0:0:0:
423,340,144275,6,0,L|308:326,1,115.000002193451,4|8,1:0|1:0,0:0:0:0:
256,351,145025,1,0,0:0:0:0:
203,326,145275,2,0,L|89:340,1,115.000002193451,2|8,1:0|1:0,0:0:0:0:
35,319,146025,2,0,P|14:262|47:153,1,172.500003290176,2|10,0:1|1:0,0:0:0:0:
156,135,147275,2,0,L|216:148,2,57.5000010967255,2|4|2,1:0|0:0|1:0,0:0:0:0:
228,45,148275,6,0,B|284:56|284:56|341:23,1,115.000002193451,4|0,1:0|1:0,0:0:0:0:
387,5,149025,1,4,3:0:0:0:
415,54,149275,2,0,B|446:101|446:101|510:118,1,115.000002193451,2|8,1:0|1:0,0:0:0:0:
504,173,150025,2,0,B|415:196|454:247|366:270,1,172.500003290176,2|10,0:1|1:0,0:0:0:0:
258,233,151275,2,0,P|226:219|190:218,2,57.5000010967255,2|4|2,1:0|0:0|1:0,0:0:0:0:
205,335,152275,5,4,1:0:0:0:
93,363,152775,1,8,1:0:0:0:
37,262,153275,2,0,P|29:219|40:149,1,115.000002193451,2|8,1:0|1:0,0:0:0:0:
89,119,154025,2,0,L|212:144,1,115.000002193451,2|4,0:1|3:0,0:0:0:0:
259,141,154775,2,0,P|270:84|261:28,2,115.000002193451,10|2|8,1:0|1:0|1:0,0:0:0:0:
217,248,156275,5,4,1:0:0:0:
296,331,156775,1,8,1:0:0:0:
351,346,157025,2,0,P|404:351|492:269,1,172.500003290176,2|8,0:1|1:0,0:0:0:0:
473,163,158275,2,0,P|471:119|475:76,2,86.2500016450882,4|2|2,1:0|0:1|0:1,0:0:0:0:
425,195,159275,2,0,B|368:201|368:201|317:168,1,115.000002193451,2|8,1:0|1:0,0:0:0:0:
239,118,160275,6,0,P|181:129|131:135,1,94.9999974632264,4|0,0:0|1:0,0:0:0:0:
62,180,161275,1,8,0:0:0:0:
77,273,161775,1,0,1:0:0:0:
152,330,162275,2,0,P|207:294|205:213,2,142.49999619484,4|8|0,0:0|0:0|1:0,0:0:0:0:
77,273,164275,6,0,P|72:223|59:173,1,94.9999974632264,4|0,0:0|1:0,0:0:0:0:
96,147,165025,1,8,0:0:0:0:
131,115,165275,2,0,L|138:57,2,47.4999987316132,10|8|0,0:0|0:0|1:0,0:0:0:0:
211,166,166275,2,0,P|257:171|302:149,1,94.9999974632264,4|0,0:0|1:0,0:0:0:0:
339,123,167025,2,0,P|310:175|331:255,1,142.49999619484,8|0,0:0|1:0,0:0:0:0:
407,306,168275,6,0,P|381:330|337:379,1,94.9999974632264,4|0,0:0|1:0,0:0:0:0:
256,329,169275,1,10,0:0:0:0:
171,374,169775,1,0,1:0:0:0:
105,306,170275,2,0,P|58:262|56:186,2,142.49999619484,4|8|0,0:0|0:0|1:0,0:0:0:0:
190,264,172275,6,0,P|208:216|215:169,1,94.9999974632264,10|0,0:0|1:0,0:0:0:0:
190,131,173025,1,8,0:0:0:0:
166,89,173275,2,0,L|157:28,2,47.4999987316132,10|8|0,0:0|0:0|1:0,0:0:0:0:
258,65,174275,2,0,P|316:87|396:102,2,142.49999619484,4|8|0,0:0|0:0|1:0,0:0:0:0:
231,156,176275,6,0,P|239:222|313:275,1,142.49999619484,4|8,0:0|0:0,0:0:0:0:
387,286,177525,2,0,L|446:282,2,47.4999987316132,8|0|0,0:0|1:0|0:0,0:0:0:0:
364,327,178275,2,0,P|293:327|205:338,1,142.49999619484,12|8,0:0|0:0,0:0:0:0:
156,265,179525,2,0,L|97:261,2,47.4999987316132,8|0|0,0:0|1:0|0:0,0:0:0:0:
198,242,180275,5,4,0:0:0:0:
272,182,180775,1,0,1:0:0:0:
240,92,181275,1,10,0:0:0:0:
166,152,181775,1,0,1:0:0:0:
198,242,182275,2,0,P|224:265|359:221,1,189.999994926453,4|4,3:0|3:0,0:0:0:0:
256,192,183525,12,0,186275,0:0:0:0:
54,84,194275,6,0,P|97:108|146:116,1,100,2|2,0:0|0:0,0:0:0:0:
241,84,195275,2,0,P|290:92|333:116,1,100,2|0,0:0|0:0,0:0:0:0:
364,155,196025,1,0,0:0:0:0:
382,201,196275,2,0,L|488:212,1,100,4|2,0:0|0:0,0:0:0:0:
444,304,197275,2,0,L|338:293,1,100,2|0,0:0|0:0,0:0:0:0:
259,240,198275,6,0,P|237:305|166:350,2,150,4|2|0,0:0|0:0|0:0,0:0:0:0:
205,155,200275,2,0,L|123:161,2,75,4|2|2,0:0|0:0|0:0,0:0:0:0:
238,117,201275,1,4,1:2:0:0:
452,35,202275,6,0,L|441:155,1,115.000002193451,4|8,1:0|1:0,0:0:0:0:
470,199,203025,1,0,0:0:0:0:
492,251,203275,2,0,L|481:371,1,115.000002193451,2|8,1:0|1:0,0:0:0:0:
427,344,204025,2,0,P|392:287|288:259,1,172.500003290176,2|10,0:1|1:0,0:0:0:0:
201,325,205275,2,0,L|177:383,2,57.5000010967255,2|4|2,1:0|0:0|1:0,0:0:0:0:
139,227,206275,6,0,P|104:269|29:292,1,115.000002193451,4|8,1:0|1:0,0:0:0:0:
12,246,207025,1,4,3:0:0:0:
3,189,207275,2,0,L|25:73,1,115.000002193451,2|8,1:0|1:0,0:0:0:0:
69,40,208025,2,0,B|158:63|119:114|207:137,1,172.500003290176,2|10,0:1|1:0,0:0:0:0:
313,95,209275,2,0,L|301:28,2,57.5000010967255,2|4|2,1:0|0:0|1:0,0:0:0:0:
410,156,210275,5,4,1:0:0:0:
373,265,210775,1,8,1:0:0:0:
279,197,211275,2,0,P|231:237|170:252,1,115.000002193451,2|8,1:0|1:0,0:0:0:0:
150,203,212025,2,0,L|177:83,1,115.000002193451,2|4,0:1|3:0,0:0:0:0:
138,46,212775,2,0,P|83:63|40:100,2,115.000002193451,10|2|8,1:0|1:0|1:0,0:0:0:0:
252,57,214275,5,4,1:0:0:0:
364,79,214775,1,8,1:0:0:0:
408,40,215025,2,0,B|400:104|400:104|416:144|416:144|408:208,1,172.500003290176,2|8,0:1|1:0,0:0:0:0:
327,290,216275,2,0,P|360:316|401:328,2,86.2500016450882,4|2|0,1:0|0:1|0:0,0:0:0:0:
283,251,217275,2,0,L|167:268,1,115.000002193451,2|8,1:0|1:0,0:0:0:0:
85,212,218275,6,0,P|87:135|186:76,1,200,4|4,1:0|3:0,0:0:0:0:
256,144,219775,1,8,1:0:0:0:
327,75,220275,2,0,P|414:116|427:212,1,200,4|4,3:0|3:0,0:0:0:0:
403,256,221525,1,4,0:3:0:0:
379,300,221775,1,8,1:0:0:0:
290,346,222275,6,0,B|190:328|196:381|91:360,1,200,4|4,0:0|3:0,0:0:0:0:
22,289,223775,1,8,1:0:0:0:
92,218,224275,2,0,B|194:238|188:185|288:203,1,200,4|4,3:0|3:0,0:0:0:0:
333,224,225525,1,4,0:3:0:0:
378,245,225775,1,8,1:0:0:0:
472,210,226275,6,0,P|501:125|406:107,1,200,4|4,0:0|3:0,0:0:0:0:
376,192,227775,1,8,1:0:0:0:
336,283,228275,2,0,P|250:258|280:174,1,200,4|4,3:0|3:0,0:0:0:0:
298,127,229525,1,4,0:3:0:0:
280,80,229775,1,8,1:0:0:0:
186,43,230275,6,0,L|27:58,1,150,4|0,0:0|0:0,0:0:0:0:
8,98,231275,2,0,P|7:141|40:191,1,100,4|8,3:0|1:0,0:0:0:0:
124,236,232275,1,4,3:0:0:0:
211,187,232775,1,8,1:0:0:0:
293,243,233275,2,0,L|311:303,1,50,4|0,3:0|1:0,0:0:0:0:
356,301,233775,2,0,L|391:352,1,50,8|0,1:0|1:0,0:0:0:0:
434,343,234275,6,0,P|488:293|454:169,1,200,4|4,0:0|3:0,0:0:0:0:
372,141,235775,2,0,L|304:149,1,50,8|0,1:0|0:0,0:0:0:0:
292,187,236275,2,0,P|200:216|127:154,1,200,4|4,3:0|3:0,0:0:0:0:
137,105,237525,1,4,0:3:0:0:
147,56,237775,1,8,1:0:0:0:
47,44,238275,6,0,L|89:259,1,200,4|4,0:0|3:0,0:0:0:0:
107,337,239775,2,0,P|133:347|159:346,1,50,8|0,1:0|0:0,0:0:0:0:
200,326,240275,2,0,B|302:305|296:358|396:340,1,200,4|4,3:0|3:0,0:0:0:0:
431,305,241525,1,4,0:3:0:0:
466,269,241775,1,8,1:0:0:0:
466,169,242275,6,0,P|402:180|329:80,1,200,4|4,0:0|3:0,0:0:0:0:
256,13,243775,2,0,L|203:63,1,50,8|0,1:0|0:0,0:0:0:0:
183,82,244275,2,0,P|141:167|46:169,1,200,4|4,3:0|3:0,0:0:0:0:
33,217,245525,1,4,0:3:0:0:
20,265,245775,1,8,1:0:0:0:
99,326,246275,5,4,1:2:0:0:
256,192,246525,12,0,249775,0:0:0:0:
