osu file format v13

[General]
AudioFilename: Marina And The Diamonds - E.V.O.L.mp3
AudioLeadIn: 0
PreviewTime: 46855
Countdown: 0
SampleSet: None
StackLeniency: 0.7
Mode: 0
LetterboxInBreaks: 0
WidescreenStoryboard: 0

[Editor]
Bookmarks: 139034
DistanceSpacing: 1.1
BeatDivisor: 4
GridSize: 4
TimelineZoom: 1.5

[Metadata]
Title:E.V.O.L
TitleUnicode:E.V.O.L
Artist:Marina & the Diamonds
ArtistUnicode:Marina & the Diamonds
Creator:-Bakari-
Version:Simple
Source:
Tags:evol love l.o.v.e. Electropop Lambrini Diamandis and
BeatmapID:428574
BeatmapSetID:178104

[Difficulty]
HPDrainRate:2
CircleSize:3
OverallDifficulty:2
ApproachRate:3
SliderMultiplier:0.8
SliderTickRate:1

[Events]
//Background and Video events
0,0,"marina--the-diamonds-507793400ecee.jpg",0,0
//Break Periods
//Storyboard Layer 0 (Background)
//Storyboard Layer 1 (Fail)
//Storyboard Layer 2 (Pass)
//Storyboard Layer 3 (Foreground)
//Storyboard Sound Samples
//Background Colour Transformations
3,100,163,162,255

[TimingPoints]
1928,469.630557294928,4,3,1,55,1,0
47012,-100,4,3,1,65,0,1
54370,-100,4,3,1,65,0,0
54526,-100,4,3,1,65,0,1
61884,-100,4,3,1,65,0,0
62040,-100,4,3,1,65,0,1
62197,-100,4,3,1,65,0,0
69554,-100,4,3,1,65,0,1
69711,-100,4,3,1,50,0,0
77068,-100,4,3,1,50,0,0
109003,-100,4,3,1,65,0,1
116361,-100,4,3,1,65,0,0
116517,-100,4,3,1,65,0,1
123875,-100,4,3,1,65,0,0
124031,-100,4,3,1,65,0,1
124188,-100,4,3,1,65,0,0
131546,-100,4,3,1,65,0,1
131702,-100,4,3,1,65,0,0

[Colours]
Combo1 : 173,187,207
Combo2 : 198,200,155
Combo3 : 176,198,176
Combo4 : 215,188,187

[HitObjects]
448,283,1928,6,0,L|456:195,1,80,4|8,0:0|0:0,0:0:0:0:
412,127,2867,2,0,L|420:39,2,80,0|8|0,0:0|0:0|0:0,0:0:0:0:
352,191,4276,1,8,0:0:0:0:
280,143,4745,2,0,P|232:123|192:131,1,80,8|8,0:0|0:0,0:0:0:0:
148,191,5685,6,0,L|156:371,2,160,0|0|0,0:0|0:0|0:0,0:0:0:0:
96,119,8033,1,8,0:0:0:0:
172,71,8502,2,0,L|264:79,1,80,0|8,0:0|0:0,0:0:0:0:
332,39,9442,5,0,0:0:0:0:
368,119,9911,2,0,L|356:283,1,160,8|8,0:0|0:0,0:0:0:0:
300,347,11320,1,0,0:0:0:0:
228,295,11790,2,0,L|68:307,1,160,8|8,0:0|0:0,0:0:0:0:
4,247,13199,5,0,0:0:0:0:
60,179,13668,2,0,L|72:95,2,80,8|0|8,0:0|0:0|0:0,0:0:0:0:
128,235,15077,2,0,L|112:331,2,80,0|8|0,0:0|0:0|0:0,0:0:0:0:
184,167,16486,1,8,0:0:0:0:
156,83,16956,5,0,0:0:0:0:
244,99,17425,2,0,P|272:139|272:183,1,80,8|0,0:0|0:0,0:0:0:0:
229,244,18365,2,0,P|218:287|229:328,2,80,8|0|8,0:0|0:0|0:0,0:0:0:0:
304,287,19773,1,0,0:0:0:0:
376,239,20243,1,8,0:0:0:0:
388,151,20713,5,0,0:0:0:0:
352,71,21182,2,0,P|282:39|210:69,1,160,8|8,0:0|0:0,0:0:0:0:
176,151,22591,1,0,0:0:0:0:
112,211,23061,2,0,L|20:207,2,80,8|0|8,0:0|0:0|0:0,0:0:0:0:
164,283,24470,5,0,0:0:0:0:
228,343,24939,2,0,L|396:351,1,160,8|8,0:0|0:0,0:0:0:0:
456,295,26348,1,0,0:0:0:0:
404,227,26818,2,0,L|400:135,2,80,8|0|8,0:0|0:0|0:0,0:0:0:0:
348,295,28227,6,0,B|308:284|272:287|272:287|188:315|188:315|156:320|96:303,2,240,0|8|0,0:0|0:0|0:0,0:0:0:0:
420,347,31514,1,8,0:0:0:0:
468,275,31984,6,0,L|480:179,1,80,0|8,0:0|0:0,0:0:0:0:
400,155,32923,2,0,L|380:71,1,80,0|8,0:0|0:0,0:0:0:0:
308,31,33862,2,0,P|256:31|200:191,1,240,0|8,0:0|0:0,0:0:0:0:
208,267,35741,6,0,P|180:303|136:319,2,80,0|8|0,0:0|0:0|0:0,0:0:0:0:
192,179,37150,1,8,0:0:0:0:
136,111,37619,2,0,L|128:23,2,80,0|8|0,0:0|0:0|0:0,0:0:0:0:
80,179,39028,1,8,0:0:0:0:
20,243,39498,6,0,P|52:263|160:215,1,160,0|0,0:0|0:0,0:0:0:0:
164,135,40907,1,8,0:0:0:0:
228,76,41376,2,0,P|244:101|248:165,1,80,0|8,0:0|0:0,0:0:0:0:
236,236,42316,2,0,P|224:268|228:320,1,80,0|8,0:0|0:0,0:0:0:0:
304,356,43255,6,0,L|384:352,2,80,0|8|0,0:0|0:0|0:0,0:0:0:0:
224,316,44664,1,8,0:0:0:0:
164,248,45134,2,0,L|84:252,2,80,0|8|0,0:0|0:0|0:0,0:0:0:0:
204,168,46542,1,8,0:0:0:0:
280,120,47012,6,0,P|288:200|230:253,1,160,4|0,0:0|0:0,0:0:0:0:
148,236,48421,1,8,0:0:0:0:
120,151,48891,2,0,L|124:63,2,80,0|8|0,0:0|0:0|0:0,0:0:0:0:
68,223,50299,1,8,0:0:0:0:
100,304,50769,5,0,0:0:0:0:
184,284,51239,1,8,0:0:0:0:
268,256,51708,1,0,0:0:0:0:
352,228,52178,1,8,0:0:0:0:
288,171,52648,2,0,L|292:87,1,80,0|8,0:0|0:0,0:0:0:0:
228,31,53587,2,0,L|132:45,1,80,0|8,0:0|0:0,0:0:0:0:
106,120,54526,6,0,P|137:192|223:212,1,160,4|0,0:0|0:0,0:0:0:0:
267,147,55935,1,8,0:0:0:0:
346,185,56405,1,0,0:0:0:0:
392,111,56874,2,0,L|484:103,2,80,8|0|8,0:0|0:0|0:0,0:0:0:0:
328,47,58283,5,0,0:0:0:0:
248,87,58753,1,8,0:0:0:0:
168,123,59222,2,0,P|136:127|76:99,2,80,0|8|0,0:0|0:0|0:0,0:0:0:0:
248,87,60631,1,8,0:0:0:0:
304,155,61101,2,0,L|292:239,1,80,0|8,0:0|0:0,0:0:0:0:
328,315,62040,5,4,0:0:0:0:
252,359,62510,2,0,P|184:367|124:227,1,240,8|4,0:0|0:0,0:0:0:0:
192,179,64388,2,0,P|248:163|284:59,1,160,8|8,0:0|0:0,0:0:0:0:
196,87,65797,5,0,0:0:0:0:
116,123,66267,1,8,0:0:0:0:
36,155,66737,2,0,L|24:247,1,80,0|8,0:0|0:0,0:0:0:0:
88,299,67676,2,0,L|172:287,1,80,0|8,0:0|0:0,0:0:0:0:
228,223,68615,2,0,L|328:207,1,80,0|8,0:0|0:0,0:0:0:0:
364,143,69554,5,4,0:0:0:0:
420,211,70024,2,0,L|416:307,2,80,8|0|8,0:0|0:0|0:0,0:0:0:0:
452,127,71433,1,4,0:0:0:0:
396,59,71902,2,0,P|324:63|276:151,1,160,8|8,0:0|0:0,0:0:0:0:
272,220,73311,6,0,P|248:308|112:336,1,240,0|8,0:0|0:0,0:0:0:0:
60,268,75190,2,0,P|88:177|224:148,1,240,0|8,0:0|0:0,0:0:0:0:
330,342,78947,6,0,L|344:251,1,80,4|8,0:0|0:0,0:0:0:0:
412,211,79886,2,0,L|428:123,1,80,0|8,0:0|0:0,0:0:0:0:
388,55,80825,1,0,0:0:0:0:
308,91,81295,2,0,L|136:111,1,160,8|8,0:0|0:0,0:0:0:0:
64,83,82704,5,0,0:0:0:0:
84,167,83174,2,0,L|68:335,1,160,8|8,0:0|0:0,0:0:0:0:
140,375,84582,1,0,0:0:0:0:
200,311,85052,2,0,L|192:231,2,80,8|0|8,0:0|0:0|0:0,0:0:0:0:
275,359,86461,6,0,P|350:343|402:191,1,240,0|8,0:0|0:0,0:0:0:0:
352,135,88340,2,0,P|346:98|362:53,1,80,0|8,0:0|0:0,0:0:0:0:
432,103,89279,1,0,0:0:0:0:
420,191,89748,1,8,0:0:0:0:
336,223,90218,6,0,L|172:211,1,160,0|0,0:0|0:0,0:0:0:0:
104,259,91627,2,0,L|112:355,2,80,8|0|8,0:0|0:0|0:0,0:0:0:0:
44,195,93036,2,0,L|52:115,1,80,0|8,0:0|0:0,0:0:0:0:
124,63,93975,6,0,B|200:83|200:83|280:59,1,160,0|0,0:0|0:0,0:0:0:0:
360,23,95384,1,8,0:0:0:0:
352,112,95854,1,0,0:0:0:0:
360,200,96324,2,0,B|360:280|360:280|324:356,1,160,8|8,0:0|0:0,0:0:0:0:
240,376,97732,6,0,L|156:360,1,80,0|8,0:0|0:0,0:0:0:0:
104,292,98671,2,0,L|104:212,1,80,0|8,0:0|0:0,0:0:0:0:
172,159,99611,2,0,P|252:195|316:339,1,240,0|8,0:0|0:0,0:0:0:0:
228,311,101489,6,0,P|212:275|176:247,2,80,0|8|0,0:0|0:0|0:0,0:0:0:0:
140,327,102898,1,8,0:0:0:0:
92,255,103368,1,0,0:0:0:0:
64,171,103837,2,0,L|80:-1,1,160,8|8,0:0|0:0,0:0:0:0:
160,51,105246,5,0,0:0:0:0:
240,91,105716,2,0,L|332:83,2,80,8|0|8,0:0|0:0|0:0,0:0:0:0:
205,172,107125,2,0,L|117:180,1,80,0|8,0:0|0:0,0:0:0:0:
72,251,108064,1,0,0:0:0:0:
136,315,108534,1,8,0:0:0:0:
204,371,109003,6,0,L|376:351,1,160,4|0,0:0|0:0,0:0:0:0:
392,271,110412,1,8,0:0:0:0:
324,215,110882,2,0,L|328:123,1,80,0|8,0:0|0:0,0:0:0:0:
260,75,111821,2,0,L|180:87,1,80,0|8,0:0|0:0,0:0:0:0:
92,79,112760,5,0,0:0:0:0:
120,163,113230,1,8,0:0:0:0:
100,248,113700,1,0,0:0:0:0:
164,308,114169,1,8,0:0:0:0:
236,259,114639,2,0,L|320:267,1,80,0|8,0:0|0:0,0:0:0:0:
404,256,115578,2,0,P|424:217|420:172,1,80,0|8,0:0|0:0,0:0:0:0:
355,124,116517,6,0,P|311:180|319:272,1,160,4|0,0:0|0:0,0:0:0:0:
376,328,117926,1,8,0:0:0:0:
292,347,118396,2,0,L|204:339,1,80,0|8,0:0|0:0,0:0:0:0:
124,351,119335,1,0,0:0:0:0:
92,271,119805,1,8,0:0:0:0:
136,195,120274,6,0,L|140:111,2,80,0|8|0,0:0|0:0|0:0,0:0:0:0:
220,167,121683,2,0,L|272:103,2,80,8|0|8,0:0|0:0|0:0,0:0:0:0:
304,195,123092,2,0,L|388:171,1,80,0|8,0:0|0:0,0:0:0:0:
448,231,124031,5,4,0:0:0:0:
388,295,124501,2,0,P|320:319|184:223,1,240,8|4,0:0|0:0,0:0:0:0:
152,155,126380,2,0,P|112:123|4:147,1,160,8|8,0:0|0:0,0:0:0:0:
8,227,127788,5,0,0:0:0:0:
72,287,128258,2,0,L|60:375,2,80,8|0|8,0:0|0:0|0:0,0:0:0:0:
140,231,129667,2,0,L|128:147,1,80,0|8,0:0|0:0,0:0:0:0:
216,167,130606,2,0,L|248:83,1,80,0|8,0:0|0:0,0:0:0:0:
324,51,131546,5,4,0:0:0:0:
376,123,132015,2,0,P|388:199|260:287,1,240,8|4,0:0|0:0,0:0:0:0:
192,243,133894,2,0,L|176:159,2,80,8|0|8,0:0|0:0|0:0,0:0:0:0:
256,192,135303,12,0,139060,2:0:0:0:
