osu file format v13

[General]
AudioFilename: Marina And The Diamonds - E.V.O.L.mp3
AudioLeadIn: 0
PreviewTime: 46855
Countdown: 0
SampleSet: None
StackLeniency: 0.7
Mode: 0
LetterboxInBreaks: 0
WidescreenStoryboard: 0

[Editor]
Bookmarks: 139034
DistanceSpacing: 1.2
BeatDivisor: 3
GridSize: 4
TimelineZoom: 1.8

[Metadata]
Title:E.V.O.L
TitleUnicode:E.V.O.L
Artist:Marina & the Diamonds
ArtistUnicode:Marina & the Diamonds
Creator:-Bakari-
Version:Evil
Source:
Tags:evol love l.o.v.e. Electropop Lambrini Diamandis and
BeatmapID:428484
BeatmapSetID:178104

[Difficulty]
HPDrainRate:7
CircleSize:5
OverallDifficulty:7
ApproachRate:8
SliderMultiplier:1.8
SliderTickRate:1

[Events]
//Background and Video events
0,0,"marina--the-diamonds-507793400ecee.jpg",0,0
//Break Periods
2,77068,78197
//Storyboard Layer 0 (Background)
//Storyboard Layer 1 (Fail)
//Storyboard Layer 2 (Pass)
//Storyboard Layer 3 (Foreground)
//Storyboard Sound Samples
//Background Colour Transformations
3,100,163,162,255

[TimingPoints]
1928,469.630557294928,4,3,0,55,1,0
47012,-80,4,3,0,65,0,1
54370,-80,4,3,0,65,0,0
54526,-80,4,3,0,65,0,1
61884,-80,4,3,0,65,0,0
62040,-80,4,3,0,65,0,1
62197,-80,4,3,0,65,0,0
69554,-80,4,3,0,65,0,1
69711,-80,4,3,0,50,0,0
77068,-100,4,3,0,50,0,0
109003,-80,4,3,0,65,0,1
116361,-80,4,3,0,65,0,0
116517,-80,4,3,0,65,0,1
123875,-80,4,3,0,65,0,0
124031,-80,4,3,0,65,0,1
124188,-80,4,3,0,65,0,0
131546,-80,4,3,0,65,0,1
131702,-80,4,3,0,65,0,0

[Colours]
Combo1 : 173,187,207
Combo2 : 198,200,155
Combo3 : 176,198,176
Combo4 : 215,188,187

[HitObjects]
100,200,1928,6,0,P|136:180|216:196,1,120,4|0,0:0|0:0,0:0:0:0:
240,260,2397,2,0,P|288:228|359:235,1,120,8|0,0:0|0:0,0:0:0:0:
400,284,2867,1,0,0:0:0:0:
424,216,3023,1,0,0:0:0:0:
488,184,3180,1,0,0:0:0:0:
426,142,3336,2,0,P|404:115|393:24,1,120,8|0,0:0|0:0,0:0:0:0:
324,64,3806,6,0,P|272:80|200:48,1,120
168,4,4276,1,8,0:0:0:0:
176,148,4589,1,0,0:0:0:0:
136,208,4745,2,0,P|104:232|24:224,1,120,8|0,0:0|0:0,0:0:0:0:
68,164,5215,2,0,P|96:220|64:284,1,120,8|0,0:0|0:0,0:0:0:0:
40,332,5685,6,0,B|164:352,1,120
224,320,6154,1,8,0:0:0:0:
356,260,6467,1,0,0:0:0:0:
308,204,6624,2,0,L|248:196,2,60
364,156,7093,1,8,0:0:0:0:
240,80,7407,1,0,0:0:0:0:
192,132,7563,6,0,P|160:136|128:124,2,60
168,64,8033,1,8,0:0:0:0:
272,164,8346,1,0,0:0:0:0:
312,104,8502,2,0,P|312:64|256:4,1,120
240,80,8972,1,8,0:0:0:0:
372,24,9285,1,0,0:0:0:0:
428,68,9442,6,0,L|420:200,1,120
452,252,9911,1,8,0:0:0:0:
328,324,10224,1,0,0:0:0:0:
272,276,10381,2,0,P|252:268|208:268,1,60
148,296,10694,1,0,0:0:0:0:
100,244,10850,2,0,P|84:200|112:132,1,120,8|0,0:0|0:0,0:0:0:0:
172,96,11320,5,0,0:0:0:0:
292,172,11633,1,0,0:0:0:0:
360,144,11790,2,0,P|384:120|384:32,1,120,8|0,0:0|0:0,0:0:0:0:
316,36,12259,2,0,L|240:48,1,60
188,24,12572,1,0,0:0:0:0:
120,44,12729,2,0,P|100:80|132:156,1,120,8|0,0:0|0:0,0:0:0:0:
192,176,13199,6,0,L|184:300,1,120
151,361,13668,2,0,L|270:367,1,120,8|0,0:0|0:0,0:0:0:0:
340,384,14138,2,0,L|344:324,1,60
328,252,14451,1,0,0:0:0:0:
372,192,14608,2,0,P|388:144|352:84,1,120,8|0,0:0|0:0,0:0:0:0:
316,148,15077,5,0,0:0:0:0:
248,172,15234,1,0,0:0:0:0:
180,148,15390,1,0,0:0:0:0:
152,80,15547,1,8,0:0:0:0:
152,224,15860,1,0,0:0:0:0:
196,280,16016,2,0,L|328:288,1,120
368,340,16486,1,8,0:0:0:0:
448,220,16799,1,0,0:0:0:0:
388,180,16956,38,0,B|308:168|308:168|264:176,1,120
268,248,17425,2,8,B|346:262|346:262|392:252,1,120,8|0,0:0|0:0,0:0:0:0:
448,220,17895,2,0,B|460:180|460:180|448:136|448:136|460:92,1,120
480,36,18365,1,8,0:0:0:0:
344,80,18678,1,0,0:0:0:0:
276,40,18834,5,0,0:0:0:0:
152,112,19147,1,0,0:0:0:0:
156,184,19304,2,0,L|140:308,1,120,8|0,0:0|0:0,0:0:0:0:
180,364,19773,2,0,L|240:360,2,60
108,368,20243,1,8,0:0:0:0:
6,258,20556,1,0,0:0:0:0:
32,192,20713,6,0,L|24:72,1,120
92,88,21182,2,0,L|212:96,1,120,8|0,0:0|0:0,0:0:0:0:
188,164,21652,2,0,L|196:284,1,120
126,266,22122,2,0,L|6:258,1,120,8|0,0:0|0:0,0:0:0:0:
32,192,22591,6,0,L|26:129,2,60
102,205,23061,2,0,L|115:329,1,120,8|0,0:0|0:0,0:0:0:0:
175,363,23531,2,0,L|298:346,1,120
358,377,24000,1,8,0:0:0:0:
440,258,24313,1,0,0:0:0:0:
392,203,24470,6,0,P|368:158|388:90,1,120
433,145,24939,2,0,P|377:159|327:129,1,120,8|0,0:0|0:0,0:0:0:0:
324,56,25409,1,0,0:0:0:0:
260,88,25566,1,0,0:0:0:0:
200,52,25722,1,0,0:0:0:0:
152,104,25879,2,0,L|157:237,1,120,8|0,0:0|0:0,0:0:0:0:
196,284,26348,6,0,L|320:288,1,120
352,352,26818,1,8,0:0:0:0:
412,224,27131,1,0,0:0:0:0:
348,188,27288,2,0,P|328:144|364:76,1,120
400,140,27757,1,8,0:0:0:0:
289,232,28070,1,0,0:0:0:0:
345,277,28227,6,0,P|332:349|280:294,2,180,0|8|0,0:0|0:0|0:0,0:0:0:0:
208,212,29479,1,0,0:0:0:0:
164,152,29636,2,0,P|156:112|216:48,1,120,8|0,0:0|0:0,0:0:0:0:
224,120,30105,6,0,B|160:92|160:92|108:112|108:112|36:88,2,180,0|8|0,0:0|0:0|0:0,0:0:0:0:
360,156,31358,1,0,0:0:0:0:
408,100,31514,1,8,0:0:0:0:
436,240,31827,1,0,0:0:0:0:
400,304,31984,6,0,P|360:328|240:280,1,180,0|8,0:0|0:0,0:0:0:0:
192,152,32767,1,0,0:0:0:0:
124,180,32923,2,0,P|166:222|240:208,1,120
264,156,33393,2,0,P|246:98|178:78,1,120,8|0,0:0|0:0,0:0:0:0:
124,108,33862,5,0,0:0:0:0:
304,228,34332,2,0,P|344:192|344:120,1,120,8|0,0:0|0:0,0:0:0:0:
292,84,34802,2,0,L|224:76,2,60
408,40,35271,1,8,0:0:0:0:
480,164,35584,1,0,0:0:0:0:
416,196,35741,6,0,L|292:184,1,120
248,236,36211,2,0,L|124:224,1,120,8|0,0:0|0:0,0:0:0:0:
56,244,36680,2,0,L|64:180,1,60
40,116,36993,1,0,0:0:0:0:
72,52,37150,2,0,P|120:28|184:40,1,120,8|0,0:0|0:0,0:0:0:0:
248,72,37619,6,0,P|296:84|416:8,2,180,0|8|0,0:0|0:0|0:0,0:0:0:0:
188,28,38715,1,0,0:0:0:0:
184,100,38872,1,0,0:0:0:0:
180,172,39028,1,8,0:0:0:0:
104,292,39341,1,0,0:0:0:0:
152,348,39498,6,0,P|208:356|296:256,1,180,0|8,0:0|0:0,0:0:0:0:
292,132,40281,1,0,0:0:0:0:
348,176,40437,2,0,P|389:154|414:80,1,120
360,36,40907,1,8,0:0:0:0:
180,152,41376,6,0,P|136:160|64:60,2,180,0|8|0,0:0|0:0|0:0,0:0:0:0:
232,100,42472,1,0,0:0:0:0:
192,40,42629,1,0,0:0:0:0:
136,84,42785,2,0,L|116:224,1,120,8|0,0:0|0:0,0:0:0:0:
108,272,43255,5,0,0:0:0:0:
312,348,43725,1,8,0:0:0:0:
272,136,44194,2,0,P|264:104|268:72,2,60
304,200,44664,2,8,P|300:244|236:288,1,120,8|0,0:0|0:0,0:0:0:0:
184,248,45134,5,0,0:0:0:0:
148,36,45603,1,8,0:0:0:0:
348,120,46073,1,0,0:0:0:0:
460,212,46386,1,0,0:0:0:0:
408,264,46542,2,0,P|384:272|336:272,2,60,8|0|0,0:0|0:0|0:0,0:0:0:0:
359,191,47012,6,6,P|356:84|449:31,1,225,0|8,0:0|0:0,0:0:0:0:
328,300,47795,1,0,0:0:0:0:
252,348,47951,1,0,0:0:0:0:
96,260,48264,5,0,0:0:0:0:
152,192,48421,2,2,P|168:144|52:32,2,225,8|0|8,0:0|0:0|0:0,0:0:0:0:
92,360,49673,1,0,0:0:0:0:
152,292,49830,2,2,B|196:264|260:288|260:288|320:312|368:284,1,225,0|8,0:0|0:0,0:0:0:0:
248,148,50613,1,0,0:0:0:0:
308,216,50769,6,2,L|320:64,1,150,0|0,0:0|0:0,0:0:0:0:
228,256,51239,2,2,L|184:112,1,150,8|0,0:0|0:0,0:0:0:0:
200,340,51708,2,2,L|88:232,1,150,0|0,0:0|0:0,0:0:0:0:
64,68,52178,1,8,0:0:0:0:
240,24,52491,1,0,0:0:0:0:
288,100,52648,6,0,L|264:248,1,150
296,332,53117,2,0,P|344:288|344:208,1,150,8|0,0:0|0:0,0:0:0:0:
230,163,53587,2,2,P|182:207|182:287,1,150,0|0,0:0|0:0,0:0:0:0:
268,252,54056,2,2,L|116:200,1,150,8|0,0:0|0:0,0:0:0:0:
304,336,54526,6,2,P|348:300|344:200,1,150,4|0,0:0|0:0,0:0:0:0:
280,156,54996,1,8,0:0:0:0:
452,108,55309,2,0,L|464:20,2,75
488,192,55778,1,0,0:0:0:0:
436,264,55935,2,2,P|388:276|304:208,1,150,8|0,0:0|0:0,0:0:0:0:
184,128,56405,6,2,L|160:284,1,150,0|0,0:0|0:0,0:0:0:0:
196,360,56874,1,8,0:0:0:0:
84,220,57187,1,0,0:0:0:0:
105,130,57344,2,2,P|133:66|209:54,1,150,0|0,0:0|0:0,0:0:0:0:
260,120,57814,1,8,0:0:0:0:
432,180,58127,1,0,0:0:0:0:
436,92,58283,6,2,P|364:124|344:204,1,150,0|0,0:0|0:0,0:0:0:0:
384,280,58753,2,2,P|308:256|244:300,1,150,8|0,0:0|0:0,0:0:0:0:
272,376,59222,1,0,0:0:0:0:
188,348,59379,1,0,0:0:0:0:
108,308,59536,1,0,0:0:0:0:
28,268,59692,2,0,L|4:120,1,150,8|0,0:0|0:0,0:0:0:0:
104,8,60162,6,0,L|132:156,1,150
264,228,60631,2,0,L|240:72,1,150,8|0,0:0|0:0,0:0:0:0:
308,16,61101,1,0,0:0:0:0:
372,184,61414,1,0,0:0:0:0:
372,273,61571,2,0,P|328:321|240:333,1,150,8|0,0:0|0:0,0:0:0:0:
176,284,62040,6,0,L|20:276,1,150,4|0,0:0|0:0,0:0:0:0:
60,192,62510,2,0,L|68:36,1,150,8|0,0:0|0:0,0:0:0:0:
140,96,62979,2,0,P|176:124|272:104,1,150
212,36,63449,1,8,0:0:0:0:
248,212,63762,1,0,0:0:0:0:
304,284,63919,6,0,L|468:296,1,150
496,372,64388,1,8,0:0:0:0:
440,200,64701,1,0,0:0:0:0:
476,116,64858,2,0,P|440:72|340:64,1,150
284,116,65328,2,0,P|232:132|152:88,1,150,8|0,0:0|0:0,0:0:0:0:
228,40,65797,6,0,L|220:208,1,150,0|0,0:0|0:0,0:0:0:0:
296,244,66267,2,0,P|372:220|404:160,1,150,8|0,0:0|0:0,0:0:0:0:
220,190,66737,2,0,P|202:267|238:325,1,150,0|0,0:0|0:0,0:0:0:0:
312,152,67206,2,0,P|253:98|185:100,1,150,8|0,0:0|0:0,0:0:0:0:
172,284,67676,5,0,0:0:0:0:
268,32,68145,1,8,0:0:0:0:
388,272,68615,1,0,0:0:0:0:
156,132,69085,1,8,0:0:0:0:
424,108,69554,6,0,L|448:264,1,150,4|0,0:0|0:0,0:0:0:0:
360,236,70024,2,0,L|192:228,1,150,8|0,0:0|0:0,0:0:0:0:
132,276,70494,1,0,0:0:0:0:
116,188,70650,1,0,0:0:0:0:
100,100,70807,1,0,0:0:0:0:
184,124,70963,2,0,L|336:132,1,150,8|0,0:0|0:0,0:0:0:0:
404,76,71433,5,0,0:0:0:0:
432,344,71902,1,8,0:0:0:0:
260,284,72216,1,0,0:0:0:0:
184,332,72372,2,0,P|172:284|224:200,1,150,2|0,0:0|0:0,0:0:0:0:
300,160,72842,2,0,P|347:104|339:31,1,150,8|0,0:0|0:0,0:0:0:0:
264,80,73311,6,0,P|344:120|408:88,1,150,0|0,0:0|0:0,0:0:0:0:
476,72,73781,2,0,L|464:248,1,150,8|0,0:0|0:0,0:0:0:0:
348,336,74251,2,0,L|360:180,1,150
248,68,74720,2,0,L|232:236,1,150,8|0,0:0|0:0,0:0:0:0:
188,296,75190,6,0,P|156:316|56:284,1,150,0|0,0:0|0:0,0:0:0:0:
32,200,75659,1,8,0:0:0:0:
288,116,76129,2,0,P|352:172|396:308,1,225,0|8,0:0|0:0,0:0:0:0:
192,364,78947,6,0,L|184:240,1,120,4|0,0:0|0:0,0:0:0:0:
148,180,79417,2,0,L|284:172,1,120,8|0,0:0|0:0,0:0:0:0:
328,132,79886,2,0,L|336:72,2,60
364,196,80356,2,0,L|384:324,1,120,8|0,0:0|0:0,0:0:0:0:
352,380,80825,5,0,0:0:0:0:
448,272,81139,1,0,0:0:0:0:
436,200,81295,1,8,0:0:0:0:
280,60,81765,2,0,P|240:44|164:72,1,120
148,136,82234,2,0,L|168:260,1,120,8|0,0:0|0:0,0:0:0:0:
224,340,82704,6,0,L|92:332,1,120
168,256,83174,2,0,L|296:264,1,120,8|0,0:0|0:0,0:0:0:0:
352,296,83643,2,0,L|360:360,2,60
408,252,84113,2,0,L|428:132,1,120,8|0,0:0|0:0,0:0:0:0:
416,64,84582,6,0,P|368:40|300:48,1,120
264,108,85052,2,0,L|240:240,1,120,8|0,0:0|0:0,0:0:0:0:
188,272,85522,2,0,L|196:336,2,60
128,232,85991,1,8,0:0:0:0:
80,96,86304,1,0,0:0:0:0:
64,24,86461,6,0,P|120:36|152:96,1,120
168,156,86931,2,0,P|212:196|280:192,1,120,8|0,0:0|0:0,0:0:0:0:
332,156,87400,2,0,L|336:96,2,60
376,212,87870,2,0,L|396:336,1,120,8|0,0:0|0:0,0:0:0:0:
336,372,88340,6,0,L|204:360,1,120
148,384,88809,1,8,0:0:0:0:
92,252,89122,1,0,0:0:0:0:
140,196,89279,2,0,L|124:60,1,120
172,24,89748,1,8,0:0:0:0:
312,56,90062,1,0,0:0:0:0:
380,32,90218,6,0,B|444:32|460:80|460:144|412:160|364:144|364:144|316:192|364:240|364:240|412:224|464:240|460:304|444:352|380:352,2,540
328,76,93192,1,0,0:0:0:0:
268,116,93349,2,0,L|208:108,1,60,0|8,0:0|0:0,0:0:0:0:
148,148,93662,1,0,0:0:0:0:
92,192,93819,1,0,0:0:0:0:
139,248,93975,6,0,P|83:264|31:236,1,120,0|0,0:0|0:0,0:0:0:0:
24,164,94445,1,8,0:0:0:0:
140,248,94758,1,0,0:0:0:0:
204,216,94914,2,0,L|220:88,1,120
280,60,95384,1,8,0:0:0:0:
404,132,95697,5,0,0:0:0:0:
342,168,95854,2,0,L|327:287,1,120
264,320,96323,1,8,0:0:0:0:
140,248,96636,1,0,0:0:0:0:
204,216,96793,2,0,L|220:88,1,120
280,60,97263,1,8,0:0:0:0:
472,156,97732,6,0,P|436:188|356:184,1,120
312,144,98202,1,8,0:0:0:0:
16,216,98671,2,0,P|52:248|132:244,1,120
176,204,99141,1,8,0:0:0:0:
416,36,99611,6,0,L|404:168,1,120
348,196,100080,2,0,L|336:320,1,120,8|0,0:0|0:0,0:0:0:0:
280,364,100550,2,0,P|220:376|168:336,1,120,0|0,0:0|0:0,0:0:0:0:
156,276,101020,1,8,0:0:0:0:
196,136,101333,1,0,0:0:0:0:
237,74,101489,6,0,P|180:61|129:97,1,120
133,168,101959,2,0,P|169:204|237:196,1,120,8|0,0:0|0:0,0:0:0:0:
276,140,102428,2,0,L|404:136,1,120,0|0,0:0|0:0,0:0:0:0:
444,80,102898,1,8,0:0:0:0:
444,80,103368,6,0,L|460:200,1,120
420,260,103837,1,8,0:0:0:0:
248,128,104150,1,0,0:0:0:0:
208,189,104307,2,0,L|223:307,1,120
172,360,104777,1,8,0:0:0:0:
142,151,105246,6,0,P|190:118|248:128,1,120
288,188,105716,1,8,0:0:0:0:
456,324,106185,2,0,L|528:324,2,60
400,368,106655,1,8,0:0:0:0:
220,244,107125,6,0,P|184:208|52:200,1,180,0|8,0:0|0:0,0:0:0:0:
108,332,107907,1,0,0:0:0:0:
176,352,108064,2,0,P|280:344|328:284,1,180,0|8,0:0|0:0,0:0:0:0:
320,220,108690,1,0,0:0:0:0:
280,160,108847,1,0,0:0:0:0:
388,256,109003,6,2,P|488:204|496:96,1,225,4|8,0:0|0:0,0:0:0:0:
316,104,109786,1,0,0:0:0:0:
252,168,109943,1,0,0:0:0:0:
116,288,110256,5,0,0:0:0:0:
140,200,110412,2,2,P|144:148|16:48,2,225,8|0|8,0:0|0:0|0:0,0:0:0:0:
48,356,111665,1,0,0:0:0:0:
124,308,111821,2,2,P|188:280|344:304,1,225,0|8,0:0|0:0,0:0:0:0:
504,372,112604,5,0,0:0:0:0:
440,312,112760,2,2,P|396:264|400:180,1,150,0|0,0:0|0:0,0:0:0:0:
316,220,113230,2,2,P|260:192|244:100,1,150,8|0,0:0|0:0,0:0:0:0:
164,160,113700,2,2,P|97:149|52:76,1,150,0|0,0:0|0:0,0:0:0:0:
144,68,114169,1,8,0:0:0:0:
104,336,114639,6,2,P|136:312|252:320,1,150,0|0,0:0|0:0,0:0:0:0:
324,356,115108,2,2,P|400:352|444:288,1,150,8|0,0:0|0:0,0:0:0:0:
420,208,115578,1,0,0:0:0:0:
228,16,116048,1,8,0:0:0:0:
236,104,116204,1,0,0:0:0:0:
248,192,116361,1,0,0:0:0:0:
264,280,116517,6,0,L|96:268,1,150,4|0,0:0|0:0,0:0:0:0:
32,304,116987,2,0,L|12:152,1,150,8|0,0:0|0:0,0:0:0:0:
0,64,117457,1,0,0:0:0:0:
176,104,117770,1,0,0:0:0:0:
256,140,117926,2,0,P|324:128|368:48,1,150,8|0,0:0|0:0,0:0:0:0:
276,60,118396,6,2,P|300:128|384:160,1,150,0|0,0:0|0:0,0:0:0:0:
440,108,118866,1,8,0:0:0:0:
284,328,119179,1,0,0:0:0:0:
284,328,119335,2,2,L|108:316,1,150,0|0,0:0|0:0,0:0:0:0:
56,360,119805,2,0,L|44:208,1,150,8|0,0:0|0:0,0:0:0:0:
8,128,120274,6,2,P|81:137|172:144,1,150,0|0,0:0|0:0,0:0:0:0:
248,132,120744,2,2,P|284:104|296:4,1,150,8|0,0:0|0:0,0:0:0:0:
368,120,121214,2,2,P|432:112|488:28,1,150,0|0,0:0|0:0,0:0:0:0:
396,36,121683,1,8,0:0:0:0:
396,308,122153,6,0,P|424:320|472:312,1,75
436,228,122466,1,0,0:0:0:0:
348,244,122623,2,0,L|192:280,1,150,8|0,0:0|0:0,0:0:0:0:
148,208,123092,2,0,L|184:60,1,150,0|0,0:0|0:0,0:0:0:0:
112,8,123562,1,8,0:0:0:0:
276,84,123875,6,0,P|312:80|340:56,1,75,0|4,0:0|0:0,0:0:0:0:
440,308,124501,6,0,P|376:288|292:304,1,150,8|0,0:0|0:0,0:0:0:0:
232,364,124971,2,0,P|192:328|96:312,1,150,0|0,0:0|0:0,0:0:0:0:
20,352,125440,2,0,L|4:192,1,150,8|0,0:0|0:0,0:0:0:0:
64,132,125910,1,4,0:0:0:0:
324,208,126380,6,0,P|360:164|348:72,1,150,8|0,0:0|0:0,0:0:0:0:
280,132,126849,2,0,P|352:168|424:128,1,150
436,56,127319,1,8,0:0:0:0:
360,316,127788,6,0,L|208:304,1,150
136,356,128258,2,0,L|120:204,1,150,8|0,0:0|0:0,0:0:0:0:
88,124,128728,2,0,L|240:136,1,150
312,84,129197,2,0,L|328:236,1,150,8|0,0:0|0:0,0:0:0:0:
380,304,129667,5,0,0:0:0:0:
112,336,130137,1,8,0:0:0:0:
100,68,130606,1,0,0:0:0:0:
368,36,131076,1,8,0:0:0:0:
208,300,131546,6,0,P|148:248|68:244,1,150,4|0,0:0|0:0,0:0:0:0:
28,316,132015,1,8,0:0:0:0:
104,152,132328,1,0,0:0:0:0:
176,100,132485,2,0,L|332:92,1,150
392,32,132954,1,8,0:0:0:0:
512,232,133424,5,4,0:0:0:0:
272,356,133894,1,8,0:0:0:0:
112,276,134207,1,0,0:0:0:0:
68,200,134363,2,0,P|64:160|140:80,1,150
220,100,134833,2,0,P|288:108|352:52,1,150,8|0,0:0|0:0,0:0:0:0:
268,20,135303,6,0,L|288:184,1,150
192,292,135772,2,0,L|176:136,1,150,8|0,0:0|0:0,0:0:0:0:
48,68,136242,2,0,L|68:232,1,150
20,292,136711,1,8,0:0:0:0:
256,156,137181,6,0,P|312:184|328:264,1,150
256,316,137651,2,0,P|200:288|184:208,1,150,8|0,0:0|0:0,0:0:0:0:
200,120,138120,2,0,P|190:48|128:11,1,150,0|0,0:0|0:0,0:0:0:0:
56,63,138590,2,0,P|65:134|127:171,1,150,8|0,0:0|0:0,0:0:0:0:
256,156,139060,5,0,2:0:0:0:
