osu file format v13

[General]
AudioFilename: Marina And The Diamonds - E.V.O.L.mp3
AudioLeadIn: 0
PreviewTime: 46855
Countdown: 0
SampleSet: None
StackLeniency: 0.7
Mode: 0
LetterboxInBreaks: 0
WidescreenStoryboard: 0

[Editor]
Bookmarks: 139034
DistanceSpacing: 0.9
BeatDivisor: 3
GridSize: 4
TimelineZoom: 1.5

[Metadata]
Title:E.V.O.L
TitleUnicode:E.V.O.L
Artist:Marina & the Diamonds
ArtistUnicode:Marina & the Diamonds
Creator:-Bakari-
Version:Advanced
Source:
Tags:evol love l.o.v.e. Electropop Lambrini Diamandis and
BeatmapID:428573
BeatmapSetID:178104

[Difficulty]
HPDrainRate:5
CircleSize:4
OverallDifficulty:5
ApproachRate:6
SliderMultiplier:1.3
SliderTickRate:1

[Events]
//Background and Video events
0,0,"marina--the-diamonds-507793400ecee.jpg",0,0
//Break Periods
2,77068,77897
//Storyboard Layer 0 (Background)
//Storyboard Layer 1 (Fail)
//Storyboard Layer 2 (Pass)
//Storyboard Layer 3 (Foreground)
//Storyboard Sound Samples
//Background Colour Transformations
3,100,163,162,255

[TimingPoints]
1928,469.630557294928,4,3,1,55,1,0
47012,-80,4,3,1,65,0,1
54370,-80,4,3,1,65,0,0
54526,-80,4,3,1,65,0,1
61884,-80,4,3,1,65,0,0
62040,-80,4,3,1,65,0,1
62197,-80,4,3,1,65,0,0
69554,-80,4,3,1,65,0,1
69711,-80,4,3,1,50,0,0
77068,-100,4,3,1,50,0,0
109003,-80,4,3,1,65,0,1
116361,-80,4,3,1,65,0,0
116517,-80,4,3,1,65,0,1
123875,-80,4,3,1,65,0,0
124031,-80,4,3,1,65,0,1
124188,-80,4,3,1,65,0,0
131546,-80,4,3,1,65,0,1
131702,-80,4,3,1,65,0,0

[Colours]
Combo1 : 173,187,207
Combo2 : 198,200,155
Combo3 : 176,198,176
Combo4 : 215,188,187

[HitObjects]
76,116,1928,6,0,P|132:96|216:124,1,130,4|8,0:0|0:0,0:0:0:0:
264,212,2867,1,0,0:0:0:0:
368,156,3336,2,0,L|380:24,2,130,8|0|8,0:0|0:0|0:0,0:0:0:0:
364,272,4745,2,0,P|324:308|220:300,1,130,8|8,0:0|0:0,0:0:0:0:
180,220,5685,6,0,L|148:92,2,130,0|8|0,0:0|0:0|0:0,0:0:0:0:
152,332,7093,1,8,0:0:0:0:
260,372,7563,2,0,B|308:380|308:380|348:364|348:364|404:376,1,130,0|8,0:0|0:0,0:0:0:0:
492,336,8502,2,0,P|512:280|480:208,1,130,0|8,0:0|0:0,0:0:0:0:
380,176,9442,6,0,P|356:140|376:48,2,130,0|8|0,0:0|0:0|0:0,0:0:0:0:
496,156,10850,1,8,0:0:0:0:
452,264,11320,2,0,P|408:288|328:276,1,130,0|8,0:0|0:0,0:0:0:0:
248,188,12259,1,0,0:0:0:0:
160,264,12729,1,8,0:0:0:0:
56,208,13199,6,0,P|32:172|48:80,2,130,0|8|0,0:0|0:0|0:0,0:0:0:0:
172,232,14608,1,8,0:0:0:0:
272,176,15077,2,0,L|288:40,2,130,0|8|0,0:0|0:0|0:0,0:0:0:0:
180,248,16486,1,8,0:0:0:0:
62,255,16956,38,0,P|81:316|132:356,2,130,0|8|0,0:0|0:0|0:0,0:0:0:0:
116,152,18365,1,8,0:0:0:0:
180,248,18834,2,0,L|312:256,1,130,0|8,0:0|0:0,0:0:0:0:
392,172,19773,2,0,L|252:164,1,130,0|8,0:0|0:0,0:0:0:0:
160,224,20713,6,0,L|172:92,1,130,0|8,0:0|0:0,0:0:0:0:
80,24,21652,1,0,0:0:0:0:
36,132,22122,1,8,0:0:0:0:
84,240,22591,1,0,0:0:0:0:
192,284,23061,2,0,L|316:248,1,130,8|0,0:0|0:0,0:0:0:0:
388,280,23844,2,0,L|440:288,1,43.3333333333333,0|8,0:0|0:0,0:0:0:0:
488,184,24470,6,0,P|508:144|464:56,1,130,0|8,0:0|0:0,0:0:0:0:
404,76,25252,2,0,L|352:68,1,43.3333333333333,0|0,0:0|0:0,0:0:0:0:
288,100,25722,2,0,L|244:96,1,43.3333333333333,0|8,0:0|0:0,0:0:0:0:
152,168,26348,2,0,P|136:224|172:300,2,130,0|8|0,0:0|0:0|0:0,0:0:0:0:
256,220,27757,1,8,0:0:0:0:
356,280,28227,6,0,L|500:288,2,130,0|8|0,0:0|0:0|0:0,0:0:0:0:
252,336,29636,1,8,0:0:0:0:
256,220,30105,1,0,0:0:0:0:
264,104,30575,2,0,L|120:96,1,130,8|0,0:0|0:0,0:0:0:0:
72,144,31358,2,0,L|20:152,1,43.3333333333333,0|8,0:0|0:0,0:0:0:0:
92,252,31984,6,0,L|236:272,1,130,0|8,0:0|0:0,0:0:0:0:
336,256,32923,2,0,P|380:224|392:144,1,130,0|8,0:0|0:0,0:0:0:0:
312,68,33862,1,0,0:0:0:0:
212,128,34332,2,0,L|80:108,2,130,8|0|8,0:0|0:0|0:0,0:0:0:0:
264,188,35584,6,0,L|316:184,1,43.3333333333333,0|0,0:0|0:0,0:0:0:0:
416,232,36211,2,0,L|432:368,2,130,8|0|8,0:0|0:0|0:0,0:0:0:0:
460,124,37619,1,0,0:0:0:0:
408,64,37933,2,0,L|348:72,1,43.3333333333333,0|8,0:0|0:0,0:0:0:0:
284,156,38559,2,0,L|148:176,1,130,0|8,0:0|0:0,0:0:0:0:
92,76,39498,5,0,0:0:0:0:
68,192,39968,2,0,P|88:236|172:260,1,130,8|0,0:0|0:0,0:0:0:0:
252,192,40907,1,8,0:0:0:0:
356,244,41376,2,0,L|344:376,2,130,0|8|0,0:0|0:0|0:0,0:0:0:0:
432,156,42785,1,8,0:0:0:0:
340,80,43255,6,0,L|196:72,1,130,0|8,0:0|0:0,0:0:0:0:
112,132,44194,1,0,0:0:0:0:
172,232,44664,1,8,0:0:0:0:
121,337,45134,2,0,P|61:357|1:317,2,130,0|8|0,0:0|0:0|0:0,0:0:0:0:
172,232,46542,1,8,0:0:0:0:
272,128,47012,6,0,P|316:108|408:168,1,162.5,4|8,0:0|0:0,0:0:0:0:
384,256,47795,2,0,L|436:268,1,54.1666666666667,0|0,0:0|0:0,0:0:0:0:
396,356,48264,2,0,L|336:364,1,54.1666666666667,0|8,0:0|0:0,0:0:0:0:
216,288,48891,2,0,L|204:120,1,162.5,0|8,0:0|0:0,0:0:0:0:
320,36,49830,2,0,L|332:208,1,162.5,0|8,0:0|0:0,0:0:0:0:
392,332,50769,5,0,0:0:0:0:
248,296,51239,1,8,0:0:0:0:
104,320,51708,1,0,0:0:0:0:
164,188,52178,2,0,P|176:132|108:40,2,162.5,8|0|8,0:0|0:0|0:0,0:0:0:0:
104,320,53587,2,0,P|184:300|284:320,1,162.5,0|8,0:0|0:0,0:0:0:0:
360,364,54370,6,0,L|376:308,1,54.1666666666667,0|4,0:0|0:0,0:0:0:0:
468,200,54996,1,8,0:0:0:0:
412,120,55309,2,0,L|416:64,1,54.1666666666667,0|0,0:0|0:0,0:0:0:0:
324,96,55778,2,0,L|328:164,1,54.1666666666667,0|8,0:0|0:0,0:0:0:0:
252,276,56405,2,0,P|208:288|104:224,1,162.5,0|8,0:0|0:0,0:0:0:0:
68,96,57344,2,0,P|112:84|216:148,1,162.5,0|8,0:0|0:0,0:0:0:0:
240,280,58283,5,0,0:0:0:0:
344,176,58753,1,8,0:0:0:0:
324,36,59222,2,0,P|380:36|464:102,2,162.5,0|8|0,0:0|0:0|0:0,0:0:0:0:
196,104,60631,1,8,0:0:0:0:
208,248,61101,2,0,P|168:288|56:272,1,162.5,0|8,0:0|0:0,0:0:0:0:
20,140,62040,5,4,0:0:0:0:
148,72,62510,2,0,L|320:56,1,162.5,8|0,0:0|0:0,0:0:0:0:
388,180,63449,1,8,0:0:0:0:
464,116,63762,2,0,L|456:60,1,54.1666666666667,0|0,0:0|0:0,0:0:0:0:
320,120,64388,6,0,P|300:188|356:268,2,162.5,8|0|8,0:0|0:0|0:0,0:0:0:0:
414,12,65797,1,0,0:0:0:0:
276,46,66267,1,8,0:0:0:0:
139,83,66737,1,0,0:0:0:0:
0,119,67206,1,8,0:0:0:0:
92,227,67676,5,0,0:0:0:0:
230,260,68146,1,8,0:0:0:0:
367,286,68616,1,0,0:0:0:0:
502,319,69085,1,8,0:0:0:0:
456,180,69554,5,4,0:0:0:0:
364,89,70024,2,0,B|320:93|320:93|260:61|260:61|209:68,1,162.5,8|0,0:0|0:0,0:0:0:0:
145,196,70963,2,0,B|195:188|195:188|255:220|255:220|299:216,1,162.5,8|0,0:0|0:0,0:0:0:0:
400,114,71902,1,8,0:0:0:0:
452,196,72216,2,0,L|444:256,1,54.1666666666667,0|2,0:0|0:0,0:0:0:0:
356,292,72685,2,0,L|296:280,1,54.1666666666667,0|8,0:0|0:0,0:0:0:0:
160,304,73311,5,0,0:0:0:0:
164,156,73781,1,8,0:0:0:0:
148,12,74251,1,0,0:0:0:0:
28,96,74720,1,8,0:0:0:0:
164,156,75190,6,0,L|340:136,1,162.5,0|8,0:0|0:0,0:0:0:0:
464,180,76129,1,0,0:0:0:0:
408,316,76599,1,8,0:0:0:0:
508,172,78947,6,0,L|364:164,1,130,4|8,0:0|0:0,0:0:0:0:
300,252,79886,2,0,L|156:244,1,130,0|8,0:0|0:0,0:0:0:0:
80,168,80825,2,0,P|68:132|112:44,1,130,0|8,0:0|0:0,0:0:0:0:
180,56,81608,2,0,L|228:44,1,43.3333333333333,0|0,0:0|0:0,0:0:0:0:
292,76,82078,2,0,L|344:80,1,43.3333333333333,0|8,0:0|0:0,0:0:0:0:
448,52,82704,6,0,L|460:200,1,130,0|8,0:0|0:0,0:0:0:0:
400,284,83643,1,0,0:0:0:0:
292,236,84113,1,8,0:0:0:0:
184,284,84582,2,0,P|140:296|68:224,1,130,0|8,0:0|0:0,0:0:0:0:
76,172,85365,2,0,L|88:96,1,43.3333333333333,0|0,0:0|0:0,0:0:0:0:
156,100,85835,2,0,L|164:164,1,43.3333333333333,0|8,0:0|0:0,0:0:0:0:
248,224,86461,6,0,P|316:220|364:176,1,130,0|8,0:0|0:0,0:0:0:0:
344,64,87400,1,0,0:0:0:0:
228,92,87870,1,8,0:0:0:0:
116,60,88340,2,0,L|124:196,1,130,0|8,0:0|0:0,0:0:0:0:
92,300,89279,1,0,0:0:0:0:
200,344,89748,1,8,0:0:0:0:
308,296,90218,6,0,P|340:264|248:104,1,260,0|0,0:0|0:0,0:0:0:0:
164,172,91627,1,8,0:0:0:0:
92,264,92097,2,0,P|56:220|52:136,2,130,0|8|0,0:0|0:0|0:0,0:0:0:0:
208,280,93505,1,8,0:0:0:0:
272,236,93819,6,0,L|280:176,1,43.3333333333333,0|0,0:0|0:0,0:0:0:0:
348,228,94288,2,0,L|356:288,1,43.3333333333333,0|8,0:0|0:0,0:0:0:0:
460,316,94914,2,0,P|496:284|496:192,1,130,0|8,0:0|0:0,0:0:0:0:
412,132,95854,1,0,0:0:0:0:
348,228,96323,2,0,P|304:248|220:224,2,130,8|0|8,0:0|0:0|0:0,0:0:0:0:
288,134,97732,6,0,L|296:-6,1,130,0|8,0:0|0:0,0:0:0:0:
188,48,98671,2,0,L|176:184,1,130,0|8,0:0|0:0,0:0:0:0:
132,284,99611,2,0,B|172:296|216:288|252:260|252:260|292:288|352:292|388:276,1,260,0|0,0:0|0:0,0:0:0:0:
328,172,101020,1,8,0:0:0:0:
268,72,101489,6,0,B|295:59|360:48|404:92|404:92|431:63|475:55|515:67,1,260,0|0,0:0|0:0,0:0:0:0:
480,180,102898,1,8,0:0:0:0:
392,260,103368,2,0,L|252:252,1,130,0|8,0:0|0:0,0:0:0:0:
152,296,104307,2,0,L|164:148,1,130,0|8,0:0|0:0,0:0:0:0:
116,56,105246,5,0,0:0:0:0:
232,60,105716,1,8,0:0:0:0:
348,72,106185,1,0,0:0:0:0:
464,80,106655,1,8,0:0:0:0:
396,176,107125,2,0,L|388:320,1,130,0|8,0:0|0:0,0:0:0:0:
284,356,108064,2,0,L|296:220,1,130,0|8,0:0|0:0,0:0:0:0:
260,84,109003,6,0,P|216:56|100:88,1,162.5,4|8,0:0|0:0,0:0:0:0:
84,168,109786,2,0,L|80:240,1,54.1666666666667,0|0,0:0|0:0,0:0:0:0:
172,260,110256,2,0,L|168:200,1,54.1666666666667,0|8,0:0|0:0,0:0:0:0:
268,100,110882,2,0,P|316:80|424:112,1,162.5,0|8,0:0|0:0,0:0:0:0:
456,248,111821,1,0,0:0:0:0:
344,344,112291,1,8,0:0:0:0:
260,224,112760,6,0,B|204:216|204:216|148:240|148:240|80:232,2,162.5,0|8|0,0:0|0:0|0:0,0:0:0:0:
356,336,114169,1,8,0:0:0:0:
476,252,114639,2,0,L|464:84,1,162.5,0|8,0:0|0:0,0:0:0:0:
344,8,115578,1,0,0:0:0:0:
280,80,115891,2,0,L|284:144,1,54.1666666666667,0|8,0:0|0:0,0:0:0:0:
208,196,116361,6,0,L|204:140,1,54.1666666666667,0|4,0:0|0:0,0:0:0:0:
92,48,116987,1,8,0:0:0:0:
24,120,117300,2,0,L|28:184,1,54.1666666666667,0|0,0:0|0:0,0:0:0:0:
108,228,117770,2,0,L|96:292,1,54.1666666666667,0|8,0:0|0:0,0:0:0:0:
228,344,118396,2,0,P|288:368|392:328,1,162.5,0|8,0:0|0:0,0:0:0:0:
476,232,119335,2,0,P|488:192|440:88,1,162.5,0|8,0:0|0:0,0:0:0:0:
304,156,120274,5,0,0:0:0:0:
176,224,120744,2,0,P|112:216|44:132,2,162.5,8|0|8,0:0|0:0|0:0,0:0:0:0:
312,168,122153,1,0,0:0:0:0:
428,260,122623,1,8,0:0:0:0:
424,116,123092,2,0,P|380:68|272:48,1,162.5,0|8,0:0|0:0,0:0:0:0:
200,168,124031,5,4,0:0:0:0:
84,256,124501,2,0,P|60:228|68:104,2,162.5,4|0|8,0:0|0:0|0:0,0:0:0:0:
216,316,125910,1,4,0:0:0:0:
316,208,126380,2,0,L|328:44,1,162.5,8|0,0:0|0:0,0:0:0:0:
444,136,127319,1,8,0:0:0:0:
420,280,127788,6,0,P|376:316|260:324,1,162.5,0|8,0:0|0:0,0:0:0:0:
176,220,128728,1,0,0:0:0:0:
84,336,129197,1,8,0:0:0:0:
40,196,129667,1,0,0:0:0:0:
132,80,130137,1,8,0:0:0:0:
172,220,130606,1,0,0:0:0:0:
308,164,131076,1,8,0:0:0:0:
320,24,131546,6,0,P|276:28|184:96,1,162.5,4|8,0:0|0:0,0:0:0:0:
252,236,132485,1,0,0:0:0:0:
168,356,132954,1,8,0:0:0:0:
40,276,133424,1,4,0:0:0:0:
116,152,133894,2,0,P|128:116|48:24,2,162.5,8|0|8,0:0|0:0|0:0,0:0:0:0:
256,192,135303,12,0,139060,2:0:0:0:
