osu file format v9

[General]
AudioFilename: 01 - Bubblegum Bitch.mp3
AudioLeadIn: 0
PreviewTime: 36663
Countdown: 0
SampleSet: Normal
StackLeniency: 0.3
Mode: 0
LetterboxInBreaks: 1

[Editor]
DistanceSpacing: 0.8
BeatDivisor: 2
GridSize: 8

[Metadata]
Title:Bubblegum Bitch
Artist:Marina & the Diamonds
Creator:Jacob
Version:Normal
Source:
Tags:Electra Heart

[Difficulty]
HPDrainRate:4
CircleSize:3
OverallDifficulty:4
ApproachRate:5
SliderMultiplier:1.2
SliderTickRate:2

[Events]
//Background and Video events
0,0,"BG.jpg"
//Break Periods
2,52008,56884
2,109930,120681
//Storyboard Layer 0 (Background)
//Storyboard Layer 1 (Fail)
//Storyboard Layer 2 (Pass)
//Storyboard Layer 3 (Foreground)
//Storyboard Sound Samples
//Background Colour Transformations
3,100,163,162,255

[TimingPoints]
363,379.746835443038,4,1,0,45,1,0
36818,-100,4,1,0,65,0,1
52008,-100,4,1,0,45,0,0
82008,-100,4,1,0,30,0,0
82388,-100,4,1,0,65,0,1
97578,-100,4,1,0,65,0,0
121881,-100,4,1,0,65,0,1
136976,-100,4,1,0,65,0,0
137071,-100,4,1,0,75,0,1
151502,-100,4,1,0,60,0,0

[Colours]
Combo1 : 128,0,255
Combo2 : 223,0,0
Combo3 : 255,62,255
Combo4 : 255,155,205
Combo5 : 128,128,255

[HitObjects]
350,139,12135,1,8
350,139,12514,2,0,B|320:76|255:59|190:75|158:139,1,240,4|0
128,228,13654,1,8
72,304,14033,2,2,B|132:336|188:304|188:304|248:336|314:301,1,240,2|2
496,304,15552,6,0,B|496:60,1,240,4|0
408,96,16692,1,8
320,64,17071,2,2,B|320:304,1,240,2|2
128,304,18590,6,0,B|104:336|48:336|24:304,1,120,4|8
75,222,19350,1,0
75,222,19730,1,8
80,128,20109,2,2,B|112:64|177:48|242:65|272:128,1,240,2|2
192,304,21628,6,0,B|252:336|308:304|308:304|368:336|434:301,1,240,4|2
368,224,22768,1,8
256,192,23147,12,4,24666
168,56,25426,5,2
264,56,25806,2,0,B|344:56|344:136|344:136|344:192,1,180,8|0
344,232,26565,1,8
264,280,26945,2,2,B|144:280,1,120,2|8
48,168,27894,5,0
48,168,28084,2,0,B|72:96|152:104,2,120,8|2|8
192,171,29413,1,0
192,171,29603,2,0,B|248:131|216:59,2,120,8|2|8
280,288,30932,5,0
280,288,31122,2,0,B|424:288,2,120,8|2|8
280,144,32451,1,0
280,144,32641,2,0,B|136:144,2,120,8|2|8
256,192,33780,12,2,36059
192,304,36818,6,0,B|252:336|308:304|308:304|368:336|434:301,1,240,4|2
368,224,37957,1,8
419,142,38337,2,0,B|394:108|338:108|314:140,1,120,2|8
252,215,39097,1,4
96,112,39856,6,0,B|105:153|69:195|30:193,2,120,2|8|2
184,72,40995,1,2
272,112,41375,2,0,B|262:153|298:195|337:193,2,120,2|8|2
168,272,42894,6,0,B|198:335|263:352|328:336|360:272,1,240,4|2
265,244,44033,1,8
265,244,44413,2,0,B|266:123,1,120,2|8
268,27,45173,1,4
183,199,45932,6,0,B|192:240|156:282|117:280,2,120,2|8|2
271,159,47071,1,2
359,199,47451,2,0,B|349:240|385:282|424:280,2,120,2|8|2
194,99,48970,6,0,B|164:36|99:19|34:35|2:99,1,240,4|2
98,123,50109,1,8
98,123,50489,2,0,B|66:183|98:239|98:239|66:299|101:365,1,240,2|4
419,142,58084,6,0,B|394:108|338:108|314:140,1,120,4|8
364,223,58844,2,0,B|340:255|284:255|259:221,1,120,0|8
232,128,59603,2,2,B|169:158|152:223|168:288|232:320,1,240,2|2
40,320,61122,6,0,B|74:295|74:239|42:215,1,120,4|8
136,184,61881,2,0,B|102:159|102:103|134:79,1,120,0|8
216,128,62641,2,2,B|456:128,1,240,2|2
480,320,64160,5,4
480,320,64540,1,8
400,376,64919,1,0
400,376,65299,1,8
320,320,65679,2,2,B|248:320|248:240|248:240|248:184,1,180,2|0
248,136,66438,1,2
80,56,67198,5,4
32,136,67578,1,8
128,136,67957,1,4
80,216,68337,1,2
256,192,68717,12,4,70236
344,56,70995,5,2
248,56,71375,2,0,B|168:56|168:136|168:136|168:192,1,180,8|0
168,232,72135,1,8
248,280,72514,2,2,B|368:280,1,120,2|8
464,168,73464,5,0
464,168,73654,2,0,B|440:96|360:104,2,120,8|2|8
320,171,74983,1,0
320,171,75173,2,0,B|264:131|296:59,2,120,8|2|8
232,288,76502,5,0
232,288,76692,2,0,B|88:288,2,120,8|2|8
232,144,78021,1,0
232,144,78211,2,0,B|376:144,2,120,8|2|8
160,80,79350,6,0,B|72:176,1,120,4|8
32,248,80109,2,0,B|152:328,1,120,0|8
208,256,80869,2,0,B|238:319|303:336|368:320|400:256,1,240,0|2
376,160,82008,1,2
304,96,82388,6,0,B|244:64|188:96|188:96|128:64|62:99,1,240,4|2
128,176,83527,1,8
77,257,83907,2,0,B|102:291|158:291|182:259,1,120,2|8
254,197,84666,1,4
418,296,85426,6,0,B|409:255|445:213|484:215,2,120,2|8|2
331,339,86565,1,2
243,299,86945,2,0,B|253:258|217:216|178:218,2,120,2|8|2
347,139,88464,6,0,B|317:76|252:59|187:75|155:139,1,240,4|2
253,166,89603,1,8
253,166,89983,2,0,B|251:287,1,120,2|8
247,384,90742,1,4
332,212,91502,6,0,B|323:171|359:129|398:131,2,120,2|8|2
244,252,92641,1,2
156,212,93021,2,0,B|166:171|130:129|91:131,2,120,2|8|2
321,312,94540,6,0,B|351:375|416:392|481:376|513:312,1,240,4|2
417,288,95679,1,8
417,288,96059,2,0,B|449:228|417:172|417:172|449:112|414:46,1,240,2|4
224,72,97578,5,4
224,168,97957,1,8
169,250,98337,2,0,B|194:284|250:284|274:252,1,120,2|8
400,128,99476,1,8
496,136,99856,2,0,B|496:216|416:216|416:216|352:216,1,180,2|2
280,336,100995,6,0,B|225:365|165:333|165:333|109:365|49:333,1,240,8|0
112,256,102135,1,2
224,160,102704,1,2
112,64,103274,1,8
208,64,103654,5,4
304,64,104033,1,8
386,9,104413,2,0,B|420:34|420:90|388:114,1,120,2|8
376,304,105552,1,8
280,304,105932,2,0,B|200:304|200:224|200:224|200:168,1,180,2|2
93,75,107071,6,2,B|30:105|13:170|29:235|93:267,1,240,2|2
256,192,108211,12,4,109730
192,304,121881,6,0,B|252:336|308:304|308:304|368:336|434:301,1,240,4|2
368,224,123021,1,8
419,142,123400,2,0,B|394:108|338:108|314:140,1,120,2|8
252,215,124160,1,4
96,112,124919,6,0,B|105:153|69:195|30:193,2,120,2|8|2
184,72,126059,1,2
272,112,126438,2,0,B|262:153|298:195|337:193,2,120,2|8|2
168,272,127957,6,0,B|198:335|263:352|328:336|360:272,1,240,4|2
267,244,129097,1,8
267,244,129476,2,0,B|269:123,1,120,2|8
268,27,130236,1,4
183,199,130995,6,0,B|192:240|156:282|117:280,2,120,2|8|2
271,159,132135,1,2
359,199,132514,2,0,B|349:240|385:282|424:280,2,120,2|8|2
194,99,134033,6,0,B|164:36|99:19|34:35|2:99,1,240,4|2
98,123,135173,1,8
98,123,135552,2,0,B|66:183|98:239|98:239|66:299|101:365,1,240,2|4
240,224,137071,6,0,B|264:192|320:192|345:226,1,120,4|8
304,312,137831,2,0,B|329:346|385:346|409:314,1,120,2|8
456,232,138590,1,2
400,152,138970,1,8
336,80,139350,1,4
144,80,140109,6,0,B|112:140|144:196|144:196|112:256|147:322,1,240,2|2
224,256,141249,1,2
294,312,141628,2,0,B|328:287|328:231|296:207,1,120,2|8
256,120,142388,1,2
255,119,143147,6,0,B|285:56|350:39|415:55|447:119,1,240,4|2
354,147,144287,1,8
354,147,144666,2,0,B|354:268,1,120,2|8
355,364,145426,1,4
270,192,146185,6,0,B|279:151|243:109|204:111,2,120,2|8|2
358,232,147325,1,2
446,192,147704,2,0,B|436:151|472:109|511:111,2,120,2|8|2
281,291,149223,6,0,B|251:354|186:371|121:355|89:291,1,240,4|2
185,268,150362,1,8
185,268,150742,2,0,B|153:208|185:152|185:152|153:92|188:26,1,240,2|2
