osu file format v9

[General]
AudioFilename: 01 - Bubblegum Bitch.mp3
AudioLeadIn: 0
PreviewTime: 36663
Countdown: 0
SampleSet: Normal
StackLeniency: 0.3
Mode: 0
LetterboxInBreaks: 1

[Editor]
DistanceSpacing: 0.8
BeatDivisor: 2
GridSize: 8

[Metadata]
Title:Bubblegum Bitch
Artist:Marina & the Diamonds
Creator:Jacob
Version:Hard
Source:
Tags:Electra Heart

[Difficulty]
HPDrainRate:6
CircleSize:3
OverallDifficulty:6
ApproachRate:7
SliderMultiplier:2.4
SliderTickRate:2

[Events]
//Background and Video events
0,0,"BG.jpg"
//Break Periods
2,52008,57184
2,109930,120981
//Storyboard Layer 0 (Background)
//Storyboard Layer 1 (Fail)
//Storyboard Layer 2 (Pass)
//Storyboard Layer 3 (Foreground)
//Storyboard Sound Samples
//Background Colour Transformations
3,100,163,162,255

[TimingPoints]
363,379.746835443038,4,1,0,45,1,0
36818,-100,4,1,0,65,0,1
52008,-100,4,1,0,45,0,0
82388,-100,4,1,0,65,0,1
97578,-123.456790123457,4,1,0,60,0,0
121881,-100,4,1,0,65,0,1
136976,-100,4,1,0,65,0,0
137071,-86.9565217391304,4,1,0,75,0,1
149223,-76.9230769230769,4,1,0,80,0,1
151502,-100,4,1,0,60,0,0

[Colours]
Combo1 : 128,0,255
Combo2 : 223,0,0
Combo3 : 255,62,255
Combo4 : 255,155,205
Combo5 : 128,128,255

[HitObjects]
264,104,12135,1,8
216,24,12325,1,0
168,104,12514,1,4
216,184,12704,1,0
176,272,12894,2,0,B|272:344,1,120,2|0
368,344,13274,1,0
448,296,13464,1,0
472,200,13654,2,0,B|456:128|384:112|312:128|296:200,1,240,8|2
376,256,14223,5,0
296,312,14413,1,8
216,256,14603,1,0
128,304,14793,2,2,B|40:80,1,240,2|0
232,48,15552,5,4
184,128,15742,1,0
280,128,15932,1,2
376,128,16122,1,0
328,48,16312,1,0
424,48,16502,1,0
472,136,16692,2,0,B|428:160|430:230|460:236|489:242|495:312|448:352,1,240,8|2
385,286,17261,5,0
296,256,17451,1,8
208,224,17641,1,0
120,184,17831,1,2
199,60,18590,6,0,B|225:23|273:23|299:63,1,120,4|0
248,144,18970,1,2
200,330,19350,2,0,B|225:367|273:367|299:327,1,120,0|0
248,248,19730,1,8
416,152,20109,5,2
416,56,20299,1,0
320,56,20489,1,8
320,152,20679,1,0
368,240,20869,2,2,B|352:312|280:328|208:312|192:240,1,240,2|0
96,80,21628,5,4
32,264,22008,1,8
216,328,22388,1,4
280,144,22768,1,2
256,192,23147,12,0,24287
440,72,24666,5,4
344,96,24856,1,0
248,120,25046,1,8
152,144,25236,1,0
64,176,25426,2,0,B|23:239|50:299|108:345|174:312,1,240,2|2
144,24,26375,5,0
216,88,26565,1,8
312,96,26755,1,0
295,2,26945,2,4,B|361:-31|419:15|446:75|406:139,1,240,2|8
184,320,27894,5,0
280,296,28084,1,8
368,264,28274,1,0
352,168,28464,2,4,B|418:135|476:181|503:241|463:305,1,240,2|2
184,320,29413,5,0
144,232,29603,1,8
112,144,29793,1,0
48,72,29983,2,0,B|84:30|154:36|160:65|166:95|237:101|272:56,1,240,2|8
512,224,30932,5,0
448,152,31122,1,8
384,224,31312,1,0
448,296,31502,2,0,B|208:352,1,240,2|2
40,296,32451,5,0
88,208,32641,1,8
136,128,32831,1,0
184,40,33021,2,0,B|220:-2|290:4|296:33|302:63|373:69|408:24,1,240,2|8
408,320,33780,5,6
120,320,34160,1,8
120,32,34540,1,0
408,32,34919,1,8
256,192,35299,5,0
256,192,35489,1,0
256,192,35679,1,8
128,296,36059,2,2,B|89:266|95:195|125:189|154:183|160:113|118:77,1,240,2|8
312,72,36818,6,0,B|371:33|433:73|473:135|433:198,1,240,4|8
248,232,37578,1,2
160,264,37768,1,0
72,296,37957,1,8
24,112,38337,1,2
120,88,38527,1,8
216,64,38717,1,8
312,40,38907,1,8
408,16,39097,2,4,B|481:17|511:85|507:151|441:189,1,240,6|0
336,344,39856,5,2
272,272,40046,1,0
192,344,40236,1,8
120,272,40426,1,0
48,344,40616,2,0,B|6:308|12:238|41:232|71:226|77:155|32:120,1,240,2|2
224,80,41375,2,0,B|285:111|276:178,1,120,2|0
408,320,41755,2,0,B|340:328|309:267,1,120,8|0
176,184,42135,2,0,B|104:200|88:272|104:344|176:360,1,240,2|0
312,72,42894,6,0,B|371:33|433:73|473:135|433:198,1,240,4|8
248,232,43654,1,2
160,264,43844,1,0
72,296,44033,1,8
24,112,44413,1,2
120,88,44603,1,8
216,64,44793,1,8
312,40,44983,1,8
408,16,45173,2,4,B|481:17|511:85|507:151|441:189,1,240,6|0
336,344,45932,5,2
192,216,46312,1,8
120,280,46502,1,0
48,344,46692,2,0,B|6:308|12:238|41:232|71:226|77:155|32:120,1,240,2|2
216,104,47451,2,0,B|277:135|268:202,1,120,2|0
176,185,47831,1,8
176,185,48211,2,0,B|104:201|88:273|104:345|176:361,1,240,2|0
500,210,48970,6,0,B|484:279|412:295|340:279|324:207,1,240,6|8
414,171,49540,1,0
500,128,49730,2,0,B|484:56|412:40|340:56|324:125,1,240,2|2
143,60,50489,2,0,B|-17:110|-4:265|98:383|248:308,1,480,2|4
504,128,58084,6,0,B|488:56|416:40|344:56|328:125,1,240,4|8
152,208,58844,2,0,B|168:280|240:296|312:280|328:211,1,240,0|8
504,128,59603,5,2
408,152,59793,1,0
408,248,59983,1,8
504,272,60173,1,0
408,248,60363,2,2,B|392:317|320:333|248:317|232:245,1,240,2|0
112,352,61122,5,4
64,264,61312,1,0
24,176,61502,1,2
112,136,61692,1,0
200,104,61881,2,0,B|320:152,1,120
392,112,62261,2,0,B|416:176|365:224,1,120,8|0
440,288,62641,5,2
360,344,62831,1,0
280,288,63021,1,8
200,344,63211,1,0
120,288,63400,1,2
199,60,64160,6,0,B|225:23|273:23|299:63,1,120,4|0
248,144,64540,1,2
200,330,64919,2,0,B|225:367|273:367|299:327,1,120,0|0
248,248,65299,1,8
416,152,65679,5,2
456,64,65869,1,0
360,64,66059,1,8
312,152,66249,1,0
264,64,66438,2,2,B|200:88|144:64|144:64|88:88|24:64,1,240,2|0
24,256,67198,5,4
216,256,67578,1,8
408,72,67957,1,4
216,72,68337,1,2
256,192,68717,12,0,69856
72,72,70236,5,4
168,96,70426,1,0
264,120,70616,1,8
448,176,70995,2,0,B|489:239|462:299|404:345|338:312,1,240,2|2
368,24,71945,5,0
296,88,72135,1,8
200,96,72325,1,0
217,2,72514,2,4,B|151:-31|93:15|66:75|106:139,1,240,2|8
328,320,73464,5,0
232,296,73654,1,8
144,264,73844,1,0
160,168,74033,2,4,B|94:135|36:181|9:241|49:305,1,240,2|2
328,320,74983,5,0
368,232,75173,1,8
400,144,75362,1,0
464,72,75552,2,0,B|428:30|358:36|352:65|346:95|275:101|240:56,1,240,2|8
0,224,76502,5,0
64,152,76692,1,8
128,224,76881,1,0
64,296,77071,2,0,B|312:368,1,240,2|2
472,296,78021,5,0
424,208,78211,1,8
376,128,78400,1,0
328,40,78590,2,0,B|292:-2|222:4|216:33|210:63|139:69|104:24,1,240,2|8
104,320,79350,5,6
392,320,79730,1,8
392,32,80109,1,0
104,32,80489,1,8
256,192,80869,5,0
256,192,81059,1,0
256,192,81249,1,8
384,296,81628,2,2,B|423:266|417:195|387:189|358:183|352:113|394:77,1,240,2|8
200,72,82388,6,0,B|141:33|79:73|39:135|79:198,1,240,4|8
264,232,83147,1,2
353,266,83337,1,0
443,298,83527,1,8
488,112,83907,1,2
392,88,84097,1,8
299,60,84287,1,8
207,31,84476,1,8
112,8,84666,2,4,B|39:9|9:77|13:143|79:181,1,240,6|0
176,344,85426,5,2
248,280,85616,1,0
320,344,85806,1,8
392,280,85995,1,0
464,344,86185,2,0,B|506:308|500:238|471:232|441:226|435:155|480:120,1,240,2|2
288,80,86945,2,0,B|227:111|236:178,1,120,2|0
104,320,87325,2,0,B|172:328|203:267,1,120,8|0
336,184,87704,2,0,B|408:200|424:272|408:344|336:360,1,240,2|0
200,72,88464,6,0,B|141:33|79:73|39:135|79:198,1,240,4|8
264,232,89223,1,2
352,264,89413,1,0
440,296,89603,1,8
488,112,89983,1,2
392,88,90173,1,8
299,65,90362,1,8
205,41,90552,1,8
111,18,90742,2,4,B|38:19|8:87|12:153|78:191,1,240,6|0
176,344,91502,5,2
320,216,91881,1,8
392,280,92071,1,0
464,344,92261,2,0,B|506:308|500:238|471:232|441:226|435:155|480:120,1,240,2|2
296,104,93021,2,0,B|235:135|244:202,1,120,2|0
336,185,93400,1,8
336,185,93780,2,0,B|408:201|424:273|408:345|336:361,1,240,2|0
12,210,94540,6,0,B|28:279|100:295|172:279|188:207,1,240,6|8
98,171,95109,1,0
12,128,95299,2,0,B|28:56|100:40|172:56|188:125,1,240,2|2
304,280,96059,1,2
368,208,96249,1,0
439,268,96438,2,0,B|489:218|464:148|413:96|343:120,1,240,8|4
112,104,97578,5,4
68,168,97768,1,0
62,245,97957,1,8
110,306,98147,1,0
184,327,98337,2,2,B|216:381|329:363|342:300,1,194.4000032444
441,179,99097,5,0
318,84,99476,1,8
248,118,99666,1,0
177,151,99856,2,0,B|33:207,2,145.8000024333,2|0|2
400,88,100995,2,0,B|476:180|455:290|352:353|240:293,1,388.8000064888,8|0
85,313,102135,2,2,B|227:52,2,291.6000048666,2|2|8
240,319,103654,5,4
316,335,103844,1,0
380,291,104033,1,8
386,213,104223,1,0
369,136,104413,2,2,B|337:82|224:100|211:163,1,194.4000032444
72,234,105173,5,0
41,81,105552,2,0,B|110:-4|225:22,1,194.4000032444,8|2
369,38,106312,1,8
369,38,106502,1,0
334,268,107071,2,2,B|242:344|132:323|69:220|129:108,1,388.8000064888,2|2
256,192,108211,12,4,109730
200,72,121881,6,0,B|141:33|79:73|39:135|79:198,1,240,4|8
264,232,122641,1,2
352,264,122831,1,0
440,296,123021,1,8
488,112,123400,1,2
392,88,123590,1,8
296,64,123780,1,8
208,32,123970,1,8
112,8,124160,2,4,B|39:9|9:77|13:143|79:181,1,240,6|0
176,344,124919,5,2
248,280,125109,1,0
320,344,125299,1,8
392,280,125489,1,0
464,344,125679,2,0,B|506:308|500:238|471:232|441:226|435:155|480:120,1,240,2|2
288,80,126438,2,0,B|227:111|236:178,1,120,2|0
104,320,126818,2,0,B|172:328|203:267,1,120,8|0
336,184,127198,2,0,B|408:200|424:272|408:344|336:360,1,240,2|0
200,72,127957,6,0,B|141:33|79:73|39:135|79:198,1,240,4|8
264,232,128717,1,2
352,264,128907,1,0
440,296,129097,1,8
488,112,129476,1,2
392,88,129666,1,8
296,64,129856,1,8
208,32,130046,1,8
112,8,130236,2,4,B|39:9|9:77|13:143|79:181,1,240,6|0
176,344,130995,5,2
320,216,131375,1,8
392,280,131565,1,0
464,344,131755,2,0,B|506:308|500:238|471:232|441:226|435:155|480:120,1,240,2|2
296,104,132514,2,0,B|235:135|244:202,1,120,2|0
336,185,132894,1,8
336,185,133274,2,0,B|408:201|424:273|408:345|336:361,1,240,2|0
12,210,134033,6,0,B|28:279|100:295|172:279|188:207,1,240,6|8
98,171,134603,1,0
12,128,134793,2,0,B|28:56|100:40|172:56|188:125,1,240,2|2
296,280,135552,1,2
392,280,135742,1,0
344,200,135932,2,0,B|496:0,1,240,8|4
56,112,137071,6,0,B|80:40|168:24|248:40|272:116,1,276.000009047985,4|8
152,304,137831,1,2
248,232,138021,1,0
336,304,138211,1,8
336,304,138590,2,0,B|374:279|374:215|334:183,1,138.000004523993,2|8
168,16,138970,2,0,B|128:48|128:112|166:136,1,138.000004523993,8|8
180,248,139350,2,0,B|356:32,1,276.000009047985,6|0
336,304,140109,5,2
384,208,140299,1,0
432,104,140489,1,8
432,104,140679,1,0
320,96,140869,2,0,B|264:48|184:48|184:120|104:120|40:64,1,276.000009047985,2|2
464,208,141628,2,0,B|424:240|424:304|462:328,1,138.000004523993,2|0
320,328,142008,2,0,B|358:303|358:239|318:207,1,138.000004523993,8|0
319,207,142388,1,2
55,112,143147,6,0,B|79:40|167:24|247:40|272:120,1,276.000009047985,4|8
152,304,143907,1,2
248,232,144097,1,0
336,304,144287,1,8
336,304,144666,2,0,B|374:279|374:215|334:183,1,138.000004523993,2|8
168,16,145046,2,0,B|128:48|128:112|166:136,1,138.000004523993,8|8
180,248,145426,2,0,B|356:32,1,276.000009047985,6|0
336,304,146185,5,2
432,104,146565,1,8
432,104,146755,1,0
320,104,146945,2,0,B|264:56|184:56|184:128|104:128|40:72,1,276.000009047985,2|2
256,192,147704,2,0,B|216:224|216:288|254:312,1,138.000004523993,2|0
160,358,148084,2,0,B|88:334|72:246|88:166|168:142,1,276.000009047985,8|2
336,304,149223,5,6
456,80,149603,1,8
456,80,149793,1,0
456,80,149983,2,0,B|144:80,1,311.999994421005,2|2
176,304,150742,2,0,B|256:336|328:304,1,155.999997210503,2|0
458,176,151122,2,0,B|380:142|306:176,1,155.999997210503,8|0
130,207,151502,1,2
