osu file format v12

[General]
AudioFilename: Oh.. no.mp3
AudioLeadIn: 500
PreviewTime: 37875
Countdown: 0
SampleSet: None
StackLeniency: 0.7
Mode: 0
LetterboxInBreaks: 0
WidescreenStoryboard: 1

[Editor]
Bookmarks: 107205,122324
DistanceSpacing: 1.2
BeatDivisor: 4
GridSize: 4
TimelineZoom: 1

[Metadata]
Title:Oh No!
TitleUnicode:Oh No!
Artist:Marina & The Diamonds
ArtistUnicode:Marina & The Diamonds
Creator:Gabe
Version:Hard
Source:
Tags:Lambrini Diamandis The Family Jewels VinylDash14 _Gezo_ Gezoda Nashmun ColdTooth Veus
BeatmapID:322704
BeatmapSetID:127109

[Difficulty]
HPDrainRate:7
CircleSize:4
OverallDifficulty:6
ApproachRate:8
SliderMultiplier:1.9
SliderTickRate:2

[Events]
//Background and Video events
Video,-2393,"Oh.. no.FLV"
0,0,"oh no.jpg",0,0
//Break Periods
2,113665,119802
//Storyboard Layer 0 (Background)
//Storyboard Layer 1 (Fail)
//Storyboard Layer 2 (Pass)
//Storyboard Layer 3 (Foreground)
//Storyboard Sound Samples
//Background Colour Transformations
3,100,163,162,255

[TimingPoints]
80,472.44094488189,4,3,1,60,1,0
7639,-100,4,1,1,60,0,0
30316,-100,4,2,1,60,0,0
31261,-100,4,1,1,30,0,0
31733,-100,4,2,1,60,0,0
32678,-100,4,1,1,30,0,0
33150,-100,4,2,1,60,0,0
34095,-100,4,1,1,30,0,0
34568,-100,4,2,1,60,0,0
35513,-100,4,1,1,30,0,0
35985,-100,4,1,1,40,0,0
36221,-100,4,1,1,50,0,0
36457,-100,4,1,1,60,0,0
36694,-100,4,1,1,70,0,0
37402,-100,4,1,1,50,0,0
37875,-100,4,1,1,70,0,1
41182,-58.8235294117647,4,1,1,60,0,1
41654,-100,4,1,1,70,0,1
52993,-100,4,1,1,60,0,0
75670,-100,4,2,1,60,0,0
76615,-100,4,1,1,30,0,0
77324,-100,4,2,1,60,0,0
78032,-100,4,1,1,30,0,0
78741,-100,4,2,1,60,0,0
79450,-100,4,1,1,30,0,0
80158,-100,4,2,1,60,0,0
80867,-100,4,1,1,30,0,0
81339,-100,4,1,1,40,0,0
81576,-100,4,1,1,50,0,0
81812,-100,4,1,1,60,0,0
82048,-100,4,1,1,70,0,0
82757,-100,4,1,1,50,0,0
83229,-100,4,1,1,70,0,1
86536,-58.8235294117647,4,1,1,60,0,1
87009,-100,4,1,1,70,0,1
97875,-100,4,1,1,60,0,0
98347,-100,4,1,1,70,0,1
101654,-58.8235294117647,4,1,1,60,0,1
102127,-100,4,1,1,70,0,1
113465,-100,4,1,1,40,0,0
130473,-100,4,1,1,70,0,1
133780,-58.8235294117647,4,1,1,60,0,1
134253,-100,4,1,1,70,0,1
145119,-100,4,1,1,60,0,0
145591,-100,4,1,1,70,0,1
148898,-58.8235294117647,4,1,1,60,0,1
149371,-100,4,1,1,70,0,1
160473,-100,4,1,1,70,0,0
160709,-100,4,1,1,60,0,1
160946,-100,4,1,1,60,0,0
164017,-58.8235294117647,4,1,1,60,0,0
164489,-100,4,1,1,60,0,0
171576,-58.8235294117647,4,1,1,60,0,0
172048,-100,4,1,1,60,0,0

[HitObjects]
256,48,7166,5,12,0:0:0:0:
256,48,7639,5,0,0:0:0:0:
256,48,8111,1,8,0:0:0:0:
256,48,8347,2,0,P|224:108|112:92,1,190
20,20,9056,1,8,0:0:0:0:
20,268,9528,5,0,0:0:0:0:
20,268,9765,2,0,L|88:336,1,95,0|8,0:0|0:0,0:0:0:0:
192,268,10237,1,0,0:0:0:0:
296,200,10473,2,0,L|364:268,1,95,0|2,0:0|0:3,0:0:0:0:
408,128,10946,2,0,L|476:196,1,95,8|2,0:0|0:3,0:0:0:0:
456,316,11418,6,0,P|384:368|272:320,1,190,0|8,0:0|0:0,0:0:0:0:
220,244,12127,2,0,P|128:219|56:271,1,190
152,348,12835,1,8,0:0:0:0:
284,136,13308,5,0,0:0:0:0:
284,136,13544,2,0,L|388:136,1,95,0|8,0:0|0:0,0:0:0:0:
492,188,14017,1,0,0:0:0:0:
379,248,14253,2,0,L|284:248,1,95,0|8,0:0|0:0,0:0:0:0:
76,192,14725,2,0,L|171:192,1,95,8|8,0:0|0:0,0:0:0:0:
172,316,15198,6,0,L|29:316,1,142.5,0|0,0:0|0:0,0:0:0:0:
29,316,15670,1,8,0:0:0:0:
76,192,15906,2,0,P|164:176|200:88,1,190
108,8,16615,1,8,0:0:0:0:
404,8,17087,5,0,0:0:0:0:
404,8,17324,2,0,P|404:64|428:96,1,95,0|8,0:0|0:0,0:0:0:0:
504,192,17796,1,0,0:0:0:0:
428,292,18032,2,0,P|397:313|341:313,1,95,0|2,0:0|0:3,0:0:0:0:
192,256,18505,2,0,P|222:234|278:234,1,95,8|2,0:0|0:3,0:0:0:0:
180,348,18977,5,0,0:0:0:0:
0,192,19450,1,8,0:0:0:0:
0,192,19686,2,0,P|76:208|136:124,1,190
144,4,20394,2,0,P|176:48|224:56,1,95,8|0,0:0|0:0,0:0:0:0:
336,32,20867,5,0,0:0:0:0:
316,152,21103,2,0,L|316:344,1,190
196,380,21812,2,0,L|96:380,1,95,0|8,0:0|0:0,0:0:0:0:
24,284,22284,1,8,0:0:0:0:
4,164,22520,1,8,0:0:0:0:
76,64,22757,6,0,L|176:64,1,95,4|0,0:0|0:0,0:0:0:0:
296,64,23229,1,8,0:0:0:0:
436,320,23702,6,0,L|336:320,1,95
216,320,24174,1,8,0:0:0:0:
296,64,24646,6,0,L|296:164,2,95,0|0|8,0:0|0:0|0:0,0:0:0:0:
216,320,25591,6,0,L|216:220,2,95,0|0|8,0:0|0:0|0:0,0:0:0:0:
132,88,26536,6,0,L|224:132,1,95,4|0,0:0|0:0,0:0:0:0:
380,88,27009,2,0,L|288:132,1,95,8|0,0:0|0:0,0:0:0:0:
132,200,27481,1,0,0:0:0:0:
256,264,27717,1,0,0:0:0:0:
380,200,27954,1,8,0:0:0:0:
256,4,28426,6,0,P|232:40|176:44,1,95
32,120,28898,2,0,P|56:84|112:80,1,95,8|0,0:0|0:0,0:0:0:0:
132,200,29371,1,0,0:0:0:0:
192,368,29607,1,8,0:0:0:0:
80,312,29843,1,8,0:0:0:0:
244,256,30080,1,8,0:0:0:0:
296,144,30316,6,0,L|396:144,1,95,0|0,1:0|0:0,0:0:0:0:
312,48,30788,2,0,L|412:48,1,95,8|0,0:0|0:0,0:0:0:0:
484,144,31261,2,0,B|460:196|504:236|476:288,1,142.5,0|0,1:0|0:0,0:0:0:0:
440,332,31733,6,0,P|396:348|336:340,1,95,8|0,0:0|0:0,0:0:0:0:
224,352,32205,2,0,L|224:252,1,95,0|0,1:0|0:0,0:0:0:0:
72,192,32678,2,0,P|120:152|224:180,1,142.5,8|0,0:0|0:0,0:0:0:0:
252,180,33150,6,0,P|300:184|340:160,1,95,0|0,1:0|0:0,0:0:0:0:
412,60,33623,2,0,P|364:56|324:80,1,95,8|0,0:0|0:0,0:0:0:0:
420,156,34095,2,0,L|420:300,1,142.5,0|0,1:0|0:0,0:0:0:0:
384,348,34568,6,0,L|284:360,1,95,8|0,0:0|0:0,0:0:0:0:
224,252,35040,2,0,L|124:264,1,95,0|0,1:0|0:0,0:0:0:0:
64,160,35513,2,0,L|248:140,1,142.5,8|0,0:0|0:0,0:0:0:0:
268,136,35985,5,0,0:0:0:0:
408,120,36221,1,0,0:0:0:0:
240,296,36457,1,0,0:0:0:0:
100,312,36694,1,0,0:0:0:0:
12,192,37402,6,2,B|24:180|24:180|32:200|32:200|44:184|44:184|52:196|52:196|64:188|64:188|80:192|80:192|120:192,1,142.5,0|0,0:0|0:0,0:0:0:0:
176,172,37875,6,0,P|196:128|188:64,1,95,4|0,0:0|0:0,0:0:0:0:
316,84,38347,2,0,P|314:129|334:173,1,95,10|0,0:0|0:0,0:0:0:0:
444,112,38820,1,0,0:0:0:0:
444,112,39056,1,0,0:0:0:0:
488,228,39292,1,10,0:0:0:0:
488,228,39528,1,2,0:0:0:0:
420,332,39765,6,0,L|324:348,1,95
160,316,40237,2,0,L|253:300,1,95,10|0,0:0|0:0,0:0:0:0:
396,208,40709,2,0,L|300:224,1,95
116,168,41182,6,2,B|124:150|149:135|174:143|192:155|209:168|231:180|247:162|260:145|273:127|294:112|322:119|336:133,1,242.250004620552,10|0,0:0|0:0,0:0:0:0:
408,128,41654,6,0,P|384:80|348:60,1,95,4|0,0:0|0:0,0:0:0:0:
248,0,42127,2,0,L|148:0,1,95,10|0,0:0|0:0,0:0:0:0:
188,104,42599,2,0,L|116:168,1,95
220,212,43072,2,0,L|220:320,2,95,10|2|0,0:0|0:0|0:0,0:0:0:0:
336,168,43780,5,0,0:0:0:0:
452,124,44017,2,0,P|453:77|444:28,1,95,10|0,0:0|0:0,0:0:0:0:
336,168,44489,2,0,P|334:214|344:264,1,95,0|8,0:0|0:0,0:0:0:0:
432,348,44961,1,10,0:0:0:0:
432,348,45198,1,10,0:0:0:0:
432,348,45434,6,0,L|320:364,1,95,4|0,0:0|0:0,0:0:0:0:
224,368,45906,1,10,0:0:0:0:
124,312,46142,1,0,0:0:0:0:
156,200,46379,2,0,L|156:104,1,95
256,48,46851,2,0,L|256:144,1,95,10|2,0:0|0:0,0:0:0:0:
360,200,47324,5,0,0:0:0:0:
360,104,47560,1,0,0:0:0:0:
360,8,47796,2,0,P|408:20|444:56,1,95,10|0,0:0|0:0,0:0:0:0:
360,200,48268,2,0,P|312:188|276:152,1,95
360,104,48741,1,10,0:0:0:0:
256,308,49213,6,0,P|168:336|88:288,1,190,6|8,0:0|0:0,0:0:0:0:
180,220,49922,1,0,0:0:0:0:
180,220,50158,2,0,L|200:28,1,190,2|8,0:0|0:0,0:0:0:0:
312,31,50867,5,0,0:0:0:0:
312,31,51103,2,0,L|332:220,1,190,2|8,0:0|0:0,0:0:0:0:
348,332,51812,5,0,0:0:0:0:
240,368,52048,2,0,L|136:368,1,95,2|8,0:0|0:0,0:0:0:0:
28,272,52520,2,0,L|132:272,1,95,10|8,0:0|0:0,0:0:0:0:
236,272,52993,5,4,0:0:0:0:
328,60,53465,1,8,0:0:0:0:
328,60,53702,2,0,P|376:136|476:148,1,190
440,40,54410,1,8,0:0:0:0:
440,344,54883,5,0,0:0:0:0:
328,324,55119,2,0,P|376:248|476:236,1,190
440,344,55828,1,0,0:0:0:0:
216,300,56064,2,0,L|112:300,1,95,2|8,0:3|0:0,0:0:0:0:
72,196,56536,2,0,L|176:196,1,95,2|0,0:3|0:0,0:0:0:0:
332,40,57245,5,8,0:0:0:0:
432,96,57481,2,0,P|360:152|252:120,1,190
179,59,58190,2,0,P|135:43|89:51,1,95,8|0,0:0|0:0,0:0:0:0:
128,160,58662,6,0,B|158:226|102:278|138:344,1,190,0|8,0:0|0:0,0:0:0:0:
373,344,59371,2,0,B|409:278|353:226|384:160,1,190,0|8,0:0|0:0,0:0:0:0:
444,64,60080,1,8,0:0:0:0:
444,64,60316,1,8,0:0:0:0:
344,12,60552,5,0,0:0:0:0:
256,84,60788,2,0,P|236:136|256:176,1,95,0|8,0:0|0:0,0:0:0:0:
324,256,61261,2,0,P|232:280|156:232,1,190
120,124,61969,1,8,0:0:0:0:
392,124,62442,5,0,0:0:0:0:
392,124,62678,2,0,L|392:228,1,95,0|8,0:0|0:0,0:0:0:0:
392,332,63150,1,0,0:0:0:0:
296,272,63387,2,0,P|248:260|204:272,1,95,0|2,0:0|0:3,0:0:0:0:
44,328,63859,2,0,P|92:340|136:328,1,95,8|2,0:0|0:3,0:0:0:0:
144,308,64213,1,0,0:0:0:0:
136,288,64331,6,0,L|136:144,1,142.5
164,96,64804,2,0,P|208:104|256:84,1,95,8|0,0:0|0:0,0:0:0:0:
272,32,65158,1,0,0:0:0:0:
396,148,65513,1,0,0:0:0:0:
396,148,65631,1,0,0:0:0:0:
396,148,65749,2,0,P|412:192|400:240,1,95,8|0,0:0|0:0,0:0:0:0:
316,316,66221,6,0,P|268:304|226:321,1,95
124,368,66694,1,8,0:0:0:0:
48,284,66930,1,0,0:0:0:0:
48,284,67048,2,0,L|48:116,1,142.5,0|8,0:0|0:0,0:0:0:0:
128,24,67639,1,8,0:0:0:0:
256,88,67875,1,8,0:0:0:0:
384,24,68111,5,4,0:0:0:0:
384,24,68347,1,0,0:0:0:0:
384,24,68583,2,0,P|396:72|412:120,1,95,8|0,0:0|0:0,0:0:0:0:
472,212,69056,1,0,0:0:0:0:
472,212,69174,1,0,0:0:0:0:
400,300,69410,1,0,0:0:0:0:
400,300,69528,2,0,P|356:314|308:326,1,95,8|0,0:0|0:0,0:0:0:0:
196,352,70001,5,0,0:0:0:0:
124,264,70237,2,0,P|109:220|97:172,2,95,0|8|0,0:0|0:0|0:0,0:0:0:0:
192,168,70946,2,0,P|216:120|220:80,1,95,0|2,0:0|0:3,0:0:0:0:
288,200,71418,2,0,P|330:166|350:132,1,95,8|2,0:0|0:3,0:0:0:0:
344,16,71891,6,0,P|412:36|464:104,1,142.5,4|0,0:0|0:0,0:0:0:0:
452,144,72363,2,0,P|436:184|448:232,1,95,8|0,0:0|0:0,0:0:0:0:
500,332,72835,1,0,0:0:0:0:
388,364,73072,2,0,L|340:372,2,47.5,0|0|8,0:0|0:0|0:0,0:0:0:0:
92,256,73780,5,0,0:0:0:0:
192,200,74017,1,0,0:0:0:0:
216,88,74253,2,0,P|221:43|249:3,1,95,8|0,0:0|0:0,0:0:0:0:
324,88,74725,2,0,P|368:93|408:121,1,95,0|8,0:0|0:0,0:0:0:0:
428,236,75198,2,0,L|440:340,1,95,8|8,0:0|0:0,0:0:0:0:
332,372,75670,5,0,1:0:0:0:
236,308,75906,1,0,0:0:0:0:
256,192,76142,1,8,0:0:0:0:
276,76,76379,1,0,0:0:0:0:
180,12,76615,2,0,P|92:32|84:120,1,190,0|8,1:0|0:0,0:0:0:0:
144,216,77324,1,0,0:0:0:0:
256,192,77560,6,0,L|376:192,1,95,0|0,1:0|0:0,0:0:0:0:
448,352,78032,2,0,L|256:352,1,190,8|0,0:0|1:0,0:0:0:0:
144,328,78741,5,0,0:0:0:0:
144,216,78977,1,8,0:0:0:0:
144,104,79213,1,0,0:0:0:0:
56,180,79450,2,0,P|144:216|228:180,1,190,0|8,1:0|0:0,0:0:0:0:
308,100,80158,5,0,0:0:0:0:
388,20,80394,2,0,L|492:20,1,95,0|0,1:0|0:0,0:0:0:0:
391,250,80867,2,0,P|312:176|308:100,1,190,8|0,0:0|0:0,0:0:0:0:
420,136,81576,5,0,0:0:0:0:
424,324,81812,1,0,0:0:0:0:
256,236,82048,1,0,0:0:0:0:
12,192,82757,6,2,B|24:180|24:180|32:200|32:200|44:184|44:184|52:196|52:196|64:188|64:188|80:192|80:192|120:192,1,142.5,0|0,0:0|0:0,0:0:0:0:
164,228,83229,6,0,P|166:270|198:310,1,95,4|0,0:0|0:0,0:0:0:0:
312,312,83702,2,0,P|344:272|346:229,1,95,10|0,0:0|0:0,0:0:0:0:
312,120,84174,1,0,0:0:0:0:
312,120,84410,1,0,0:0:0:0:
200,120,84646,1,10,0:0:0:0:
200,120,84883,1,2,0:0:0:0:
164,228,85119,6,0,L|96:316,1,95
12,240,85591,2,0,L|80:152,1,95,10|0,0:0|0:0,0:0:0:0:
260,292,86064,2,0,L|192:380,1,95
108,304,86536,6,2,B|126:306|152:293|159:267|158:245|156:225|158:200|181:196|203:194|224:192|249:182|258:155|253:136,1,242.250004620552,10|0,0:0|0:0,0:0:0:0:
256,76,87009,6,0,P|300:88|340:64,1,95,4|0,0:0|0:0,0:0:0:0:
428,136,87481,2,0,P|416:180|440:220,1,95,10|0,0:0|0:0,0:0:0:0:
500,320,87954,1,0,0:0:0:0:
500,320,88190,1,0,0:0:0:0:
400,372,88426,1,10,0:0:0:0:
400,372,88662,1,2,0:0:0:0:
288,352,88898,5,0,0:0:0:0:
208,244,89135,1,0,0:0:0:0:
304,140,89371,1,10,0:0:0:0:
224,32,89607,1,0,0:0:0:0:
132,128,89843,1,0,0:0:0:0:
304,140,90080,2,0,L|400:140,1,95,8|10,0:0|0:0,0:0:0:0:
208,244,90552,2,0,L|112:244,1,95,10|4,0:0|0:0,0:0:0:0:
24,316,91024,5,0,0:0:0:0:
124,372,91261,1,10,0:0:0:0:
232,340,91497,1,0,0:0:0:0:
336,296,91733,2,0,P|380:312|424:296,1,95
480,196,92205,2,0,L|484:76,1,95,10|2,0:0|0:0,0:0:0:0:
400,24,92678,5,0,0:0:0:0:
300,76,92914,1,0,0:0:0:0:
364,168,93150,2,0,P|336:208|296:228,1,95,10|0,0:0|0:0,0:0:0:0:
148,216,93623,2,0,P|176:176|216:156,1,95
212,308,94095,1,10,0:0:0:0:
16,192,94568,6,0,B|16:128|16:128|48:80|48:80|48:8,1,190,6|8,0:0|0:0,0:0:0:0:
172,36,95276,1,0,0:0:0:0:
172,36,95513,2,0,P|256:76|340:36,1,190,2|8,0:0|0:0,0:0:0:0:
464,11,96221,5,0,0:0:0:0:
464,11,96457,2,0,B|472:64|448:104|448:104|448:212,1,190,2|8,0:0|0:0,0:0:0:0:
384,292,97166,5,0,0:0:0:0:
304,208,97402,2,0,L|208:208,1,95,2|8,0:0|0:0,0:0:0:0:
212,92,97875,2,0,L|308:92,1,95,10|8,0:0|0:0,0:0:0:0:
428,44,98347,6,0,B|428:88|428:88|404:132,1,95,4|0,0:0|0:0,0:0:0:0:
408,248,98820,2,0,B|432:292|432:292|432:336,1,95,10|0,0:0|0:0,0:0:0:0:
324,380,99292,1,0,0:0:0:0:
324,380,99528,1,0,0:0:0:0:
256,288,99765,1,10,0:0:0:0:
256,288,100001,1,2,0:0:0:0:
192,196,100237,6,0,B|164:160|164:160|148:112,1,95
256,144,100709,2,0,L|256:48,1,95,10|0,0:0|0:0,0:0:0:0:
320,196,101182,2,0,B|348:160|348:160|364:112,1,95
504,24,101654,6,2,B|520:35|530:62|517:85|502:101|486:115|470:134|484:153|499:169|514:185|525:209|512:235|496:246,1,242.250004620552,10|0,0:0|0:0,0:0:0:0:
468,276,102127,6,0,P|428:304|416:348,1,95,4|0,0:0|0:0,0:0:0:0:
304,364,102599,2,0,L|204:364,1,95,10|0,0:0|0:0,0:0:0:0:
100,328,103072,2,0,P|60:300|47:257,1,95
76,148,103544,2,0,L|116:28,2,95,10|2|0,0:0|0:0|0:0,0:0:0:0:
180,212,104253,5,0,0:0:0:0:
256,308,104489,1,10,0:0:0:0:
332,212,104725,1,0,0:0:0:0:
436,148,104961,1,0,0:0:0:0:
376,40,105198,2,0,L|280:40,1,95,8|10,0:0|0:0,0:0:0:0:
160,64,105670,2,0,L|64:64,1,95,10|4,0:0|0:0,0:0:0:0:
12,192,106142,5,0,0:0:0:0:
124,240,106379,2,0,P|188:268|216:308,1,95,10|0,0:0|0:0,0:0:0:0:
388,240,106851,2,0,P|324:268|296:308,1,95
216,184,107324,2,0,B|245:199|256:209|256:209|266:199|295:184,1,95,10|2,0:0|0:0,0:0:0:0:
404,148,107796,5,0,0:0:0:0:
444,40,108032,1,0,0:0:0:0:
332,20,108268,2,0,B|280:24|256:69|256:69|232:24|180:20,1,190,10|0,0:0|0:0,0:0:0:0:
68,40,108977,1,0,0:0:0:0:
108,148,109213,1,10,0:0:0:0:
392,232,109686,6,0,P|364:316|296:276,1,190,2|8,0:0|0:0,0:0:0:0:
256,172,110394,1,0,0:0:0:0:
215,278,110631,2,0,P|148:316|120:232,1,190,2|8,0:0|0:0,0:0:0:0:
88,124,111339,5,0,0:0:0:0:
180,56,111576,2,0,B|256:-1|256:-1|332:56,1,190,2|8,0:0|0:0,0:0:0:0:
424,124,112284,5,0,0:0:0:0:
384,232,112520,2,0,L|304:292,1,95,2|8,0:0|0:0,0:0:0:0:
128,232,112993,2,0,L|204:289,2,95,10|8|4,0:0|0:0|0:0,0:0:0:0:
256,296,120552,5,0,0:0:0:0:
256,296,121024,2,0,P|336:320|424:256,1,190,0|8,0:0|0:0,0:0:0:0:
448,152,121733,1,0,0:0:0:0:
396,52,121969,2,0,B|328:12|256:52|192:92|120:52,1,285
12,12,122914,5,0,0:0:0:0:
12,12,123150,1,0,0:0:0:0:
152,192,123623,1,0,0:0:0:0:
152,192,123859,2,0,P|256:274|360:192,1,285
256,148,124804,5,0,0:0:0:0:
124,332,125513,1,0,0:0:0:0:
124,332,125749,2,0,P|258:378|388:332,1,285
256,192,126694,12,0,128347,0:0:0:0:
256,256,128583,6,0,P|204:276|144:256,1,95
104,176,129056,1,8,0:0:0:0:
104,176,129292,1,0,0:0:0:0:
256,128,129528,6,8,P|308:108|368:128,1,95
408,208,130001,1,4,0:0:0:0:
408,208,130473,6,0,P|384:272|328:296,1,95
256,128,130946,2,0,P|308:108|368:128,1,95,10|0,0:0|0:0,0:0:0:0:
268,288,131418,1,0,0:0:0:0:
268,288,131654,1,0,0:0:0:0:
218,212,131891,1,10,0:0:0:0:
218,212,132127,1,2,0:0:0:0:
132,136,132363,6,0,L|28:136,1,95
36,248,132835,2,0,L|140:248,1,95,10|0,0:0|0:0,0:0:0:0:
132,32,133308,2,0,L|37:32,1,95
36,352,133780,6,2,B|58:363|58:363|80:352|80:352|102:363|102:363|124:352|124:352|147:363|147:363|165:352|165:352|187:363|187:363|209:352|209:352|232:363|232:363|250:352,1,242.250004620552,10|0,0:0|0:0,0:0:0:0:
292,312,134253,6,0,P|304:264|292:220,1,95,4|0,0:0|0:0,0:0:0:0:
220,72,134725,2,0,P|208:120|220:164,1,95,10|0,0:0|0:0,0:0:0:0:
324,116,135198,1,0,0:0:0:0:
324,116,135434,1,0,0:0:0:0:
428,164,135670,1,10,0:0:0:0:
428,164,135906,1,2,0:0:0:0:
456,276,136142,6,0,L|432:380,2,95,0|0|10,0:0|0:0|0:0,0:0:0:0:
324,116,136851,2,0,L|220:92,2,95,0|0|8,0:0|0:0|0:0,0:0:0:0:
428,164,137560,1,10,0:0:0:0:
336,232,137796,1,10,0:0:0:0:
244,300,138032,6,0,L|100:300,1,142.5,4|0,0:0|0:0,0:0:0:0:
48,320,138505,2,0,P|28:272|36:224,1,95,10|0,0:0|0:0,0:0:0:0:
64,64,138977,2,0,P|84:112|76:160,2,95,0|0|10,0:0|0:0|0:0,0:0:0:0:
64,64,139686,1,2,0:0:0:0:
160,4,139922,5,0,0:0:0:0:
256,68,140158,1,0,0:0:0:0:
352,4,140394,1,10,0:0:0:0:
432,128,140631,1,0,0:0:0:0:
352,248,140867,1,0,0:0:0:0:
256,184,141103,1,0,0:0:0:0:
160,248,141339,1,10,0:0:0:0:
424,204,141812,6,0,P|432:272|332:332,1,190,6|8,0:0|0:0,0:0:0:0:
256,260,142520,1,0,0:0:0:0:
171,333,142757,2,0,P|80:272|88:204,1,190,2|8,0:0|0:0,0:0:0:0:
156,112,143465,5,0,0:0:0:0:
168,224,143702,2,0,B|256:260|256:260|344:224,1,190,2|8,0:0|0:0,0:0:0:0:
356,112,144410,5,0,0:0:0:0:
392,4,144646,2,0,P|328:0|280:36,1,95,2|8,0:0|0:0,0:0:0:0:
120,4,145119,2,0,P|184:0|210:13,1,95,10|8,0:0|0:0,0:0:0:0:
356,112,145591,6,0,L|368:208,1,95,4|0,0:0|0:0,0:0:0:0:
268,260,146064,2,0,L|256:164,1,95,10|0,0:0|0:0,0:0:0:0:
156,112,146536,1,0,0:0:0:0:
156,112,146772,1,0,0:0:0:0:
120,4,147009,1,10,0:0:0:0:
120,4,147245,1,2,0:0:0:0:
48,92,147481,6,0,L|21:192,1,95
84,292,147954,2,0,L|108:200,1,95,10|0,0:0|0:0,0:0:0:0:
220,124,148426,2,0,L|193:224,1,95,0|0,0:0|0:0,0:0:0:0:
144,368,148898,6,2,B|155:384|182:396|205:384|221:369|236:353|255:339|274:354|289:369|305:384|329:396|355:385|366:369,1,242.250004620552,10|0,0:0|0:0,0:0:0:0:
396,324,149371,6,0,P|416:284|408:232,1,95,4|0,0:0|0:0,0:0:0:0:
324,160,149843,2,0,P|304:200|312:252,1,95,10|0,0:0|0:0,0:0:0:0:
412,144,150316,1,0,0:0:0:0:
412,144,150552,1,0,0:0:0:0:
328,68,150788,1,10,0:0:0:0:
328,68,151024,1,2,0:0:0:0:
236,136,151261,5,0,0:0:0:0:
124,144,151497,1,0,0:0:0:0:
32,36,151733,1,10,0:0:0:0:
20,148,151969,1,0,0:0:0:0:
12,260,152205,2,0,L|32:360,1,95,0|8,0:0|0:0,0:0:0:0:
116,252,152678,2,0,L|136:352,1,95,10|10,0:0|0:0,0:0:0:0:
220,236,153150,6,0,L|248:380,1,142.5,4|0,0:0|0:0,0:0:0:0:
304,380,153623,2,0,P|356:384|392:352,1,95,10|0,0:0|0:0,0:0:0:0:
500,372,154095,2,0,P|504:320|472:284,1,95
368,256,154568,1,10,0:0:0:0:
368,256,154804,1,2,0:0:0:0:
318,156,155040,6,0,P|366:144|426:160,2,95,0|0|10,0:0|0:0|0:0,0:0:0:0:
256,252,155749,1,0,0:0:0:0:
194,156,155985,2,0,P|146:144|86:160,2,95,0|0|10,0:0|0:0|0:0,0:0:0:0:
368,256,156930,6,0,L|356:64,1,190,6|8,0:0|0:0,0:0:0:0:
256,8,157639,1,0,0:0:0:0:
155,66,157875,2,0,L|144:256,1,190,2|8,0:0|0:0,0:0:0:0:
60,332,158583,5,0,0:0:0:0:
172,356,158820,2,0,B|224:344|256:315|256:315|288:344|340:356,1,190,2|8,0:0|0:0,0:0:0:0:
452,332,159528,5,0,0:0:0:0:
396,232,159765,2,0,L|396:124,1,95,2|8,0:0|0:0,0:0:0:0:
508,140,160237,2,0,L|508:235,1,95,10|8,0:0|0:0,0:0:0:0:
452,332,160709,5,4,0:0:0:0:
256,216,161182,2,0,L|256:116,2,95,10|0|0,0:0|0:0|0:0,0:0:0:0:
60,332,162127,5,10,0:0:0:0:
60,332,162363,1,2,0:0:0:0:
60,332,162599,2,0,P|76:288|64:240,1,95
44,48,163072,2,0,P|28:92|38:137,1,95,10|0,0:0|0:0,0:0:0:0:
144,100,163544,1,0,0:0:0:0:
256,128,163780,1,0,0:0:0:0:
368,100,164017,6,2,B|364:136|376:160|376:160|380:168|444:304|473:193|444:80|380:216|376:224|376:224|364:248|368:284,1,323.000006160736,10|4,0:0|0:0,0:0:0:0:
144,284,164961,5,10,0:0:0:0:
76,192,165198,1,0,0:0:0:0:
144,100,165434,1,0,0:0:0:0:
368,100,165906,5,10,0:0:0:0:
260,240,166142,1,2,0:0:0:0:
436,192,166379,1,0,0:0:0:0:
260,128,166615,1,0,0:0:0:0:
364,280,166851,1,10,0:0:0:0:
368,100,167087,1,0,0:0:0:0:
280,28,167324,1,0,0:0:0:0:
172,72,167560,6,0,L|76:72,1,95,8|10,0:0|0:0,0:0:0:0:
76,184,168032,2,0,L|172:184,1,95,10|4,0:0|0:0,0:0:0:0:
364,308,168741,5,10,0:0:0:0:
256,344,168977,1,0,0:0:0:0:
148,308,169213,1,0,0:0:0:0:
148,76,169686,5,10,0:0:0:0:
256,40,169922,1,2,0:0:0:0:
364,76,170158,1,0,0:0:0:0:
256,116,170394,1,0,0:0:0:0:
148,152,170631,1,10,0:0:0:0:
256,192,170867,1,0,0:0:0:0:
364,152,171103,1,0,0:0:0:0:
348,304,171576,6,0,B|312:300|288:312|288:312|280:316|144:380|255:409|368:380|232:316|224:312|224:312|200:300|164:304,2,323.000006160736,10|6|8,0:0|0:0|0:0,0:0:0:0:
460,336,172757,1,0,0:0:0:0:
432,224,172993,2,0,L|432:32,1,190,2|8,0:0|0:0,0:0:0:0:
320,60,173702,5,0,0:0:0:0:
316,172,173938,2,0,B|300:228|256:240|256:240|212:228|196:172,1,190,2|0,0:0|0:0,0:0:0:0:
192,60,174646,5,0,0:0:0:0:
80,34,174883,2,0,L|80:224,1,190,2|6,0:0|0:0,0:0:0:0:
