osu file format v12

[General]
AudioFilename: Oh.. no.mp3
AudioLeadIn: 500
PreviewTime: 37875
Countdown: 0
SampleSet: None
StackLeniency: 0.7
Mode: 0
LetterboxInBreaks: 0
WidescreenStoryboard: 1

[Editor]
DistanceSpacing: 1
BeatDivisor: 4
GridSize: 4
TimelineZoom: 1

[Metadata]
Title:Oh No!
TitleUnicode:Oh No!
Artist:Marina & The Diamonds
ArtistUnicode:Marina & The Diamonds
Creator:Gabe
Version:Easy
Source:
Tags:Lambrini Diamandis The Family Jewels VinylDash14 _Gezo_ Gezoda Nashmun ColdTooth Veus
BeatmapID:322703
BeatmapSetID:127109

[Difficulty]
HPDrainRate:3
CircleSize:2
OverallDifficulty:2
ApproachRate:3
SliderMultiplier:1.1
SliderTickRate:2

[Events]
//Background and Video events
Video,-2393,"Oh.. no.FLV"
0,0,"oh no.jpg",0,0
//Break Periods
2,113665,119112
//Storyboard Layer 0 (Background)
//Storyboard Layer 1 (Fail)
//Storyboard Layer 2 (Pass)
//Storyboard Layer 3 (Foreground)
//Storyboard Sound Samples
//Background Colour Transformations
3,100,163,162,255

[TimingPoints]
80,472.44094488189,4,3,1,60,1,0
7639,-100,4,1,1,60,0,0
30316,-100,4,2,1,60,0,0
31261,-100,4,1,1,30,0,0
31733,-100,4,2,1,60,0,0
32678,-100,4,1,1,30,0,0
33150,-100,4,2,1,60,0,0
34095,-100,4,1,1,30,0,0
34568,-100,4,2,1,60,0,0
35513,-100,4,1,1,30,0,0
35985,-100,4,1,1,40,0,0
36221,-100,4,1,1,50,0,0
36457,-100,4,1,1,60,0,0
36694,-100,4,1,1,70,0,0
37402,-100,4,1,1,50,0,0
37875,-100,4,1,1,70,0,1
41182,-100,4,1,1,60,0,1
41654,-100,4,1,1,70,0,1
52993,-100,4,1,1,60,0,0
75670,-100,4,2,1,60,0,0
76615,-100,4,1,1,30,0,0
77324,-100,4,2,1,60,0,0
78032,-100,4,1,1,30,0,0
78741,-100,4,2,1,60,0,0
79450,-100,4,1,1,30,0,0
80158,-100,4,2,1,60,0,0
80867,-100,4,1,1,30,0,0
81339,-100,4,1,1,40,0,0
81576,-100,4,1,1,50,0,0
81812,-100,4,1,1,60,0,0
82048,-100,4,1,1,70,0,0
82757,-100,4,1,1,50,0,0
83229,-100,4,1,1,70,0,1
86536,-100,4,1,1,60,0,1
87009,-100,4,1,1,70,0,1
97875,-100,4,1,1,60,0,0
98347,-100,4,1,1,70,0,1
101654,-100,4,1,1,60,0,1
102127,-100,4,1,1,70,0,1
113465,-100,4,1,1,40,0,0
130473,-100,4,1,1,70,0,1
133780,-100,4,1,1,60,0,1
134253,-100,4,1,1,70,0,1
145119,-100,4,1,1,60,0,0
145591,-100,4,1,1,70,0,1
148898,-100,4,1,1,60,0,1
149371,-100,4,1,1,70,0,1
160473,-100,4,1,1,70,0,0
160709,-100,4,1,1,60,0,1
160946,-100,4,1,1,60,0,0

[HitObjects]
70,192,7166,5,12,0:0:0:0:
156,260,7639,6,0,B|216:252|256:293|256:293|296:252|356:260,1,220,0|0,0:0|0:0,0:0:0:0:
441,192,9056,1,8,0:0:0:0:
356,124,9528,2,0,B|296:132|256:90|256:90|216:132|156:124,2,220,0|0|0,0:0|0:0|0:0,0:0:0:0:
440,192,11891,5,8,0:0:0:0:
256,312,12835,1,8,0:0:0:0:
72,192,13780,2,0,B|125:180|125:180|178:192,1,110,8|0,0:0|0:0,0:0:0:0:
202,243,14489,2,0,B|255:254|255:254|308:243,1,110,8|8,0:0|0:0,0:0:0:0:
355,210,15198,5,0,0:0:0:0:
360,320,15670,2,0,P|255:350|152:320,1,220,8|8,0:0|0:0,0:0:0:0:
60,256,17087,2,0,P|47:203|68:152,1,110,0|8,0:0|0:0,0:0:0:0:
152,216,18032,2,0,B|208:252|256:220|256:220|304:252|360:216,1,220,0|0,0:0|0:0,0:0:0:0:
368,108,19450,6,0,P|433:136|452:274,1,220,8|8,0:0|0:0,0:0:0:0:
348,292,20867,2,0,B|320:336|255:346|255:346|192:336|164:292,1,220,0|0,0:0|0:0,0:0:0:0:
132,248,22048,2,0,L|103:188,2,55,8|8|8,0:0|0:0|0:0,0:0:0:0:
188,240,22757,5,4,0:0:0:0:
256,152,23229,1,8,0:0:0:0:
453,50,24174,1,8,0:0:0:0:
419,267,25119,1,8,0:0:0:0:
310,300,25591,2,0,L|201:300,1,110,0|8,0:0|0:0,0:0:0:0:
92,267,26536,5,4,0:0:0:0:
70,160,27009,1,8,0:0:0:0:
256,41,27954,1,8,0:0:0:0:
306,138,28426,2,0,P|256:157|205:138,2,110,0|8|0,0:0|0:0|0:0,0:0:0:0:
368,47,29843,1,8,0:0:0:0:
453,119,30316,5,0,0:0:0:0:
434,226,30788,1,8,0:0:0:0:
328,198,31261,2,0,P|293:239|306:298,2,110,0|8|0,0:0|0:0|0:0,0:0:0:0:
400,116,32678,6,0,P|352:88|296:92,1,110,8|0,0:0|0:0,0:0:0:0:
208,152,33623,1,8,0:0:0:0:
136,236,34095,2,0,P|184:264|240:260,2,110,0|8|0,0:0|0:0|0:0,0:0:0:0:
208,152,35513,1,8,0:0:0:0:
318,173,35985,6,0,L|376:184,3,55,0|0|0|0,0:0|0:0|0:0|0:0,0:0:0:0:
309,329,37402,2,2,P|256:340|202:329,1,110,0|4,0:0|0:0,0:0:0:0:
199,220,38347,5,10,0:0:0:0:
309,220,38820,1,0,0:0:0:0:
306,110,39292,2,0,B|256:132|256:132|205:110,2,110,10|0|10,0:0|0:0|0:0,0:0:0:0:
406,63,40709,1,0,0:0:0:0:
447,163,41182,2,2,B|431:182|469:217|431:251|447:273,1,110,10|4,0:0|0:0,0:0:0:0:
340,304,42127,6,0,P|290:323|240:304,1,110,10|0,0:0|0:0,0:0:0:0:
183,210,43072,2,0,L|124:210,2,55,10|2|0,0:0|0:0|0:0,0:0:0:0:
292,232,44017,1,10,0:0:0:0:
352,140,44489,2,0,P|346:87|306:46,1,110,0|10,0:0|0:0,0:0:0:0:
256,68,45198,1,10,0:0:0:0:
203,47,45434,6,0,P|166:86|160:140,1,110,4|10,0:0|0:0,0:0:0:0:
256,192,46379,2,0,L|256:248,2,55,0|0|10,0:0|0:0|0:0,0:0:0:0:
352,136,47324,2,0,P|345:82|308:43,2,110,0|10|0,0:0|0:0|0:0,0:0:0:0:
256,192,48741,1,10,0:0:0:0:
144,184,49213,6,0,P|120:256|216:352,1,220,6|2,0:0|0:0,0:0:0:0:
367,183,51103,2,0,P|385:287|302:351,2,220,2|2|4,0:0|0:0|0:0,0:0:0:0:
336,77,53465,6,0,B|320:129|256:144|256:144|192:129|176:77,1,220,8|8,0:0|0:0,0:0:0:0:
118,173,54883,2,0,B|146:213|206:236|206:236|152:258|118:299,2,220,0|0|0,0:0|0:0|0:0,0:0:0:0:
176,77,57245,6,0,B|192:129|256:144|256:144|320:129|336:77,1,220,8|8,0:0|0:0,0:0:0:0:
394,173,58662,2,0,B|366:213|306:236|306:236|360:258|394:299,2,220,0|0|0,0:0|0:0|0:0,0:0:0:0:
425,67,61024,6,0,B|315:67|315:67|262:89|208:67,1,220,8|8,0:0|0:0,0:0:0:0:
105,29,62442,2,0,B|91:85|121:134|121:134|139:242,1,220,0|0,0:0|0:0,0:0:0:0:
221,317,63859,1,8,0:0:0:0:
328,289,64331,6,0,L|378:321,2,55,0|0|8,0:0|0:0|0:0,0:0:0:0:
246,214,65276,1,0,0:0:0:0:
256,104,65749,1,8,0:0:0:0:
352,52,66221,2,0,B|377:106|348:161|348:161|412:162|437:209,2,220,0|0|4,0:0|0:0|0:0,0:0:0:0:
256,104,68583,6,0,P|260:209|351:264,1,220,8|8,0:0|0:0,0:0:0:0:
453,230,70001,1,0,0:0:0:0:
456,123,70473,1,8,0:0:0:0:
256,32,71418,1,8,0:0:0:0:
205,129,71891,6,0,P|256:148|306:129,2,110,4|8|0,0:0|0:0|0:0,0:0:0:0:
96,108,73308,1,8,0:0:0:0:
153,204,73780,2,0,P|255:237|359:204,1,220,0|0,0:0|0:0,0:0:0:0:
416,108,75198,1,8,0:0:0:0:
492,188,75670,5,0,0:0:0:0:
436,284,76142,1,8,0:0:0:0:
324,288,76615,2,0,P|290:328|248:371,2,110,0|8|0,0:0|0:0|0:0,0:0:0:0:
376,192,78032,6,0,P|336:153|294:117,1,110,8|0,0:0|0:0,0:0:0:0:
204,52,78977,1,8,0:0:0:0:
132,132,79450,2,0,P|97:173|88:232,2,110,0|8|0,0:0|0:0|0:0,0:0:0:0:
220,200,80867,1,8,0:0:0:0:
308,264,81339,6,0,L|365:271,3,55,0|0|0|0,0:0|0:0|0:0|0:0,0:0:0:0:
440,124,82757,2,2,P|395:94|364:48,1,110,0|4,0:0|0:0,0:0:0:0:
256,24,83702,5,10,0:0:0:0:
148,48,84174,1,0,0:0:0:0:
76,132,84646,2,0,B|98:151|101:180|101:180|98:208|76:227,2,110,10|0|10,0:0|0:0|0:0,0:0:0:0:
148,48,86064,1,0,0:0:0:0:
200,144,86536,2,2,B|220:159|254:121|289:159|308:143,1,110,10|4,0:0|0:0,0:0:0:0:
404,92,87481,6,0,P|423:142|404:193,1,110,10|0,0:0|0:0,0:0:0:0:
352,292,88426,2,0,L|396:329,2,55,10|0|0,0:0|0:0|0:0,0:0:0:0:
256,240,89371,1,10,0:0:0:0:
204,144,89843,2,0,P|210:91|204:24,1,110,0|10,0:0|0:0,0:0:0:0:
256,12,90552,1,10,0:0:0:0:
306,34,90788,6,0,P|301:89|308:144,1,110,4|10,0:0|0:0,0:0:0:0:
256,240,91733,2,0,L|256:296,2,55,0|0|10,0:0|0:0|0:0,0:0:0:0:
204,144,92678,2,0,P|150:151|111:188,2,110,0|10|0,0:0|0:0|0:0,0:0:0:0:
308,144,94095,1,10,0:0:0:0:
396,208,94568,6,0,B|368:260|400:312|400:312|360:356|292:332,1,220,6|2,0:0|0:0,0:0:0:0:
116,208,96457,2,0,B|144:260|112:312|112:312|152:356|220:332,2,220,2|2|4,0:0|0:0|0:0,0:0:0:0:
28,140,98820,5,10,0:0:0:0:
128,92,99292,1,0,0:0:0:0:
232,52,99765,2,0,P|289:39|339:58,2,110,10|0|10,0:0|0:0|0:0,0:0:0:0:
216,160,101182,1,0,0:0:0:0:
200,268,101654,2,2,B|219:283|254:243|288:283|307:268,1,110,10|4,0:0|0:0,0:0:0:0:
336,160,102599,6,0,P|386:177|413:224,1,110,10|0,0:0|0:0,0:0:0:0:
396,332,103544,2,0,L|408:388,2,55,10|2|0,0:0|0:0|0:0,0:0:0:0:
308,268,104489,1,10,0:0:0:0:
204,300,104961,2,0,B|166:256|166:256|116:241,1,110,0|10,0:0|0:0,0:0:0:0:
91,193,105670,1,10,0:0:0:0:
116,146,105906,6,0,B|166:131|166:131|204:87,1,110,4|10,0:0|0:0,0:0:0:0:
296,32,106851,2,0,L|362:-1,2,55,0|0|10,0:0|0:0|0:0,0:0:0:0:
292,140,107796,1,0,0:0:0:0:
352,232,108268,1,10,0:0:0:0:
404,136,108741,1,0,0:0:0:0:
292,140,109213,1,10,0:0:0:0:
184,164,109686,6,0,P|144:252|212:344,1,220,6|2,0:0|0:0,0:0:0:0:
328,164,111576,2,0,P|368:252|300:344,2,220,2|2|4,0:0|0:0|0:0,0:0:0:0:
256,57,120552,5,0,0:0:0:0:
362,87,121024,2,0,B|328:136|362:193|396:250|362:298,1,220,0|0,0:0|0:0,0:0:0:0:
148,298,122914,6,0,B|113:250|148:193|182:136|148:87,2,220,0|0|0,0:0|0:0|0:0,0:0:0:0:
340,192,125749,1,0,0:0:0:0:
256,192,126694,12,0,128583,0:0:0:0:
256,314,130473,5,4,0:0:0:0:
199,220,130946,1,10,0:0:0:0:
309,220,131418,1,0,0:0:0:0:
306,110,131891,2,0,B|256:88|256:88|205:110,2,110,10|0|10,0:0|0:0|0:0,0:0:0:0:
381,192,133308,1,0,0:0:0:0:
362,298,133780,2,2,B|343:314|309:276|274:314|252:298,1,110,10|4,0:0|0:0,0:0:0:0:
149,270,134725,6,0,P|102:243|84:192,1,110,10|0,0:0|0:0,0:0:0:0:
121,88,135670,2,0,L|83:41,2,55,10|0|0,0:0|0:0|0:0,0:0:0:0:
183,176,136615,1,10,0:0:0:0:
274,239,137087,2,0,P|321:264|368:239,1,110,0|10,0:0|0:0,0:0:0:0:
397,192,137796,1,10,0:0:0:0:
368,143,138032,6,0,P|321:119|274:144,1,110,4|10,0:0|0:0,0:0:0:0:
174,188,138977,2,0,L|118:188,2,55,0|0|10,0:0|0:0|0:0,0:0:0:0:
256,260,139922,2,0,L|375:260,2,110,0|10|0,0:0|0:0|0:0,0:0:0:0:
174,188,141339,1,10,0:0:0:0:
64,204,141812,6,0,B|55:119|139:82|139:82|215:91,1,220,6|2,0:0|0:0,0:0:0:0:
447,204,143702,2,0,B|456:119|372:82|372:82|296:91,2,220,2|2|4,0:0|0:0|0:0,0:0:0:0:
384,295,146064,5,10,0:0:0:0:
274,286,146536,1,0,0:0:0:0:
224,188,147009,2,0,B|274:166|274:166|324:188,2,110,10|0|10,0:0|0:0|0:0,0:0:0:0:
146,267,148426,1,0,0:0:0:0:
64,192,148898,2,2,B|49:173|86:138|49:104|64:82,1,110,10|4,0:0|0:0,0:0:0:0:
171,60,149843,6,0,P|221:41|271:60,1,110,10|0,0:0|0:0,0:0:0:0:
334,151,150788,2,0,L|393:151,2,55,10|0|0,0:0|0:0|0:0,0:0:0:0:
224,148,151733,1,10,0:0:0:0:
149,229,152205,2,0,P|155:282|205:301,1,110,0|10,0:0|0:0,0:0:0:0:
256,289,152914,1,10,0:0:0:0:
309,302,153150,6,0,P|356:282|362:229,1,110,4|10,0:0|0:0,0:0:0:0:
390,123,154095,2,0,L|428:63,2,55,0|0|10,0:0|0:0|0:0,0:0:0:0:
293,173,155040,1,0,0:0:0:0:
202,110,155513,1,10,0:0:0:0:
299,63,155985,1,0,0:0:0:0:
293,173,156457,1,10,0:0:0:0:
256,276,156930,6,0,P|199:295|99:192,1,220,6|2,0:0|0:0,0:0:0:0:
256,107,158820,2,0,P|312:88|412:192,2,220,2|2|4,0:0|0:0|0:0,0:0:0:0:
256,326,161654,5,0,0:0:0:0:
80,192,162599,2,0,L|55:85,2,110,0|10|0,0:0|0:0|0:0,0:0:0:0:
149,282,164017,1,10,0:0:0:0:
256,326,164489,5,4,0:0:0:0:
431,192,165434,1,0,0:0:0:0:
256,57,166379,2,0,L|256:173,2,110,0|10|0,0:0|0:0|0:0,0:0:0:0:
152,24,167796,2,0,L|92:24,2,55,10|10|4,0:0|0:0|0:0,0:0:0:0:
256,56,168741,5,10,0:0:0:0:
360,24,169213,2,0,L|480:24,1,110,0|10,0:0|0:0,0:0:0:0:
496,72,169922,1,0,0:0:0:0:
472,120,170158,2,0,L|472:232,2,110,0|10|0,0:0|0:0|0:0,0:0:0:0:
364,140,171576,1,10,0:0:0:0:
264,184,172048,6,0,P|176:240|76:200,1,220,6|2,0:0|0:0,0:0:0:0:
164,132,173465,2,0,L|188:352,2,220,8|0|6,0:0|0:0|0:0,0:0:0:0:
