osu file format v12

[General]
AudioFilename: Oh.. no.mp3
AudioLeadIn: 500
PreviewTime: 37875
Countdown: 0
SampleSet: Normal
StackLeniency: 0.7
Mode: 1
LetterboxInBreaks: 0
WidescreenStoryboard: 1

[Editor]
Bookmarks: 80,7639,22757,26536,30316,37875,45434,52993,60552,68111,75670,83229,90788,98347,105906,113465,130473,138032,145591,153150,160709,168268,175828
DistanceSpacing: 0.5
BeatDivisor: 4
GridSize: 32
TimelineZoom: 2.5

[Metadata]
Title:Oh No!
TitleUnicode:Oh No!
Artist:Marina & The Diamonds
ArtistUnicode:Marina & The Diamonds
Creator:Gabe
Version:Collab Oni
Source:
Tags:Lambrini Diamandis The Family Jewels VinylDash14 _Gezo_ Gezoda Nashmun ColdTooth Veus
BeatmapID:354503
BeatmapSetID:127109

[Difficulty]
HPDrainRate:5
CircleSize:2
OverallDifficulty:5
ApproachRate:10
SliderMultiplier:1.4
SliderTickRate:1

[Events]
//Background and Video events
0,0,"oh no.jpg",0,0
//Break Periods
//Storyboard Layer 0 (Background)
//Storyboard Layer 1 (Fail)
//Storyboard Layer 2 (Pass)
//Storyboard Layer 3 (Foreground)
Sprite,Foreground,Centre,"g.png",320,240 M,0,80,,530,400 F,0,80,552,0,1 F,0,7639,7739,1,0 F,0,22757,22857,0,1 F,0,26536,26636,1,0 F,0,30316,30416,0,1 F,0,37875,37975,1,0 F,0,45434,45534,0,1 F,0,52993,53093,1,0 F,0,60552,60662,0,1 F,0,68111,68211,1,0 F,0,75670,75770,0,1 F,0,83229,83329,1,0 F,0,90788,90888,0,1 F,0,98347,98447,1,0 F,0,105906,106006,0,1 F,0,113465,113565,1,0 F,0,130473,130573,0,1 F,0,138032,138132,1,0 F,0,145591,145691,0,1 F,0,153150,153250,1,0 F,0,160709,160809,0,1 F,0,168268,168368,1,0
Sprite,Foreground,Centre,"n.png",320,240 M,0,7639,,440,400 F,0,7639,7739,0,1 F,0,22757,22857,1,0 F,0,26536,26636,0,1 F,0,30316,30416,1,0 F,0,37875,37975,0,1 F,0,45434,45534,1,0 F,0,52993,53093,0,1 F,0,60552,60662,1,0 F,0,68111,68211,0,1 F,0,75670,75770,1,0 F,0,83229,83329,0,1 F,0,90788,90888,1,0 F,0,98347,98447,0,1 F,0,105906,106006,1,0 F,0,113465,113565,0,1 F,0,130473,130573,1,0 F,0,138032,138132,0,1 F,0,145591,145691,1,0 F,0,153150,153250,0,1 F,0,160709,160809,1,0 F,0,168268,168368,0,1 F,0,175828,176772,1,0
//Storyboard Sound Samples
//Background Colour Transformations
3,100,163,162,255

[TimingPoints]
80,472.44094488189,4,1,0,80,1,0
37875,-100,4,1,0,80,0,1
52993,-100,4,1,0,80,0,0
83229,-100,4,1,0,80,0,1
113465,-100,4,1,0,80,0,0
130473,-100,4,1,0,80,0,1
160709,-100,4,1,0,80,0,0

[HitObjects]
192,128,80,5,0,0:0:0:0:
192,128,552,1,8,0:0:0:0:
192,128,788,1,0,0:0:0:0:
192,128,1261,1,0,0:0:0:0:
192,128,1497,1,8,0:0:0:0:
192,128,1969,1,0,0:0:0:0:
192,128,2205,1,0,0:0:0:0:
192,128,2442,1,8,0:0:0:0:
192,128,2678,1,0,0:0:0:0:
192,128,2914,1,0,0:0:0:0:
192,128,3387,1,8,0:0:0:0:
192,128,3859,1,0,0:0:0:0:
192,128,4331,1,8,0:0:0:0:
192,128,4568,1,0,0:0:0:0:
192,128,5040,1,0,0:0:0:0:
192,128,5276,1,8,0:0:0:0:
192,128,5749,1,0,0:0:0:0:
192,128,5985,1,0,0:0:0:0:
192,128,6221,1,8,0:0:0:0:
192,128,6457,1,0,0:0:0:0:
192,128,6694,1,0,0:0:0:0:
192,128,6930,1,0,0:0:0:0:
192,128,7166,1,12,0:0:0:0:
256,192,7639,1,0,0:0:0:0:
256,192,7993,1,0,0:0:0:0:
256,192,8111,1,8,0:0:0:0:
256,192,8347,1,0,0:0:0:0:
256,192,8583,1,0,0:0:0:0:
256,192,9056,1,8,0:0:0:0:
256,192,9528,1,0,0:0:0:0:
256,192,9765,1,0,0:0:0:0:
256,192,9883,1,0,0:0:0:0:
256,192,10001,1,8,0:0:0:0:
256,192,10237,1,0,0:0:0:0:
256,192,10473,1,0,0:0:0:0:
256,192,10946,1,8,0:0:0:0:
256,192,11418,1,0,0:0:0:0:
256,192,11772,1,0,0:0:0:0:
256,192,11891,1,8,0:0:0:0:
256,192,12127,1,0,0:0:0:0:
256,192,12363,1,0,0:0:0:0:
256,192,12835,1,8,0:0:0:0:
256,192,13308,1,0,0:0:0:0:
256,192,13426,1,0,0:0:0:0:
256,192,13544,1,0,0:0:0:0:
256,192,13780,1,8,0:0:0:0:
256,192,14017,1,0,0:0:0:0:
256,192,14253,1,0,0:0:0:0:
256,192,14489,1,8,0:0:0:0:
256,192,14725,1,8,0:0:0:0:
256,192,14961,1,8,0:0:0:0:
256,192,15198,1,0,0:0:0:0:
256,192,15552,1,0,0:0:0:0:
256,192,15670,1,8,0:0:0:0:
256,192,15906,1,0,0:0:0:0:
256,192,16142,1,0,0:0:0:0:
256,192,16379,1,8,0:0:0:0:
256,192,16615,1,8,0:0:0:0:
256,192,17087,1,0,0:0:0:0:
256,192,17324,1,0,0:0:0:0:
256,192,17442,1,0,0:0:0:0:
256,192,17560,1,8,0:0:0:0:
256,192,17796,1,0,0:0:0:0:
256,192,18032,1,0,0:0:0:0:
256,192,18268,1,8,0:0:0:0:
256,192,18505,1,8,0:0:0:0:
256,192,18741,1,8,0:0:0:0:
256,192,18977,1,0,0:0:0:0:
256,192,19331,1,0,0:0:0:0:
256,192,19450,1,8,0:0:0:0:
256,192,19686,1,0,0:0:0:0:
256,192,19922,1,0,0:0:0:0:
256,192,20394,1,8,0:0:0:0:
256,192,20867,1,0,0:0:0:0:
256,192,20985,1,0,0:0:0:0:
256,192,21103,1,0,0:0:0:0:
256,192,21339,1,8,0:0:0:0:
256,192,21576,1,0,0:0:0:0:
256,192,21812,1,0,0:0:0:0:
256,192,22048,1,12,0:0:0:0:
256,192,22284,1,12,0:0:0:0:
256,192,22520,5,12,0:0:0:0:
192,128,22757,5,0,0:0:0:0:
192,128,22993,1,0,0:0:0:0:
192,128,23229,1,8,0:0:0:0:
192,128,23465,1,0,0:0:0:0:
192,128,23583,1,0,0:0:0:0:
192,128,23702,1,0,0:0:0:0:
192,128,23938,1,0,0:0:0:0:
192,128,24174,1,8,0:0:0:0:
192,128,24410,1,0,0:0:0:0:
192,128,24646,1,8,0:0:0:0:
192,128,24765,1,8,0:0:0:0:
192,128,24883,1,0,0:0:0:0:
192,128,25119,1,8,0:0:0:0:
192,128,25355,1,0,0:0:0:0:
192,128,25473,1,0,0:0:0:0:
192,128,25591,1,8,0:0:0:0:
192,128,25709,1,8,0:0:0:0:
192,128,25828,1,0,0:0:0:0:
192,128,26064,1,8,0:0:0:0:
256,192,26536,1,0,0:0:0:0:
256,192,26654,1,0,0:0:0:0:
256,192,26772,1,8,0:0:0:0:
256,192,27009,1,8,0:0:0:0:
256,192,27245,1,0,0:0:0:0:
256,192,27481,1,0,0:0:0:0:
256,192,27599,1,0,0:0:0:0:
256,192,27717,1,0,0:0:0:0:
256,192,27954,1,8,0:0:0:0:
256,192,28426,1,0,0:0:0:0:
256,192,28662,1,0,0:0:0:0:
256,192,28780,1,0,0:0:0:0:
256,192,28898,1,8,0:0:0:0:
256,192,29135,1,0,0:0:0:0:
256,192,29371,1,0,0:0:0:0:
256,192,29607,1,12,0:0:0:0:
256,192,29843,1,12,0:0:0:0:
256,192,30080,1,12,0:0:0:0:
288,224,30316,1,0,0:0:0:0:
288,224,30434,1,0,0:0:0:0:
288,224,30552,1,8,0:0:0:0:
288,224,30788,1,8,0:0:0:0:
288,224,31024,1,0,0:0:0:0:
288,224,31261,1,8,0:0:0:0:
288,224,31497,1,0,0:0:0:0:
288,224,31733,1,8,0:0:0:0:
288,224,31851,1,8,0:0:0:0:
288,224,31969,1,0,0:0:0:0:
288,224,32205,1,8,0:0:0:0:
288,224,32442,1,0,0:0:0:0:
288,224,32678,1,8,0:0:0:0:
288,224,32914,1,0,0:0:0:0:
288,224,33150,1,0,0:0:0:0:
288,224,33268,1,0,0:0:0:0:
288,224,33387,1,8,0:0:0:0:
288,224,33623,1,8,0:0:0:0:
288,224,33859,1,0,0:0:0:0:
288,224,34095,1,8,0:0:0:0:
288,224,34331,1,0,0:0:0:0:
288,224,34568,1,8,0:0:0:0:
288,224,34686,1,8,0:0:0:0:
288,224,34804,1,0,0:0:0:0:
288,224,35040,1,8,0:0:0:0:
288,224,35276,1,0,0:0:0:0:
288,224,35513,1,8,0:0:0:0:
288,224,35749,1,0,0:0:0:0:
288,224,35985,1,4,0:0:0:0:
288,224,36221,1,4,0:0:0:0:
288,224,36457,1,4,0:0:0:0:
288,224,36694,1,4,0:0:0:0:
288,224,37402,1,12,0:0:0:0:
256,192,37875,1,4,0:0:0:0:
256,192,38111,1,0,0:0:0:0:
256,192,38229,1,0,0:0:0:0:
256,192,38347,1,8,0:0:0:0:
256,192,38583,1,0,0:0:0:0:
256,192,38820,1,0,0:0:0:0:
256,192,39056,1,8,0:0:0:0:
256,192,39174,1,8,0:0:0:0:
256,192,39292,1,0,0:0:0:0:
256,192,39528,1,8,0:0:0:0:
256,192,39765,1,0,0:0:0:0:
256,192,39883,1,8,0:0:0:0:
256,192,40001,1,8,0:0:0:0:
256,192,40119,1,8,0:0:0:0:
256,192,40237,1,0,0:0:0:0:
256,192,40473,1,8,0:0:0:0:
256,192,40709,1,0,0:0:0:0:
256,192,40946,1,0,0:0:0:0:
256,192,41064,1,0,0:0:0:0:
256,192,41182,1,8,0:0:0:0:
256,192,41654,1,4,0:0:0:0:
256,192,41891,1,0,0:0:0:0:
256,192,42009,1,0,0:0:0:0:
256,192,42127,1,8,0:0:0:0:
256,192,42363,1,0,0:0:0:0:
256,192,42599,1,0,0:0:0:0:
256,192,42835,1,0,0:0:0:0:
256,192,42954,1,0,0:0:0:0:
256,192,43072,1,8,0:0:0:0:
256,192,43308,1,8,0:0:0:0:
256,192,43544,1,0,0:0:0:0:
256,192,43662,1,0,0:0:0:0:
256,192,43780,1,8,0:0:0:0:
256,192,43898,1,0,0:0:0:0:
256,192,44017,1,8,0:0:0:0:
256,192,44253,1,0,0:0:0:0:
256,192,44371,1,8,0:0:0:0:
256,192,44489,1,8,0:0:0:0:
256,192,44607,1,0,0:0:0:0:
256,192,44725,1,8,0:0:0:0:
256,192,44961,1,8,0:0:0:0:
256,192,45198,1,8,0:0:0:0:
128,64,45434,5,0,0:0:0:0:
128,64,45670,1,8,0:0:0:0:
128,64,45788,1,0,0:0:0:0:
128,64,45906,1,8,0:0:0:0:
128,64,46142,1,0,0:0:0:0:
128,64,46379,1,8,0:0:0:0:
128,64,46615,1,0,0:0:0:0:
128,64,46733,1,0,0:0:0:0:
128,64,46851,1,8,0:0:0:0:
128,64,47087,1,0,0:0:0:0:
128,64,47324,1,8,0:0:0:0:
128,64,47560,1,0,0:0:0:0:
128,64,47796,1,8,0:0:0:0:
128,64,47914,1,8,0:0:0:0:
128,64,48032,1,0,0:0:0:0:
128,64,48150,1,8,0:0:0:0:
128,64,48268,1,0,0:0:0:0:
128,64,48505,1,8,0:0:0:0:
128,64,48741,1,8,0:0:0:0:
128,64,48977,1,0,0:0:0:0:
128,64,49213,1,4,0:0:0:0:
128,64,49450,1,8,0:0:0:0:
128,64,49568,1,0,0:0:0:0:
128,64,49686,1,8,0:0:0:0:
128,64,49922,1,0,0:0:0:0:
128,64,50158,1,4,0:0:0:0:
128,64,50394,1,8,0:0:0:0:
128,64,50513,1,8,0:0:0:0:
128,64,50631,1,8,0:0:0:0:
128,64,50867,1,0,0:0:0:0:
128,64,51103,1,4,0:0:0:0:
128,64,51576,1,8,0:0:0:0:
128,64,51812,1,0,0:0:0:0:
128,64,52048,1,0,0:0:0:0:
128,64,52284,1,0,0:0:0:0:
128,64,52402,1,0,0:0:0:0:
128,64,52520,1,8,0:0:0:0:
128,64,52757,1,8,0:0:0:0:
256,192,52993,1,0,0:0:0:0:
256,192,53347,1,0,0:0:0:0:
256,192,53465,1,8,0:0:0:0:
256,192,53701,1,0,0:0:0:0:
256,192,53937,1,0,0:0:0:0:
256,192,54174,1,8,0:0:0:0:
256,192,54410,1,8,0:0:0:0:
256,192,54882,1,0,0:0:0:0:
256,192,55119,1,0,0:0:0:0:
256,192,55237,1,0,0:0:0:0:
256,192,55355,1,8,0:0:0:0:
256,192,55591,1,0,0:0:0:0:
256,192,55827,1,0,0:0:0:0:
256,192,56300,1,8,0:0:0:0:
256,192,56772,1,0,0:0:0:0:
256,192,57126,1,0,0:0:0:0:
256,192,57245,1,8,0:0:0:0:
256,192,57481,1,0,0:0:0:0:
256,192,57717,1,0,0:0:0:0:
256,192,57954,1,8,0:0:0:0:
256,192,58189,1,8,0:0:0:0:
256,192,58662,1,0,0:0:0:0:
256,192,58780,1,0,0:0:0:0:
256,192,58898,1,0,0:0:0:0:
256,192,59134,1,8,0:0:0:0:
256,192,59371,1,0,0:0:0:0:
256,192,59607,1,0,0:0:0:0:
256,192,59843,1,8,0:0:0:0:
256,192,60079,1,8,0:0:0:0:
256,192,60315,5,8,0:0:0:0:
288,224,60552,5,0,0:0:0:0:
288,224,60788,1,0,0:0:0:0:
288,224,60906,1,0,0:0:0:0:
288,224,61024,1,8,0:0:0:0:
288,224,61261,1,0,0:0:0:0:
288,224,61733,1,0,0:0:0:0:
288,224,61969,1,8,0:0:0:0:
288,224,62205,1,0,0:0:0:0:
288,224,62442,1,0,0:0:0:0:
288,224,62560,1,0,0:0:0:0:
288,224,62678,1,0,0:0:0:0:
288,224,62914,1,8,0:0:0:0:
288,224,63150,1,0,0:0:0:0:
288,224,63623,1,0,0:0:0:0:
288,224,63741,1,0,0:0:0:0:
288,224,63859,1,8,0:0:0:0:
288,224,64095,1,8,0:0:0:0:
288,224,64331,1,0,0:0:0:0:
288,224,64568,1,0,0:0:0:0:
288,224,64686,1,0,0:0:0:0:
288,224,64804,1,8,0:0:0:0:
288,224,65040,1,8,0:0:0:0:
288,224,65158,1,0,0:0:0:0:
288,224,65394,1,0,0:0:0:0:
288,224,65513,1,8,0:0:0:0:
288,224,65749,1,8,0:0:0:0:
288,224,65985,1,0,0:0:0:0:
288,224,66221,1,0,0:0:0:0:
288,224,66457,1,0,0:0:0:0:
288,224,66694,1,8,0:0:0:0:
288,224,66930,1,8,0:0:0:0:
288,224,67048,1,0,0:0:0:0:
288,224,67284,1,0,0:0:0:0:
288,224,67402,1,8,0:0:0:0:
288,224,67639,1,8,0:0:0:0:
288,224,67875,1,8,0:0:0:0:
256,192,68111,1,4,0:0:0:0:
256,192,68347,1,0,0:0:0:0:
256,192,68583,1,8,0:0:0:0:
256,192,68820,1,8,0:0:0:0:
256,192,68938,1,8,0:0:0:0:
256,192,69056,1,0,0:0:0:0:
256,192,69292,1,8,0:0:0:0:
256,192,69528,1,8,0:0:0:0:
256,192,69765,1,0,0:0:0:0:
256,192,70001,1,0,0:0:0:0:
256,192,70119,1,0,0:0:0:0:
256,192,70237,1,8,0:0:0:0:
256,192,70355,1,0,0:0:0:0:
256,192,70473,1,8,0:0:0:0:
256,192,70709,1,0,0:0:0:0:
256,192,70946,1,0,0:0:0:0:
256,192,71182,1,0,0:0:0:0:
256,192,71300,1,8,0:0:0:0:
256,192,71418,1,8,0:0:0:0:
256,192,71536,1,0,0:0:0:0:
256,192,71772,1,8,0:0:0:0:
256,192,71891,1,0,0:0:0:0:
256,192,72127,1,0,0:0:0:0:
256,192,72363,1,8,0:0:0:0:
256,192,72599,1,8,0:0:0:0:
256,192,72835,1,0,0:0:0:0:
256,192,73072,1,0,0:0:0:0:
256,192,73190,1,8,0:0:0:0:
256,192,73426,1,8,0:0:0:0:
256,192,73544,1,0,0:0:0:0:
256,192,73780,1,0,0:0:0:0:
256,192,74017,1,0,0:0:0:0:
256,192,74253,1,8,0:0:0:0:
256,192,74489,1,8,0:0:0:0:
256,192,74607,1,8,0:0:0:0:
256,192,74725,1,0,0:0:0:0:
256,192,74843,1,0,0:0:0:0:
256,192,74961,1,8,0:0:0:0:
256,192,75198,1,8,0:0:0:0:
256,192,75434,1,8,0:0:0:0:
128,64,75670,5,0,0:0:0:0:
128,64,75906,1,0,0:0:0:0:
128,64,76024,1,0,0:0:0:0:
128,64,76142,1,8,0:0:0:0:
128,64,76379,1,0,0:0:0:0:
128,64,76615,1,8,0:0:0:0:
128,64,77087,1,8,0:0:0:0:
128,64,77324,1,0,0:0:0:0:
128,64,77442,1,0,0:0:0:0:
128,64,77560,1,8,0:0:0:0:
128,64,77796,1,0,0:0:0:0:
128,64,78032,1,8,0:0:0:0:
128,64,78268,1,0,0:0:0:0:
128,64,78505,1,8,0:0:0:0:
128,64,78623,1,8,0:0:0:0:
128,64,78741,1,0,0:0:0:0:
128,64,78859,1,0,0:0:0:0:
128,64,78977,1,8,0:0:0:0:
128,64,79213,1,0,0:0:0:0:
128,64,79450,1,8,0:0:0:0:
128,64,79686,1,0,0:0:0:0:
128,64,79804,1,0,0:0:0:0:
128,64,79922,1,8,0:0:0:0:
128,64,80158,1,0,0:0:0:0:
128,64,80394,1,8,0:0:0:0:
128,64,80631,1,0,0:0:0:0:
128,64,80867,1,8,0:0:0:0:
128,64,81103,1,0,0:0:0:0:
128,64,81339,1,12,0:0:0:0:
128,64,81576,1,4,0:0:0:0:
128,64,81812,1,4,0:0:0:0:
128,64,82048,1,12,0:0:0:0:
128,64,82757,1,12,0:0:0:0:
256,192,83229,1,4,0:0:0:0:
256,192,83465,1,0,0:0:0:0:
256,192,83583,1,0,0:0:0:0:
256,192,83701,1,8,0:0:0:0:
256,192,83937,1,0,0:0:0:0:
256,192,84174,1,0,0:0:0:0:
256,192,84410,1,8,0:0:0:0:
256,192,84528,1,8,0:0:0:0:
256,192,84646,1,8,0:0:0:0:
256,192,84882,1,8,0:0:0:0:
256,192,85119,1,0,0:0:0:0:
256,192,85237,1,0,0:0:0:0:
256,192,85355,1,8,0:0:0:0:
256,192,85473,1,0,0:0:0:0:
256,192,85591,1,8,0:0:0:0:
256,192,85827,1,0,0:0:0:0:
256,192,86063,1,8,0:0:0:0:
256,192,86300,1,0,0:0:0:0:
256,192,86418,1,0,0:0:0:0:
256,192,86536,1,8,0:0:0:0:
256,192,87009,1,4,0:0:0:0:
256,192,87246,1,0,0:0:0:0:
256,192,87364,1,0,0:0:0:0:
256,192,87482,1,8,0:0:0:0:
256,192,87718,1,0,0:0:0:0:
256,192,87954,1,0,0:0:0:0:
256,192,88190,1,0,0:0:0:0:
256,192,88309,1,0,0:0:0:0:
256,192,88427,1,8,0:0:0:0:
256,192,88663,1,8,0:0:0:0:
256,192,88899,1,0,0:0:0:0:
256,192,89017,1,0,0:0:0:0:
256,192,89135,1,8,0:0:0:0:
256,192,89253,1,0,0:0:0:0:
256,192,89372,1,8,0:0:0:0:
256,192,89608,1,0,0:0:0:0:
256,192,89726,1,8,0:0:0:0:
256,192,89844,1,8,0:0:0:0:
256,192,89962,1,0,0:0:0:0:
256,192,90080,1,8,0:0:0:0:
256,192,90316,1,8,0:0:0:0:
256,192,90553,1,8,0:0:0:0:
288,224,90788,5,0,0:0:0:0:
288,224,91024,1,0,0:0:0:0:
288,224,91142,1,0,0:0:0:0:
288,224,91261,1,8,0:0:0:0:
288,224,91497,1,0,0:0:0:0:
288,224,91733,1,0,0:0:0:0:
288,224,91969,1,0,0:0:0:0:
288,224,92087,1,0,0:0:0:0:
288,224,92205,1,8,0:0:0:0:
288,224,92442,1,0,0:0:0:0:
288,224,92678,1,8,0:0:0:0:
288,224,92914,1,0,0:0:0:0:
288,224,93150,1,8,0:0:0:0:
288,224,93387,1,0,0:0:0:0:
288,224,93505,1,8,0:0:0:0:
288,224,93623,1,0,0:0:0:0:
288,224,93859,1,8,0:0:0:0:
288,224,94095,1,8,0:0:0:0:
288,224,94568,1,4,0:0:0:0:
288,224,94804,1,0,0:0:0:0:
288,224,95040,1,8,0:0:0:0:
288,224,95158,1,8,0:0:0:0:
288,224,95276,1,0,0:0:0:0:
288,224,95513,1,4,0:0:0:0:
288,224,95749,1,0,0:0:0:0:
288,224,95867,1,0,0:0:0:0:
288,224,95985,1,8,0:0:0:0:
288,224,96221,1,8,0:0:0:0:
288,224,96457,1,4,0:0:0:0:
288,224,96694,1,0,0:0:0:0:
288,224,96930,1,8,0:0:0:0:
288,224,97166,1,0,0:0:0:0:
288,224,97402,1,0,0:0:0:0:
288,224,97520,1,0,0:0:0:0:
288,224,97639,1,8,0:0:0:0:
288,224,97757,1,0,0:0:0:0:
288,224,97875,1,8,0:0:0:0:
288,224,97993,1,8,0:0:0:0:
288,224,98111,1,0,0:0:0:0:
256,192,98347,1,0,0:0:0:0:
256,192,98465,1,0,0:0:0:0:
256,192,98583,1,8,0:0:0:0:
256,192,98702,1,0,0:0:0:0:
256,192,98820,1,8,0:0:0:0:
256,192,99056,1,0,0:0:0:0:
256,192,99292,1,0,0:0:0:0:
256,192,99528,1,8,0:0:0:0:
256,192,99646,1,8,0:0:0:0:
256,192,99765,1,8,0:0:0:0:
256,192,100001,1,0,0:0:0:0:
256,192,100237,1,8,0:0:0:0:
256,192,100355,1,0,0:0:0:0:
256,192,100473,1,0,0:0:0:0:
256,192,100591,1,0,0:0:0:0:
256,192,100709,1,8,0:0:0:0:
256,192,100946,1,8,0:0:0:0:
256,192,101182,1,0,0:0:0:0:
256,192,101654,1,12,0:0:0:0:
256,192,102127,1,0,0:0:0:0:
256,192,102245,1,0,0:0:0:0:
256,192,102363,1,0,0:0:0:0:
256,192,102481,1,0,0:0:0:0:
256,192,102599,1,8,0:0:0:0:
256,192,102835,1,0,0:0:0:0:
256,192,103072,1,0,0:0:0:0:
256,192,103308,1,0,0:0:0:0:
256,192,103426,1,0,0:0:0:0:
256,192,103544,1,8,0:0:0:0:
256,192,103780,1,0,0:0:0:0:
256,192,104017,5,0,0:0:0:0:
256,192,104135,1,0,0:0:0:0:
256,192,104253,1,0,0:0:0:0:
256,192,104371,1,0,0:0:0:0:
256,192,104489,1,8,0:0:0:0:
256,192,104725,1,0,0:0:0:0:
256,192,104843,1,8,0:0:0:0:
256,192,104961,1,0,0:0:0:0:
256,192,105080,1,0,0:0:0:0:
256,192,105198,1,8,0:0:0:0:
256,192,105434,1,8,0:0:0:0:
256,192,105670,1,8,0:0:0:0:
128,64,105906,5,0,0:0:0:0:
128,64,106142,1,8,0:0:0:0:
128,64,106261,1,8,0:0:0:0:
128,64,106379,1,8,0:0:0:0:
128,64,106615,1,0,0:0:0:0:
128,64,106851,1,0,0:0:0:0:
128,64,106969,1,0,0:0:0:0:
128,64,107087,1,8,0:0:0:0:
128,64,107324,1,8,0:0:0:0:
128,64,107560,1,0,0:0:0:0:
128,64,107678,1,0,0:0:0:0:
128,64,107796,1,8,0:0:0:0:
128,64,108032,1,0,0:0:0:0:
128,64,108268,1,8,0:0:0:0:
128,64,108505,1,0,0:0:0:0:
128,64,108623,1,0,0:0:0:0:
128,64,108741,1,8,0:0:0:0:
128,64,108859,1,0,0:0:0:0:
128,64,108977,1,8,0:0:0:0:
128,64,109213,1,0,0:0:0:0:
128,64,109450,1,8,0:0:0:0:
128,64,109686,1,4,0:0:0:0:
128,64,109922,1,8,0:0:0:0:
128,64,110040,1,8,0:0:0:0:
128,64,110158,1,8,0:0:0:0:
128,64,110394,1,0,0:0:0:0:
128,64,110631,1,4,0:0:0:0:
128,64,110867,1,0,0:0:0:0:
128,64,110985,1,0,0:0:0:0:
128,64,111103,1,8,0:0:0:0:
128,64,111339,1,0,0:0:0:0:
128,64,111576,1,4,0:0:0:0:
128,64,112048,1,0,0:0:0:0:
128,64,112284,1,8,0:0:0:0:
128,64,112520,1,8,0:0:0:0:
128,64,112757,1,0,0:0:0:0:
128,64,112875,1,0,0:0:0:0:
128,64,112993,1,8,0:0:0:0:
128,64,113229,1,8,0:0:0:0:
256,192,113465,1,0,0:0:0:0:
256,192,113938,1,8,0:0:0:0:
256,192,114174,1,0,0:0:0:0:
256,192,114883,1,8,0:0:0:0:
256,192,115355,1,0,0:0:0:0:
256,192,115591,1,0,0:0:0:0:
256,192,115828,1,8,0:0:0:0:
256,192,116064,1,0,0:0:0:0:
256,192,116300,1,0,0:0:0:0:
256,192,116772,1,8,0:0:0:0:
256,192,117245,1,0,0:0:0:0:
256,192,117717,1,8,0:0:0:0:
256,192,117954,1,0,0:0:0:0:
256,192,118190,1,0,0:0:0:0:
256,192,118662,1,8,0:0:0:0:
256,192,119135,1,0,0:0:0:0:
256,192,119371,1,0,0:0:0:0:
256,192,119608,1,8,0:0:0:0:
256,192,119844,1,0,0:0:0:0:
256,192,120080,1,0,0:0:0:0:
256,192,120552,1,8,0:0:0:0:
256,192,121024,1,0,0:0:0:0:
256,192,121497,1,8,0:0:0:0:
256,192,121733,1,0,0:0:0:0:
256,192,121969,1,0,0:0:0:0:
256,192,122442,1,8,0:0:0:0:
256,192,122914,1,0,0:0:0:0:
256,192,123150,1,0,0:0:0:0:
256,192,123387,1,8,0:0:0:0:
256,192,123623,1,0,0:0:0:0:
256,192,123859,1,8,0:0:0:0:
256,192,124331,1,0,0:0:0:0:
256,192,124804,1,0,0:0:0:0:
256,192,125276,1,8,0:0:0:0:
256,192,125513,1,0,0:0:0:0:
256,192,125749,1,8,0:0:0:0:
256,192,126221,12,0,128111,0:0:0:0:
256,192,128583,5,0,0:0:0:0:
256,192,128702,1,0,0:0:0:0:
256,192,128820,1,8,0:0:0:0:
256,192,129056,1,8,0:0:0:0:
256,192,129292,1,8,0:0:0:0:
256,192,129410,1,8,0:0:0:0:
256,192,129528,1,0,0:0:0:0:
256,192,129765,1,8,0:0:0:0:
256,192,130001,1,12,0:0:0:0:
192,128,130473,5,4,0:0:0:0:
192,128,130709,1,0,0:0:0:0:
192,128,130828,1,0,0:0:0:0:
192,128,130946,1,8,0:0:0:0:
192,128,131182,1,0,0:0:0:0:
192,128,131418,1,0,0:0:0:0:
192,128,131536,1,0,0:0:0:0:
192,128,131654,1,0,0:0:0:0:
192,128,131891,1,8,0:0:0:0:
192,128,132127,1,0,0:0:0:0:
192,128,132245,1,0,0:0:0:0:
192,128,132363,1,8,0:0:0:0:
192,128,132599,1,0,0:0:0:0:
192,128,132835,1,8,0:0:0:0:
192,128,132954,1,0,0:0:0:0:
192,128,133072,1,0,0:0:0:0:
192,128,133190,1,0,0:0:0:0:
192,128,133308,1,8,0:0:0:0:
192,128,133544,1,0,0:0:0:0:
192,128,133780,1,8,0:0:0:0:
192,128,134253,1,4,0:0:0:0:
192,128,134489,1,0,0:0:0:0:
192,128,134725,1,8,0:0:0:0:
192,128,134961,1,0,0:0:0:0:
192,128,135198,1,8,0:0:0:0:
192,128,135316,1,0,0:0:0:0:
192,128,135434,1,0,0:0:0:0:
192,128,135670,1,8,0:0:0:0:
192,128,135906,1,0,0:0:0:0:
192,128,136142,1,0,0:0:0:0:
192,128,136261,1,0,0:0:0:0:
192,128,136379,1,0,0:0:0:0:
192,128,136615,1,8,0:0:0:0:
192,128,136851,1,0,0:0:0:0:
192,128,136969,1,0,0:0:0:0:
192,128,137087,1,8,0:0:0:0:
192,128,137324,1,8,0:0:0:0:
192,128,137560,1,0,0:0:0:0:
192,128,137796,1,8,0:0:0:0:
256,192,138032,1,4,0:0:0:0:
256,192,138268,1,0,0:0:0:0:
256,192,138386,1,0,0:0:0:0:
256,192,138504,1,8,0:0:0:0:
256,192,138740,1,0,0:0:0:0:
256,192,138977,1,0,0:0:0:0:
256,192,139213,1,8,0:0:0:0:
256,192,139331,1,8,0:0:0:0:
256,192,139449,1,8,0:0:0:0:
256,192,139685,1,8,0:0:0:0:
256,192,139922,1,8,0:0:0:0:
256,192,140040,1,0,0:0:0:0:
256,192,140158,1,8,0:0:0:0:
256,192,140276,1,0,0:0:0:0:
256,192,140394,1,8,0:0:0:0:
256,192,140630,1,0,0:0:0:0:
256,192,140866,1,8,0:0:0:0:
256,192,141103,1,0,0:0:0:0:
256,192,141221,1,0,0:0:0:0:
256,192,141339,1,8,0:0:0:0:
256,192,141812,5,4,0:0:0:0:
256,192,142048,1,0,0:0:0:0:
256,192,142166,1,0,0:0:0:0:
256,192,142284,1,8,0:0:0:0:
256,192,142520,1,0,0:0:0:0:
256,192,142757,1,4,0:0:0:0:
256,192,142993,1,0,0:0:0:0:
256,192,143111,1,0,0:0:0:0:
256,192,143229,1,8,0:0:0:0:
256,192,143465,1,0,0:0:0:0:
256,192,143702,1,4,0:0:0:0:
256,192,143938,1,0,0:0:0:0:
256,192,144056,1,0,0:0:0:0:
256,192,144174,1,8,0:0:0:0:
256,192,144410,1,0,0:0:0:0:
256,192,144646,1,0,0:0:0:0:
256,192,144765,1,0,0:0:0:0:
256,192,144883,1,8,0:0:0:0:
256,192,145001,1,8,0:0:0:0:
256,192,145119,1,0,0:0:0:0:
256,192,145355,1,8,0:0:0:0:
352,288,145591,5,4,0:0:0:0:
352,288,145828,1,0,0:0:0:0:
352,288,145946,1,0,0:0:0:0:
352,288,146064,1,8,0:0:0:0:
352,288,146300,1,0,0:0:0:0:
352,288,146536,1,8,0:0:0:0:
352,288,146772,1,0,0:0:0:0:
352,288,146891,1,0,0:0:0:0:
352,288,147009,1,8,0:0:0:0:
352,288,147245,1,0,0:0:0:0:
352,288,147363,1,0,0:0:0:0:
352,288,147481,1,0,0:0:0:0:
352,288,147717,1,0,0:0:0:0:
352,288,147835,1,0,0:0:0:0:
352,288,147954,1,8,0:0:0:0:
352,288,148190,1,0,0:0:0:0:
352,288,148426,1,8,0:0:0:0:
352,288,148544,1,0,0:0:0:0:
352,288,148662,1,0,0:0:0:0:
352,288,148780,1,0,0:0:0:0:
352,288,148898,1,8,0:0:0:0:
352,288,149135,1,8,0:0:0:0:
352,288,149253,1,8,0:0:0:0:
352,288,149371,1,0,0:0:0:0:
352,288,149607,1,0,0:0:0:0:
352,288,149843,1,8,0:0:0:0:
352,288,150080,1,0,0:0:0:0:
352,288,150316,1,8,0:0:0:0:
352,288,150552,1,0,0:0:0:0:
352,288,150670,1,0,0:0:0:0:
352,288,150788,1,8,0:0:0:0:
352,288,151024,1,0,0:0:0:0:
352,288,151261,1,0,0:0:0:0:
352,288,151379,1,0,0:0:0:0:
352,288,151497,1,0,0:0:0:0:
352,288,151733,1,8,0:0:0:0:
352,288,151969,1,0,0:0:0:0:
352,288,152205,1,8,0:0:0:0:
352,288,152442,1,0,0:0:0:0:
352,288,152678,1,8,0:0:0:0:
352,288,152914,1,8,0:0:0:0:
352,288,153032,1,8,0:0:0:0:
256,192,153150,1,0,0:0:0:0:
256,192,153386,1,8,0:0:0:0:
256,192,153505,1,0,0:0:0:0:
256,192,153623,1,8,0:0:0:0:
256,192,153859,1,0,0:0:0:0:
256,192,154095,1,0,0:0:0:0:
256,192,154331,1,8,0:0:0:0:
256,192,154449,1,8,0:0:0:0:
256,192,154568,1,8,0:0:0:0:
256,192,154804,1,0,0:0:0:0:
256,192,155040,1,8,0:0:0:0:
256,192,155158,1,0,0:0:0:0:
256,192,155276,1,0,0:0:0:0:
256,192,155394,1,0,0:0:0:0:
256,192,155512,1,8,0:0:0:0:
256,192,155749,1,8,0:0:0:0:
256,192,155985,1,0,0:0:0:0:
256,192,156221,1,0,0:0:0:0:
256,192,156457,1,12,0:0:0:0:
256,192,156930,1,0,0:0:0:0:
256,192,157048,1,0,0:0:0:0:
256,192,157166,1,0,0:0:0:0:
256,192,157284,1,0,0:0:0:0:
256,192,157402,1,8,0:0:0:0:
256,192,157638,1,0,0:0:0:0:
256,192,157875,1,4,0:0:0:0:
256,192,158111,1,8,0:0:0:0:
256,192,158229,1,0,0:0:0:0:
256,192,158347,1,8,0:0:0:0:
256,192,158583,1,0,0:0:0:0:
256,192,158820,5,4,0:0:0:0:
256,192,159056,1,0,0:0:0:0:
256,192,159174,1,0,0:0:0:0:
256,192,159292,1,8,0:0:0:0:
256,192,159528,1,0,0:0:0:0:
256,192,159646,1,8,0:0:0:0:
256,192,159764,1,0,0:0:0:0:
256,192,159883,1,0,0:0:0:0:
256,192,160001,1,8,0:0:0:0:
256,192,160237,1,8,0:0:0:0:
256,192,160473,5,8,0:0:0:0:
192,128,160709,5,4,0:0:0:0:
192,128,160946,1,0,0:0:0:0:
192,128,161064,1,0,0:0:0:0:
192,128,161182,1,8,0:0:0:0:
192,128,161418,1,8,0:0:0:0:
192,128,161654,1,0,0:0:0:0:
192,128,161891,1,0,0:0:0:0:
192,128,162127,1,8,0:0:0:0:
192,128,162363,1,0,0:0:0:0:
192,128,162599,1,0,0:0:0:0:
192,128,162717,1,0,0:0:0:0:
192,128,162835,1,8,0:0:0:0:
192,128,163072,1,8,0:0:0:0:
192,128,163308,1,0,0:0:0:0:
192,128,163544,1,8,0:0:0:0:
192,128,163780,1,0,0:0:0:0:
192,128,164017,1,8,0:0:0:0:
192,128,164253,1,0,0:0:0:0:
192,128,164489,5,0,0:0:0:0:
192,128,164726,1,0,0:0:0:0:
192,128,164844,1,0,0:0:0:0:
192,128,164962,1,8,0:0:0:0:
192,128,165198,1,8,0:0:0:0:
192,128,165434,1,0,0:0:0:0:
192,128,165671,1,0,0:0:0:0:
192,128,165907,1,8,0:0:0:0:
192,128,166143,1,0,0:0:0:0:
192,128,166379,1,0,0:0:0:0:
192,128,166497,1,0,0:0:0:0:
192,128,166615,1,8,0:0:0:0:
192,128,166852,1,8,0:0:0:0:
192,128,167088,1,0,0:0:0:0:
192,128,167324,1,8,0:0:0:0:
192,128,167560,1,0,0:0:0:0:
192,128,167797,1,8,0:0:0:0:
192,128,168033,1,0,0:0:0:0:
256,192,168268,1,8,0:0:0:0:
256,192,168505,1,0,0:0:0:0:
256,192,168623,1,0,0:0:0:0:
256,192,168741,1,8,0:0:0:0:
256,192,168977,1,8,0:0:0:0:
256,192,169213,1,0,0:0:0:0:
256,192,169450,1,8,0:0:0:0:
256,192,169568,1,0,0:0:0:0:
256,192,169686,1,8,0:0:0:0:
256,192,169922,1,0,0:0:0:0:
256,192,170158,1,0,0:0:0:0:
256,192,170276,1,0,0:0:0:0:
256,192,170394,1,0,0:0:0:0:
256,192,170513,1,0,0:0:0:0:
256,192,170631,1,8,0:0:0:0:
256,192,170867,1,0,0:0:0:0:
256,192,171103,1,0,0:0:0:0:
256,192,171576,1,12,0:0:0:0:
256,192,172048,5,4,0:0:0:0:
256,192,172284,1,0,0:0:0:0:
256,192,172402,1,0,0:0:0:0:
256,192,172520,1,8,0:0:0:0:
256,192,172756,1,0,0:0:0:0:
256,192,172993,1,4,0:0:0:0:
256,192,173229,1,0,0:0:0:0:
256,192,173347,1,0,0:0:0:0:
256,192,173465,1,8,0:0:0:0:
256,192,173701,1,0,0:0:0:0:
256,192,173938,1,4,0:0:0:0:
256,192,174646,1,4,0:0:0:0:
256,192,174883,1,4,0:0:0:0:
256,192,175355,1,4,0:0:0:0:
