osu file format v12

[General]
AudioFilename: Oh.. no.mp3
AudioLeadIn: 500
PreviewTime: 37875
Countdown: 0
SampleSet: Normal
StackLeniency: 0.7
Mode: 1
LetterboxInBreaks: 0
WidescreenStoryboard: 1

[Editor]
Bookmarks: 80,7639,22757,26536,30316,37875,45434,52993,60552,68111,75670,83229,90788,98347,105906,113465,130473,138032,145591,153150,160709,168268,175828
DistanceSpacing: 0.5
BeatDivisor: 4
GridSize: 32
TimelineZoom: 1.5

[Metadata]
Title:Oh No!
TitleUnicode:Oh No!
Artist:Marina & The Diamonds
ArtistUnicode:Marina & The Diamonds
Creator:Gabe
Version:Collab Muzukashii
Source:
Tags:Lambrini Diamandis The Family Jewels VinylDash14 _Gezo_ Gezoda Nashmun ColdTooth Veus
BeatmapID:358122
BeatmapSetID:127109

[Difficulty]
HPDrainRate:5
CircleSize:2
OverallDifficulty:4
ApproachRate:10
SliderMultiplier:1.4
SliderTickRate:1

[Events]
//Background and Video events
0,0,"oh no.jpg",0,0
//Break Periods
//Storyboard Layer 0 (Background)
//Storyboard Layer 1 (Fail)
//Storyboard Layer 2 (Pass)
//Storyboard Layer 3 (Foreground)
Sprite,Foreground,Centre,"n.png",320,240 M,0,80,,440,400 F,0,80,552,0,1 F,0,7639,7739,1,0 F,0,22757,22857,0,1 F,0,26536,26636,1,0 F,0,30316,30416,0,1 F,0,37875,37975,1,0 F,0,45434,45534,0,1 F,0,52993,53093,1,0 F,0,60552,60662,0,1 F,0,68111,68211,1,0 F,0,75670,75770,0,1 F,0,83229,83329,1,0 F,0,90788,90888,0,1 F,0,98347,98447,1,0 F,0,105906,106006,0,1 F,0,113465,113565,1,0 F,0,130473,130573,0,1 F,0,138032,138132,1,0 F,0,145591,145691,0,1 F,0,153150,153250,1,0 F,0,160709,160809,0,1 F,0,168268,168368,1,0
Sprite,Foreground,Centre,"g.png",320,240 M,0,7639,,530,400 F,0,7639,7739,0,1 F,0,22757,22857,1,0 F,0,26536,26636,0,1 F,0,30316,30416,1,0 F,0,37875,37975,0,1 F,0,45434,45534,1,0 F,0,52993,53093,0,1 F,0,60552,60662,1,0 F,0,68111,68211,0,1 F,0,75670,75770,1,0 F,0,83229,83329,0,1 F,0,90788,90888,1,0 F,0,98347,98447,0,1 F,0,105906,106006,1,0 F,0,113465,113565,0,1 F,0,130473,130573,1,0 F,0,138032,138132,0,1 F,0,145591,145691,1,0 F,0,153150,153250,0,1 F,0,160709,160809,1,0 F,0,168268,168368,0,1 F,0,175828,176772,1,0
//Storyboard Sound Samples
//Background Colour Transformations
3,100,163,162,255

[TimingPoints]
80,472.44094488189,4,1,0,80,1,0
37875,-100,4,1,0,80,0,1
52993,-100,4,1,0,80,0,0
83229,-100,4,1,0,80,0,1
113465,-100,4,1,0,80,0,0
130473,-100,4,1,0,80,0,1
160709,-100,4,1,0,80,0,0

[HitObjects]
256,192,80,5,0,0:0:0:0:
256,192,552,1,8,0:0:0:0:
256,192,788,1,0,0:0:0:0:
256,192,1497,1,8,0:0:0:0:
256,192,1969,1,0,0:0:0:0:
256,192,2205,1,0,0:0:0:0:
256,192,2442,1,8,0:0:0:0:
256,192,2678,1,0,0:0:0:0:
256,192,2914,1,0,0:0:0:0:
256,192,3387,1,8,0:0:0:0:
256,192,3859,1,4,0:0:0:0:
256,192,4331,1,8,0:0:0:0:
256,192,4568,1,0,0:0:0:0:
256,192,5276,1,8,0:0:0:0:
256,192,5749,1,0,0:0:0:0:
256,192,5985,1,0,0:0:0:0:
256,192,6221,1,8,0:0:0:0:
256,192,6457,1,0,0:0:0:0:
256,192,6694,1,0,0:0:0:0:
256,192,7166,1,12,0:0:0:0:
256,192,7639,5,0,0:0:0:0:
256,192,8111,1,8,0:0:0:0:
256,192,8347,1,0,0:0:0:0:
256,192,8820,1,0,0:0:0:0:
256,192,9056,1,8,0:0:0:0:
256,192,9528,1,0,0:0:0:0:
256,192,10001,1,8,0:0:0:0:
256,192,10237,1,0,0:0:0:0:
256,192,10709,1,0,0:0:0:0:
256,192,10946,1,8,0:0:0:0:
256,192,11182,1,8,0:0:0:0:
256,192,11418,1,0,0:0:0:0:
256,192,11891,1,8,0:0:0:0:
256,192,12127,1,0,0:0:0:0:
256,192,12599,1,0,0:0:0:0:
256,192,12835,1,8,0:0:0:0:
256,192,13072,1,0,0:0:0:0:
256,192,13308,1,0,0:0:0:0:
256,192,13780,1,8,0:0:0:0:
256,192,14017,1,0,0:0:0:0:
256,192,14489,1,8,0:0:0:0:
256,192,14725,1,8,0:0:0:0:
256,192,14961,1,8,0:0:0:0:
256,192,15198,1,0,0:0:0:0:
256,192,15670,1,8,0:0:0:0:
256,192,15906,1,0,0:0:0:0:
256,192,16379,1,0,0:0:0:0:
256,192,16615,1,8,0:0:0:0:
256,192,16851,1,0,0:0:0:0:
256,192,17087,1,0,0:0:0:0:
256,192,17560,1,8,0:0:0:0:
256,192,17796,1,0,0:0:0:0:
256,192,18268,1,0,0:0:0:0:
256,192,18505,1,8,0:0:0:0:
256,192,18741,1,0,0:0:0:0:
256,192,18859,1,0,0:0:0:0:
256,192,18977,1,0,0:0:0:0:
256,192,19213,1,0,0:0:0:0:
256,192,19450,1,8,0:0:0:0:
256,192,19686,1,0,0:0:0:0:
256,192,20158,1,0,0:0:0:0:
256,192,20394,1,8,0:0:0:0:
256,192,20867,1,0,0:0:0:0:
256,192,21339,1,8,0:0:0:0:
256,192,21576,1,0,0:0:0:0:
256,192,22048,1,8,0:0:0:0:
256,192,22284,1,8,0:0:0:0:
256,192,22520,1,8,0:0:0:0:
256,192,22757,1,0,0:0:0:0:
256,192,23229,1,8,0:0:0:0:
256,192,23702,1,0,0:0:0:0:
256,192,23938,1,0,0:0:0:0:
256,192,24174,1,8,0:0:0:0:
256,192,24646,1,0,0:0:0:0:
256,192,24883,1,0,0:0:0:0:
256,192,25119,1,8,0:0:0:0:
256,192,25591,1,0,0:0:0:0:
256,192,25828,1,0,0:0:0:0:
256,192,26064,1,8,0:0:0:0:
256,192,26536,1,0,0:0:0:0:
256,192,26772,1,0,0:0:0:0:
256,192,27009,1,8,0:0:0:0:
256,192,27245,1,0,0:0:0:0:
256,192,27481,1,0,0:0:0:0:
256,192,27599,1,0,0:0:0:0:
256,192,27717,1,0,0:0:0:0:
256,192,27954,1,8,0:0:0:0:
256,192,28426,1,0,0:0:0:0:
256,192,28662,1,0,0:0:0:0:
256,192,28898,1,8,0:0:0:0:
256,192,29135,1,0,0:0:0:0:
256,192,29371,1,8,0:0:0:0:
256,192,29489,1,8,0:0:0:0:
256,192,29607,1,8,0:0:0:0:
256,192,29843,1,8,0:0:0:0:
256,192,30316,1,0,0:0:0:0:
256,192,30552,1,0,0:0:0:0:
256,192,30788,1,8,0:0:0:0:
256,192,31024,1,0,0:0:0:0:
256,192,31261,1,0,0:0:0:0:
256,192,31733,1,8,0:0:0:0:
256,192,31969,1,0,0:0:0:0:
256,192,32205,1,0,0:0:0:0:
256,192,32324,1,0,0:0:0:0:
256,192,32442,1,0,0:0:0:0:
256,192,32677,1,8,0:0:0:0:
256,192,33150,1,0,0:0:0:0:
256,192,33387,1,0,0:0:0:0:
256,192,33622,1,8,0:0:0:0:
256,192,33859,1,0,0:0:0:0:
256,192,34095,1,0,0:0:0:0:
256,192,34567,1,8,0:0:0:0:
256,192,34804,1,0,0:0:0:0:
256,192,35040,1,0,0:0:0:0:
256,192,35158,1,0,0:0:0:0:
256,192,35276,1,0,0:0:0:0:
256,192,35512,1,8,0:0:0:0:
256,192,35985,5,0,0:0:0:0:
256,192,36221,1,0,0:0:0:0:
256,192,36457,1,0,0:0:0:0:
256,192,36694,1,0,0:0:0:0:
256,192,37402,1,12,0:0:0:0:
256,192,37875,5,4,0:0:0:0:
256,192,38347,1,8,0:0:0:0:
256,192,38583,1,0,0:0:0:0:
256,192,38820,1,0,0:0:0:0:
256,192,39292,1,8,0:0:0:0:
256,192,39765,1,0,0:0:0:0:
256,192,40001,1,0,0:0:0:0:
256,192,40237,1,8,0:0:0:0:
256,192,40473,1,0,0:0:0:0:
256,192,40591,1,0,0:0:0:0:
256,192,40709,1,0,0:0:0:0:
256,192,40946,1,0,0:0:0:0:
256,192,41182,1,8,0:0:0:0:
256,192,41654,1,4,0:0:0:0:
256,192,42127,1,8,0:0:0:0:
256,192,42363,1,0,0:0:0:0:
256,192,42481,1,0,0:0:0:0:
256,192,42599,1,0,0:0:0:0:
256,192,42835,1,0,0:0:0:0:
256,192,43072,1,8,0:0:0:0:
256,192,43544,1,0,0:0:0:0:
256,192,44017,1,8,0:0:0:0:
256,192,44253,1,0,0:0:0:0:
256,192,44489,1,8,0:0:0:0:
256,192,44607,1,8,0:0:0:0:
256,192,44725,1,8,0:0:0:0:
256,192,44961,1,8,0:0:0:0:
256,192,45434,1,0,0:0:0:0:
256,192,45670,1,0,0:0:0:0:
256,192,45906,1,8,0:0:0:0:
256,192,46142,1,0,0:0:0:0:
256,192,46379,1,0,0:0:0:0:
256,192,46851,1,8,0:0:0:0:
256,192,47324,1,8,0:0:0:0:
256,192,47560,1,8,0:0:0:0:
256,192,47796,1,0,0:0:0:0:
256,192,48032,1,8,0:0:0:0:
256,192,48268,1,0,0:0:0:0:
256,192,48741,1,8,0:0:0:0:
256,192,49213,1,4,0:0:0:0:
256,192,49686,1,8,0:0:0:0:
256,192,49922,1,0,0:0:0:0:
256,192,50158,1,4,0:0:0:0:
256,192,50631,1,8,0:0:0:0:
256,192,50867,1,0,0:0:0:0:
256,192,51103,1,4,0:0:0:0:
256,192,51576,1,8,0:0:0:0:
256,192,51812,1,0,0:0:0:0:
256,192,52048,5,4,0:0:0:0:
256,192,52520,1,4,0:0:0:0:
256,192,52993,5,0,0:0:0:0:
256,192,53465,1,8,0:0:0:0:
256,192,53702,1,0,0:0:0:0:
256,192,54174,1,0,0:0:0:0:
256,192,54410,1,8,0:0:0:0:
256,192,54883,1,0,0:0:0:0:
256,192,55355,1,8,0:0:0:0:
256,192,55591,1,0,0:0:0:0:
256,192,56064,1,0,0:0:0:0:
256,192,56300,1,8,0:0:0:0:
256,192,56536,1,8,0:0:0:0:
256,192,56772,1,0,0:0:0:0:
256,192,57245,1,8,0:0:0:0:
256,192,57481,1,0,0:0:0:0:
256,192,57954,1,0,0:0:0:0:
256,192,58190,1,8,0:0:0:0:
256,192,58426,1,0,0:0:0:0:
256,192,58662,1,0,0:0:0:0:
256,192,59135,1,8,0:0:0:0:
256,192,59371,1,0,0:0:0:0:
256,192,59843,1,8,0:0:0:0:
256,192,60080,1,8,0:0:0:0:
256,192,60316,1,8,0:0:0:0:
256,192,60552,1,0,0:0:0:0:
256,192,61024,1,8,0:0:0:0:
256,192,61261,1,0,0:0:0:0:
256,192,61733,1,8,0:0:0:0:
256,192,61969,1,8,0:0:0:0:
256,192,62442,1,0,0:0:0:0:
256,192,62678,1,0,0:0:0:0:
256,192,62914,1,8,0:0:0:0:
256,192,63150,1,0,0:0:0:0:
256,192,63387,1,0,0:0:0:0:
256,192,63859,1,8,0:0:0:0:
256,192,64331,1,0,0:0:0:0:
256,192,64568,1,0,0:0:0:0:
256,192,64804,1,8,0:0:0:0:
256,192,65040,1,0,0:0:0:0:
256,192,65158,1,0,0:0:0:0:
256,192,65394,1,0,0:0:0:0:
256,192,65513,1,0,0:0:0:0:
256,192,65749,1,8,0:0:0:0:
256,192,66221,1,0,0:0:0:0:
256,192,66457,1,0,0:0:0:0:
256,192,66694,1,8,0:0:0:0:
256,192,66930,1,0,0:0:0:0:
256,192,67048,1,0,0:0:0:0:
256,192,67284,1,8,0:0:0:0:
256,192,67402,1,8,0:0:0:0:
256,192,67639,1,8,0:0:0:0:
256,192,68111,5,0,0:0:0:0:
256,192,68347,1,0,0:0:0:0:
256,192,68583,1,8,0:0:0:0:
256,192,69056,1,0,0:0:0:0:
256,192,69410,1,0,0:0:0:0:
256,192,69765,1,0,0:0:0:0:
256,192,70001,1,0,0:0:0:0:
256,192,70237,1,0,0:0:0:0:
256,192,70473,1,8,0:0:0:0:
256,192,70946,1,0,0:0:0:0:
256,192,71300,1,8,0:0:0:0:
256,192,71654,1,0,0:0:0:0:
256,192,71891,1,0,0:0:0:0:
256,192,72127,1,0,0:0:0:0:
256,192,72363,1,8,0:0:0:0:
256,192,72835,1,0,0:0:0:0:
256,192,73072,1,0,0:0:0:0:
256,192,73308,1,8,0:0:0:0:
256,192,73780,1,0,0:0:0:0:
256,192,74253,1,8,0:0:0:0:
256,192,74489,1,8,0:0:0:0:
256,192,74725,1,0,0:0:0:0:
256,192,74843,1,0,0:0:0:0:
256,192,74961,1,0,0:0:0:0:
256,192,75198,1,8,0:0:0:0:
256,192,75670,1,0,0:0:0:0:
256,192,75906,1,0,0:0:0:0:
256,192,76142,1,8,0:0:0:0:
256,192,76378,1,0,0:0:0:0:
256,192,76615,1,0,0:0:0:0:
256,192,77087,1,8,0:0:0:0:
256,192,77324,1,0,0:0:0:0:
256,192,77559,1,0,0:0:0:0:
256,192,77678,1,0,0:0:0:0:
256,192,77796,1,0,0:0:0:0:
256,192,78031,1,8,0:0:0:0:
256,192,78504,1,0,0:0:0:0:
256,192,78741,1,0,0:0:0:0:
256,192,78976,1,8,0:0:0:0:
256,192,79213,1,0,0:0:0:0:
256,192,79449,1,0,0:0:0:0:
256,192,79921,1,8,0:0:0:0:
256,192,80158,1,0,0:0:0:0:
256,192,80394,1,0,0:0:0:0:
256,192,80513,1,0,0:0:0:0:
256,192,80630,1,0,0:0:0:0:
256,192,80866,1,8,0:0:0:0:
256,192,81339,5,0,0:0:0:0:
256,192,81575,1,0,0:0:0:0:
256,192,81811,1,0,0:0:0:0:
256,192,82048,1,0,0:0:0:0:
256,192,82757,1,12,0:0:0:0:
256,192,83229,5,4,0:0:0:0:
256,192,83702,1,8,0:0:0:0:
256,192,83938,1,0,0:0:0:0:
256,192,84174,1,0,0:0:0:0:
0,128,84292,1,0,0:0:0:0:
256,192,84410,1,0,0:0:0:0:
256,192,84646,1,8,0:0:0:0:
256,192,85119,1,0,0:0:0:0:
256,192,85591,1,8,0:0:0:0:
256,192,85828,1,0,0:0:0:0:
256,192,86064,1,8,0:0:0:0:
256,192,86182,1,8,0:0:0:0:
256,192,86300,1,8,0:0:0:0:
256,192,86536,1,8,0:0:0:0:
256,192,87009,1,4,0:0:0:0:
256,192,87481,1,8,0:0:0:0:
256,192,87717,1,0,0:0:0:0:
256,192,87835,1,0,0:0:0:0:
256,192,87954,1,0,0:0:0:0:
256,192,88190,1,0,0:0:0:0:
256,192,88426,1,8,0:0:0:0:
256,192,88898,1,0,0:0:0:0:
256,192,89135,1,0,0:0:0:0:
256,192,89371,1,8,0:0:0:0:
256,192,89607,1,0,0:0:0:0:
256,192,89725,1,0,0:0:0:0:
256,192,89843,1,0,0:0:0:0:
256,192,90080,1,0,0:0:0:0:
256,192,90316,1,8,0:0:0:0:
256,192,90788,1,0,0:0:0:0:
256,192,91024,1,0,0:0:0:0:
256,192,91261,1,8,0:0:0:0:
256,192,91497,1,0,0:0:0:0:
256,192,91615,1,0,0:0:0:0:
256,192,91733,1,0,0:0:0:0:
256,192,92205,1,8,0:0:0:0:
256,192,92678,1,8,0:0:0:0:
256,192,92914,1,8,0:0:0:0:
256,192,93150,1,0,0:0:0:0:
256,192,93268,1,0,0:0:0:0:
256,192,93387,1,0,0:0:0:0:
256,192,93623,1,0,0:0:0:0:
256,192,94095,1,8,0:0:0:0:
256,192,94568,1,4,0:0:0:0:
256,192,95041,1,8,0:0:0:0:
256,192,95277,1,0,0:0:0:0:
256,192,95513,1,4,0:0:0:0:
256,192,95986,1,8,0:0:0:0:
256,192,96222,1,0,0:0:0:0:
256,192,96458,1,4,0:0:0:0:
256,192,96931,1,8,0:0:0:0:
256,192,97167,1,0,0:0:0:0:
256,192,97403,5,4,0:0:0:0:
256,192,97875,1,4,0:0:0:0:
256,192,98347,5,4,0:0:0:0:
256,192,98820,1,8,0:0:0:0:
256,192,99056,1,0,0:0:0:0:
256,192,99174,1,0,0:0:0:0:
256,192,99292,1,0,0:0:0:0:
256,192,99528,1,0,0:0:0:0:
256,192,99765,1,8,0:0:0:0:
256,192,100237,1,0,0:0:0:0:
256,192,100473,1,0,0:0:0:0:
256,192,100709,1,8,0:0:0:0:
256,192,100946,1,8,0:0:0:0:
256,192,101064,1,8,0:0:0:0:
256,192,101182,1,8,0:0:0:0:
256,192,101418,1,0,0:0:0:0:
256,192,101654,1,8,0:0:0:0:
256,192,102127,1,4,0:0:0:0:
256,192,102599,1,8,0:0:0:0:
256,192,102835,1,8,0:0:0:0:
256,192,103072,1,0,0:0:0:0:
256,192,103544,1,8,0:0:0:0:
256,192,103780,1,0,0:0:0:0:
256,192,104017,1,0,0:0:0:0:
256,192,104489,1,8,0:0:0:0:
256,192,104725,1,0,0:0:0:0:
256,192,104843,1,0,0:0:0:0:
256,192,104961,1,0,0:0:0:0:
256,192,105198,1,0,0:0:0:0:
256,192,105434,1,8,0:0:0:0:
256,192,105906,1,4,0:0:0:0:
256,192,106142,1,0,0:0:0:0:
256,192,106379,1,8,0:0:0:0:
256,192,106615,1,0,0:0:0:0:
256,192,106851,1,0,0:0:0:0:
256,192,107324,1,8,0:0:0:0:
256,192,107560,1,0,0:0:0:0:
256,192,107796,1,8,0:0:0:0:
256,192,107914,1,8,0:0:0:0:
256,192,108032,1,8,0:0:0:0:
256,192,108268,1,0,0:0:0:0:
256,192,108505,1,8,0:0:0:0:
256,192,108741,1,0,0:0:0:0:
256,192,109213,1,8,0:0:0:0:
256,192,109686,5,4,0:0:0:0:
256,192,110159,1,8,0:0:0:0:
256,192,110395,1,0,0:0:0:0:
256,192,110631,1,4,0:0:0:0:
256,192,111104,1,8,0:0:0:0:
256,192,111340,1,0,0:0:0:0:
256,192,111576,1,4,0:0:0:0:
256,192,112049,1,8,0:0:0:0:
256,192,112285,1,0,0:0:0:0:
256,192,112521,5,4,0:0:0:0:
256,192,112993,1,4,0:0:0:0:
256,192,113465,5,0,0:0:0:0:
256,192,113938,1,8,0:0:0:0:
256,192,114174,1,0,0:0:0:0:
256,192,115355,1,0,0:0:0:0:
256,192,115591,1,0,0:0:0:0:
256,192,115828,1,8,0:0:0:0:
256,192,116064,1,0,0:0:0:0:
256,192,117245,1,0,0:0:0:0:
256,192,117717,1,8,0:0:0:0:
256,192,117954,1,0,0:0:0:0:
256,192,119135,1,0,0:0:0:0:
256,192,119371,1,0,0:0:0:0:
256,192,119607,1,8,0:0:0:0:
256,192,119843,1,0,0:0:0:0:
256,192,120080,1,0,0:0:0:0:
256,192,120552,1,12,0:0:0:0:
256,192,121024,1,4,0:0:0:0:
256,192,121497,1,8,0:0:0:0:
256,192,121733,1,0,0:0:0:0:
256,192,121969,1,0,0:0:0:0:
256,192,122914,1,0,0:0:0:0:
256,192,123150,1,0,0:0:0:0:
256,192,123387,1,8,0:0:0:0:
256,192,123623,1,0,0:0:0:0:
256,192,123859,1,0,0:0:0:0:
256,192,124804,1,0,0:0:0:0:
256,192,125276,1,8,0:0:0:0:
256,192,125513,1,0,0:0:0:0:
256,192,125749,1,0,0:0:0:0:
256,192,126221,12,0,128111,0:0:0:0:
256,192,128583,5,0,0:0:0:0:
256,192,128820,1,0,0:0:0:0:
256,192,129056,1,8,0:0:0:0:
256,192,129292,1,0,0:0:0:0:
256,192,129528,1,0,0:0:0:0:
256,192,129765,1,8,0:0:0:0:
256,192,130001,1,4,0:0:0:0:
256,192,130473,1,4,0:0:0:0:
256,192,130709,1,0,0:0:0:0:
256,192,130946,1,8,0:0:0:0:
256,192,131182,1,0,0:0:0:0:
256,192,131418,1,0,0:0:0:0:
256,192,131891,1,8,0:0:0:0:
256,192,132363,1,8,0:0:0:0:
256,192,132599,1,8,0:0:0:0:
256,192,132835,1,0,0:0:0:0:
256,192,133072,1,8,0:0:0:0:
256,192,133308,1,0,0:0:0:0:
256,192,133780,1,8,0:0:0:0:
256,192,134253,1,0,0:0:0:0:
256,192,134489,1,0,0:0:0:0:
256,192,134607,1,0,0:0:0:0:
256,192,134725,1,0,0:0:0:0:
256,192,134961,1,0,0:0:0:0:
256,192,135198,1,0,0:0:0:0:
256,192,135670,1,8,0:0:0:0:
256,192,136142,1,8,0:0:0:0:
256,192,136379,1,8,0:0:0:0:
256,192,136497,1,8,0:0:0:0:
256,192,136615,1,8,0:0:0:0:
256,192,136851,1,8,0:0:0:0:
256,192,137087,1,0,0:0:0:0:
256,192,137560,1,8,0:0:0:0:
256,192,138032,5,4,0:0:0:0:
256,192,138505,1,8,0:0:0:0:
256,192,138741,1,0,0:0:0:0:
256,192,138859,1,0,0:0:0:0:
256,192,138977,1,0,0:0:0:0:
256,192,139213,1,0,0:0:0:0:
256,192,139450,1,8,0:0:0:0:
256,192,139686,1,0,0:0:0:0:
256,192,139922,1,0,0:0:0:0:
256,192,140394,1,8,0:0:0:0:
256,192,140631,1,0,0:0:0:0:
256,192,140867,1,0,0:0:0:0:
256,192,141103,1,8,0:0:0:0:
256,192,141339,1,8,0:0:0:0:
256,192,141812,1,4,0:0:0:0:
256,192,142284,1,8,0:0:0:0:
256,192,142520,1,0,0:0:0:0:
256,192,142757,1,0,0:0:0:0:
256,192,142993,1,0,0:0:0:0:
256,192,143229,1,8,0:0:0:0:
256,192,143702,1,0,0:0:0:0:
256,192,143938,1,0,0:0:0:0:
256,192,144174,1,8,0:0:0:0:
256,192,144646,1,0,0:0:0:0:
256,192,144883,1,8,0:0:0:0:
256,192,145119,1,8,0:0:0:0:
256,192,145355,1,8,0:0:0:0:
256,192,145591,1,4,0:0:0:0:
256,192,146064,1,8,0:0:0:0:
256,192,146300,1,0,0:0:0:0:
256,192,146536,1,0,0:0:0:0:
256,192,147009,1,8,0:0:0:0:
256,192,147245,1,0,0:0:0:0:
256,192,147481,1,8,0:0:0:0:
256,192,147599,1,8,0:0:0:0:
256,192,147717,1,8,0:0:0:0:
256,192,147953,1,0,0:0:0:0:
256,192,148190,1,8,0:0:0:0:
256,192,148426,1,0,0:0:0:0:
256,192,148898,1,8,0:0:0:0:
256,192,149371,1,0,0:0:0:0:
256,192,149607,1,0,0:0:0:0:
256,192,149725,1,0,0:0:0:0:
256,192,149843,1,0,0:0:0:0:
256,192,150079,1,0,0:0:0:0:
256,192,150316,1,0,0:0:0:0:
256,192,150788,1,8,0:0:0:0:
256,192,151024,1,0,0:0:0:0:
256,192,151260,1,8,0:0:0:0:
256,192,151497,1,8,0:0:0:0:
256,192,151615,1,8,0:0:0:0:
256,192,151733,1,8,0:0:0:0:
256,192,151969,1,8,0:0:0:0:
256,192,152205,1,0,0:0:0:0:
256,192,152678,1,8,0:0:0:0:
256,192,153150,5,4,0:0:0:0:
256,192,153623,1,8,0:0:0:0:
256,192,153859,1,0,0:0:0:0:
256,192,153977,1,0,0:0:0:0:
256,192,154095,1,0,0:0:0:0:
256,192,154331,1,0,0:0:0:0:
256,192,154568,1,8,0:0:0:0:
256,192,154804,1,0,0:0:0:0:
256,192,155040,1,0,0:0:0:0:
256,192,155513,1,8,0:0:0:0:
256,192,155749,1,0,0:0:0:0:
256,192,155985,1,8,0:0:0:0:
256,192,156103,1,8,0:0:0:0:
256,192,156221,1,8,0:0:0:0:
256,192,156457,1,8,0:0:0:0:
256,192,156930,1,4,0:0:0:0:
256,192,157402,1,8,0:0:0:0:
256,192,157639,1,0,0:0:0:0:
256,192,157875,1,0,0:0:0:0:
256,192,158347,1,8,0:0:0:0:
256,192,158583,1,0,0:0:0:0:
256,192,158820,1,0,0:0:0:0:
256,192,159056,1,0,0:0:0:0:
256,192,159292,1,8,0:0:0:0:
256,192,159765,1,0,0:0:0:0:
256,192,160001,1,8,0:0:0:0:
256,192,160237,1,8,0:0:0:0:
256,192,160709,1,4,0:0:0:0:
256,192,161182,1,0,0:0:0:0:
256,192,161418,1,0,0:0:0:0:
256,192,161654,1,8,0:0:0:0:
256,192,162127,1,8,0:0:0:0:
256,192,162363,1,8,0:0:0:0:
256,192,162599,1,0,0:0:0:0:
256,192,162835,1,0,0:0:0:0:
256,192,162954,1,0,0:0:0:0:
256,192,163072,1,0,0:0:0:0:
256,192,163308,1,8,0:0:0:0:
256,192,163544,1,0,0:0:0:0:
256,192,164017,1,8,0:0:0:0:
256,192,164253,1,8,0:0:0:0:
256,192,164489,1,8,0:0:0:0:
256,192,164961,1,8,0:0:0:0:
256,192,165198,1,8,0:0:0:0:
256,192,165434,1,0,0:0:0:0:
256,192,165906,1,0,0:0:0:0:
256,192,166142,1,0,0:0:0:0:
256,192,166379,1,8,0:0:0:0:
256,192,166615,1,8,0:0:0:0:
256,192,166733,1,8,0:0:0:0:
256,192,166851,1,8,0:0:0:0:
256,192,167087,1,0,0:0:0:0:
256,192,167323,1,8,0:0:0:0:
256,192,167796,1,8,0:0:0:0:
256,192,168032,1,8,0:0:0:0:
256,192,168268,5,8,0:0:0:0:
256,192,168741,1,0,0:0:0:0:
256,192,168977,1,0,0:0:0:0:
256,192,169213,1,8,0:0:0:0:
256,192,169686,1,0,0:0:0:0:
256,192,169922,1,0,0:0:0:0:
256,192,170158,1,8,0:0:0:0:
256,192,170394,1,0,0:0:0:0:
256,192,170513,1,0,0:0:0:0:
256,192,170631,1,0,0:0:0:0:
256,192,170867,1,8,0:0:0:0:
256,192,171103,1,0,0:0:0:0:
256,192,171576,1,0,0:0:0:0:
256,192,171812,1,8,0:0:0:0:
256,192,172048,1,4,0:0:0:0:
256,192,172520,1,8,0:0:0:0:
256,192,172757,1,0,0:0:0:0:
256,192,172993,1,0,0:0:0:0:
256,192,173465,1,8,0:0:0:0:
256,192,173702,1,0,0:0:0:0:
256,192,173938,1,4,0:0:0:0:
256,192,174646,1,0,0:0:0:0:
256,192,174883,1,0,0:0:0:0:
256,192,175355,1,4,0:0:0:0:
