osu file format v9

[General]
AudioFilename: Happy Happy Clover-OP (Full Ver).mp3
AudioLeadIn: 0
PreviewTime: 10170
Countdown: 0
SampleSet: Normal
StackLeniency: 0.4
Mode: 0
LetterboxInBreaks: 1

[Editor]
Bookmarks: 11899,45914,76151,110166,140402,185757,221662
DistanceSpacing: 0.8
BeatDivisor: 4
GridSize: 8

[Metadata]
Title:Shiawase no Kakera
Artist:Marimomi
Creator:MakJang
Version:Hard
Source:Happy Happy Clover
Tags:ravenjam factory [KOR]Extream_Sigma

[Difficulty]
HPDrainRate:5
CircleSize:5
OverallDifficulty:5
ApproachRate:6
SliderMultiplier:1.6
SliderTickRate:2

[Events]
//Background and Video events
0,0,"MBG.jpg"
//Break Periods
2,42334,44863
2,106586,109115
2,170839,184707
//Storyboard Layer 0 (Background)
//Storyboard Layer 1 (Fail)
//Storyboard Layer 2 (Pass)
//Storyboard Layer 3 (Foreground)
//Storyboard Sound Samples
//Background Colour Transformations
3,100,163,162,255

[TimingPoints]
4340,472.44094488189,4,1,0,29,1,0
10008,-100,4,2,0,29,0,0
11898,-100,4,2,0,100,0,1
42136,-100,4,2,0,100,0,0
76150,-100,4,2,0,100,0,1
106388,-100,4,2,0,100,0,0
140401,-100,4,2,0,100,0,1
170640,-100,4,2,0,100,0,0
204653,-133.333333333333,4,2,0,100,0,0
220716,-100,4,2,0,100,0,0
221661,-100,4,2,0,100,0,1
251900,-100,4,2,0,100,0,0

[Colours]
Combo1 : 255,255,0
Combo2 : 5,240,5
Combo3 : 255,128,255
Combo4 : 128,64,0

[HitObjects]
32,160,3631,1,0
64,160,3867,1,0
96,160,4103,1,0
128,160,4340,5,8
128,224,4811,1,8
192,160,5283,1,8
192,224,5756,1,8
256,160,6228,5,8
256,224,6701,1,8
320,160,7173,1,8
320,224,7646,1,8
352,224,7882,1,0
384,224,8118,1,0
384,160,8590,5,8
448,160,9063,1,0
448,192,9299,1,0
448,224,9535,1,8
256,192,10008,12,4,10953
256,272,11898,5,4
352,272,12370,1,8
352,176,12842,1,0
352,144,13079,1,0
352,112,13315,1,8
256,112,13787,1,0
160,112,14260,1,8
160,208,14732,1,0
160,240,14968,1,0
160,272,15205,1,8
256,288,15678,6,0,B|336:288|384:192,1,160,0|8
256,96,16623,2,0,B|176:96|128:192,1,160,0|8
256,288,17567,1,0
288,256,17803,1,0
256,224,18039,1,8
224,192,18276,1,0
256,160,18512,1,0
288,128,18748,1,0
256,96,18984,1,8
224,64,19220,1,0
256,32,19458,6,0,B|416:32,1,160,0|8
416,64,20166,1,0
416,96,20402,2,0,B|416:256,1,160,0|8
416,288,21111,1,0
384,288,21347,2,0,B|224:288,1,160,0|8
192,288,22056,1,0
160,288,22292,2,0,B|160:128,1,160,0|8
160,96,23000,1,0
192,64,23236,5,4
224,96,23472,1,0
256,128,23709,1,0
288,96,23945,1,0
320,64,24181,1,4
352,96,24417,1,0
384,128,24653,1,0
416,128,24890,1,0
448,128,25127,2,0,B|448:224,1,80,4|0
448,232,25599,2,0,B|384:288,1,80,4|0
360,288,26072,2,0,B|312:288,3,40,4|0|0|0
320,288,26544,2,0,B|280:288,4,40,4|0|0|0|4
216,288,27488,5,8
208,224,27961,1,0
176,192,28197,1,0
144,160,28433,1,8
80,160,28905,1,0
80,96,29378,1,8
144,96,29850,1,0
176,128,30087,1,0
208,160,30323,1,8
224,224,30796,6,0,B|224:304|112:336,1,160,0|8
288,160,31741,2,0,B|288:80|400:48,1,160,0|8
224,224,32685,1,0
256,256,32921,1,0
288,288,33157,1,8
320,256,33394,1,0
352,224,33630,1,0
320,192,33866,1,0
288,160,34102,1,8
320,128,34339,1,0
352,96,34576,6,0,B|400:96|480:192,1,160,0|8
480,224,35284,1,0
480,256,35521,2,0,B|416:320|336:320,1,160,0|8
304,320,36229,1,0
272,320,36465,2,0,B|192:320|112:288,1,160,0|8
112,256,37174,2,0,B|112:176|160:96,1,160,0|0
176,80,37882,1,8
256,80,38354,5,4
288,112,38590,1,0
320,144,38827,1,4
288,176,39063,1,0
320,208,39299,1,4
352,240,39535,1,0
320,272,39772,1,4
288,304,40008,1,0
320,336,40244,1,4
352,368,40480,1,4
384,336,40716,1,4
256,192,41189,12,0,42134
96,288,45913,5,0
160,256,46386,1,2
224,224,46858,1,0
256,208,47094,1,0
288,192,47331,1,2
304,112,47803,1,0
320,80,48039,1,0
336,48,48276,1,2
416,48,48748,1,0
432,80,48984,1,0
448,112,49220,1,2
448,192,49693,5,0
448,256,50165,1,2
384,272,50638,1,0
352,288,50874,1,0
320,304,51110,1,2
240,304,51583,1,0
224,272,51819,1,0
208,240,52055,1,2
128,240,52527,1,0
112,272,52764,1,0
96,304,53000,1,2
16,304,53473,6,0,B|16:144,1,160,0|2
16,80,54418,2,0,B|176:80,1,160,0|2
240,80,55362,2,0,B|240:240,1,160,0|2
304,240,56307,2,0,B|416:240|416:144,1,160,0|2
416,96,57253,6,0,B|336:96|272:160,1,160,0|2
272,192,57962,1,0
272,224,58198,2,0,B|209:286|129:286,1,160,0|2
96,288,58906,1,0
64,288,59143,2,2,B|64:208|96:128,3,160
96,96,60796,1,2
96,64,61032,1,0
160,64,61505,1,6
224,64,61976,6,0,B|224:224,1,160,0|2
288,320,62921,2,0,B|288:160,1,160,0|2
288,64,63866,1,0
256,96,64102,1,0
224,128,64339,1,2
192,160,64575,1,0
160,192,64811,1,0
192,256,65283,1,6
256,224,65756,6,0,B|416:224,1,160,0|2
256,160,66701,2,0,B|96:160,1,160,0|2
128,224,67646,1,2
192,224,68118,1,2
224,160,68591,5,0
208,112,68828,1,0
160,96,69064,1,2
176,144,69300,1,0
224,224,69535,5,0
176,240,69772,1,0
160,288,70008,1,2
208,272,70244,1,0
288,224,70480,5,0
304,272,70716,1,0
352,288,70953,1,2
336,240,71189,1,0
288,160,71425,5,0
336,144,71661,1,0
352,96,71898,1,2
304,112,72134,1,0
256,192,72370,6,0,B|256:96,1,80,4|0
256,192,72842,2,0,B|176:192,1,80,4|0
256,192,73315,2,0,B|256:288,1,80,4|0
256,192,73787,2,0,B|365:192,1,80,4|0
255,192,74260,1,4
256,192,75206,12,4,76151
304,144,76622,5,8
320,80,77094,1,0
288,64,77331,1,0
256,48,77567,1,8
192,48,78039,1,0
192,112,78512,1,8
192,176,78984,1,0
160,208,79220,1,0
128,240,79457,1,8
128,320,79930,6,0,B|256:224,1,160,0|8
384,64,80875,2,0,B|256:160,1,160,0|8
288,224,81819,1,0
320,224,82055,1,0
352,224,82291,1,8
384,224,82527,1,0
384,192,82764,1,0
384,160,83000,1,0
384,128,83236,1,8
384,96,83472,1,0
384,64,83710,6,0,B|224:64,1,160,0|8
192,48,84418,1,0
160,64,84654,2,0,B|80:64|32:160,1,160,0|8
16,176,85363,1,0
32,208,85599,2,0,B|32:288|128:336,1,160,0|8
144,352,86308,1,0
176,336,86544,2,0,B|256:304|256:208,1,160,0|8
256,176,87253,1,0
224,192,87488,6,0,B|160:176|96:192|32:208|32:192,1,160,4|0
288,192,88433,2,0,B|352:208|416:192|480:176|480:192,1,160,4|0
160,192,89378,1,4
192,192,89614,1,0
224,192,89850,1,4
256,192,90087,1,0
288,192,90323,1,4
320,192,90559,1,0
352,192,90795,1,4
416,192,91268,5,4
416,256,91740,1,8
416,320,92213,2,0,B|256:320,1,160,0|8
256,256,93157,1,0
256,192,93630,1,8
256,128,94103,2,0,B|96:128,1,160,0|8
96,192,95048,6,0,B|123:242|154:242|154:242|187:242|212:193,1,160,0|8
304,192,95993,2,0,B|328:143|361:143|361:143|392:143|419:193,1,160,0|8
416,256,96938,2,0,B|256:256,1,160,0|8
224,256,97647,1,0
224,224,97883,2,0,B|224:64,1,160,0|8
288,64,98828,6,0,B|448:64,3,160,0|8|0|8
448,96,100481,1,0
448,128,100717,2,0,B|448:288,3,160,0|8|0|8
384,288,102606,5,4
352,256,102842,1,0
320,224,103079,1,4
288,256,103315,1,0
256,224,103551,1,4
224,192,103787,1,0
256,160,104024,1,4
224,128,104260,1,0
256,96,104496,1,4
288,64,104732,1,4
320,96,104968,1,4
256,192,105441,12,4,106386
272,112,110165,5,0
272,192,110638,1,2
352,192,111110,1,0
360,224,111346,1,0
368,256,111583,1,2
352,336,112055,1,0
320,344,112291,1,0
288,352,112527,1,2
208,352,113000,1,0
200,320,113236,1,0
192,288,113472,1,2
272,280,113945,5,0
256,200,114417,1,2
176,192,114890,1,0
168,160,115126,1,0
160,128,115362,1,2
160,48,115835,1,0
192,40,116071,1,0
224,32,116307,1,2
304,32,116779,1,0
312,64,117016,1,0
320,96,117252,1,2
320,160,117725,6,0,B|160:160,1,160,0|2
128,160,118434,1,0
128,192,118670,2,0,B|224:320,1,160,0|2
256,320,119379,1,0
288,320,119615,2,0,B|448:256,1,160,0|2
448,224,120324,1,0
448,192,120560,2,0,B|384:128,1,80
384,96,121032,2,0,B|320:32,1,80,2|0
304,32,121504,6,0,B|176:32|176:128,1,160,0|2
176,132,122213,1,0
176,160,122450,2,0,B|256:312,1,160,0|2
280,304,123157,1,0
304,304,123394,2,2,B|408:304|472:224,2,160
240,304,124811,2,0,B|192:320|146:365,2,80,2|2|0
288,256,125756,1,6
288,192,126228,6,0,B|352:16,1,160,0|2
416,48,127174,2,0,B|352:224,1,160,0|2
352,256,128118,1,0
320,288,128354,1,0
288,320,128590,1,2
256,288,128827,1,0
224,256,129063,1,0
224,192,129535,1,6
224,128,130008,6,0,B|400:192,1,160,0|2
368,256,130953,2,0,B|192:192,1,160,0|2
192,144,131899,1,2
128,144,132371,1,2
128,208,132843,6,0,B|288:208,3,160,0|2|0|2
320,208,134496,1,0
352,208,134733,2,0,B|352:368,1,160,0|2
416,304,135678,2,0,B|416:144,1,160,0|2
384,144,136386,1,0
352,144,136622,5,4
320,144,136858,1,0
288,144,137094,1,4
256,144,137331,1,0
256,176,137567,1,4
256,208,137803,1,0
224,208,138039,1,4
192,208,138276,1,0
160,208,138512,1,4
16,208,139693,2,2,B|128:208,2,80
16,176,140401,5,4
32,64,140874,1,8
80,112,141110,2,0,B|128:176,1,80
192,176,141583,2,0,B|228:249,1,80,0|8
288,256,142055,1,0
288,320,142291,1,0
176,320,142764,1,8
128,272,143000,2,0,B|160:192,1,80
192,144,143472,2,0,B|272:112,1,80,0|8
336,96,143945,1,0
352,160,144181,1,0
352,224,144417,6,0,B|352:288|288:288,2,80,0|8|0
256,192,145126,1,0
160,160,145362,2,0,B|160:96|224:96,2,80,0|8|0
272,176,146071,2,0,B|352:96,1,80
240,208,146543,2,0,B|176:272,1,80,8|0
224,160,147016,1,0
240,176,147134,1,8
256,192,147252,1,0
272,208,147370,1,0
288,224,147488,1,8
320,288,147724,1,0
384,304,147961,6,0,B|496:192|480:160,1,160,0|8
432,144,148670,1,0
384,112,148906,2,0,B|332:28|256:16,1,160,0|8
208,16,149615,1,0
160,16,149851,2,0,B|64:16,1,80
80,64,150324,2,0,B|80:144,1,80,8|0
144,160,150796,1,0
144,224,151032,1,0
208,192,151269,1,8
208,256,151505,1,0
272,224,151741,6,0,B|432:160,1,160,4|0
272,288,152686,2,0,B|432:224,1,160,4|0
352,320,153631,1,4
288,320,153867,1,0
224,320,154103,1,4
160,320,154340,1,0
160,256,154576,2,0,B|192:224,3,40,4|0|0|0
188,227,155048,2,0,B|224:256,4,40,4|0|0|0|4
256,192,155993,5,8
320,176,156229,2,0,B|368:96,1,80
336,48,156702,1,0
272,32,156938,1,8
208,48,157174,1,0
144,64,157410,1,0
32,128,157883,1,8
48,192,158119,2,0,B|112:144,1,80
176,144,158591,1,0
154,201,158828,2,0,B|214:273,1,80,8|0
288,224,159300,6,0,B|400:224,1,80
288,160,159773,2,0,B|288:48,1,80,8|0
224,160,160245,2,0,B|112:160,1,80
224,224,160717,2,0,B|224:336,1,80,8|0
288,304,161190,2,0,B|448:304,3,160,0|8|0|8
224,160,163080,5,0
208,112,163317,1,0
160,96,163553,1,8
176,144,163789,1,0
224,224,164025,5,0
176,240,164262,1,0
160,288,164498,1,8
208,272,164734,1,0
288,224,164970,5,0
304,272,165206,1,0
352,288,165443,1,8
336,240,165679,1,0
288,160,165915,5,0
336,144,166151,1,0
352,96,166388,1,8
304,112,166624,1,0
192,128,166859,6,0,B|112:160,1,80,4|0
192,256,167332,2,0,B|224:336,1,80,4|0
320,256,167804,2,0,B|400:224,1,80,4|0
320,128,168277,2,0,B|288:48,1,80,4|0
256,192,168749,1,4
256,192,168985,1,4
256,192,169221,1,4
128,192,169694,5,2
160,192,169812,1,0
192,192,169930,1,0
224,192,170048,1,2
256,192,170166,1,0
288,192,170284,1,0
320,192,170402,1,2
352,192,170521,1,0
384,192,170639,1,4
160,320,185757,5,0
224,320,186229,1,2
288,288,186702,1,0
320,224,187174,1,2
288,160,187647,2,0,B|288:64|160:64,3,160,0|2|0|2
160,64,189300,1,0
136,64,189536,1,0
80,64,190009,6,0,B|80:224,1,160,2|0
144,256,190954,2,0,B|144:96,1,160,2|0
208,112,191899,1,2
208,176,192371,1,2
208,240,192843,1,2
208,304,193316,6,0,B|368:304,1,160,4|2
368,240,194261,2,0,B|368:80,1,160,0|2
304,80,195206,2,0,B|144:80,1,160,0|2
144,144,196151,2,0,B|144:304,1,160,0|2
256,192,197095,12,2,200402
256,192,200875,12,0,202765
104,96,204654,6,0,B|224:96,1,119.999996423721,0|2
288,96,205599,2,0,B|416:96,1,119.999996423721,0|2
408,160,206544,2,0,B|288:160,1,119.999996423721,0|2
224,160,207489,2,0,B|104:160,1,119.999996423721,0|2
104,224,208434,6,0,B|224:224,1,119.999996423721,0|2
288,224,209379,2,0,B|408:224,1,119.999996423721,0|2
408,288,210324,2,0,B|288:288,1,119.999996423721,0|2
224,288,211269,2,0,B|104:288,1,119.999996423721,0|2
144,96,212214,5,4
368,96,213158,1,8
144,288,214103,5,4
368,288,215048,1,8
192,128,215993,5,4
320,128,216465,1,0
192,256,216938,1,4
320,256,217410,1,0
128,192,217883,5,4
160,192,218119,1,0
192,192,218355,1,4
224,192,218591,1,0
256,192,218828,1,4
288,192,219064,1,0
320,192,219300,1,4
352,192,219536,1,0
384,192,219773,1,4
256,192,220717,12,4,221662
352,128,222135,5,8
256,32,222607,1,0
208,80,222843,1,0
160,128,223080,1,8
64,192,223552,1,0
160,256,224025,1,8
256,352,224497,1,0
304,304,224733,1,0
352,256,224969,1,8
352,128,225442,6,0,B|320:32|224:0,1,160,0|8
160,256,226387,2,0,B|192:352|288:384,1,160,0|8
256,128,227332,1,0
192,128,227568,1,0
192,192,227804,1,8
192,256,228040,1,0
256,256,228277,1,0
320,256,228513,1,0
320,192,228749,1,8
320,128,228985,1,0
256,192,229221,6,0,B|416:160,1,160,0|8
464,160,229930,1,0
464,208,230166,2,0,B|468:304|372:336,1,160,0|8
336,336,230875,1,0
288,336,231111,2,0,B|128:336,1,160,0|8
128,288,231820,1,0
80,288,232056,2,0,B|16:240|16:144,1,160,0|8
64,128,232765,1,0
112,96,233001,5,4
144,128,233237,1,0
176,160,233473,1,0
144,192,233710,1,0
112,224,233946,1,4
144,256,234182,1,0
176,288,234418,1,0
208,320,234654,1,0
240,352,234891,6,0,B|304:288,1,80,4|0
304,352,235363,2,0,B|368:288,1,80,4|0
320,256,235836,1,4
304,240,235954,1,0
288,224,236072,1,0
272,208,236190,1,0
256,192,236308,1,4
240,176,236426,1,0
224,160,236544,1,0
208,144,236662,1,0
192,128,236780,1,4
320,256,237253,5,8
448,256,237725,2,0,B|352:96,1,160,0|8
320,256,238670,1,0
192,128,239143,1,8
64,128,239615,2,0,B|160:288,1,160,0|8
288,320,240560,6,0,B|288:160,1,160,0|8
288,96,241269,1,0
224,64,241505,2,0,B|224:224,1,160,0|8
224,288,242214,1,0
160,320,242450,2,0,B|160:128,3,160,0|8|0|8
208,64,244340,6,0,B|256:128|256:128|304:64,1,160,0|8
320,128,245048,1,0
384,144,245284,2,0,B|320:192|320:192|384:240,1,160,0|8
320,256,245993,1,0
304,320,246229,2,0,B|256:256|256:256|208:320,1,160,0|8
192,256,246938,1,0
128,240,247174,2,0,B|192:192|192:192|128:144,1,160,0|8
192,128,247883,1,0
256,128,248119,6,0,B|256:32,1,80,4|0
320,192,248591,2,0,B|416:192,1,80,4|0
256,256,249064,2,0,B|256:352,1,80,4|0
192,192,249536,2,0,B|96:192,1,80,4|0
256,192,250009,1,4
256,192,250245,1,4
256,192,250481,1,4
256,192,250954,12,4,251899
