osu file format v14

[General]
AudioFilename: halloween.mp3
AudioLeadIn: 0
PreviewTime: 63553
Countdown: 1
SampleSet: Normal
StackLeniency: 0.7
Mode: 0
LetterboxInBreaks: 1
WidescreenStoryboard: 0

[Editor]
DistanceSpacing: 2
BeatDivisor: 4
GridSize: 8
TimelineZoom: 1

[Metadata]
Title:This Is Halloween
TitleUnicode:This Is Halloween
Artist:Marilyn Manson
ArtistUnicode:Marilyn Manson
Creator:coldsoup
Version:Unscary
Source:The Nightmare Before Christmas
Tags:cover gothic rock metal English Nightmare Revisited Tim Burton's Walt Disney Pictures Danny Elfman
BeatmapID:198360
BeatmapSetID:62679

[Difficulty]
HPDrainRate:2
CircleSize:3
OverallDifficulty:2
ApproachRate:6
SliderMultiplier:0.400000005960464
SliderTickRate:1

[Events]
//Background and Video events
0,0,"bg1.jpg",0,0
//Break Periods
2,55896,80003
2,114110,121789
2,156967,163217
2,169467,179646
2,184110,186164
//Storyboard Layer 0 (Background)
//Storyboard Layer 1 (Fail)
//Storyboard Layer 2 (Pass)
//Storyboard Layer 3 (Foreground)
//Storyboard Layer 4 (Overlay)
//Storyboard Sound Samples

[TimingPoints]
7125,357.142857142857,4,1,0,40,1,0

[Colours]
Combo1 : 202,202,202
Combo2 : 82,82,82
Combo3 : 150,129,211
Combo4 : 247,30,203

[HitObjects]
256,48,17125,5,0,0:0:0:0:
256,128,17482,1,2,0:0:0:0:
256,208,17839,1,0,0:0:0:0:
256,288,18196,1,2,0:0:0:0:
176,288,18553,2,0,P|152:288|152:288,2,20.0000002980232
256,288,19267,2,0,L|304:288,1,40.0000005960464
368,328,19982,6,0,P|384:344|384:344,2,20.0000002980232
368,248,20696,2,0,P|384:232|384:232,2,20.0000002980232
288,248,21410,1,0,0:0:0:0:
208,248,21767,1,0,0:0:0:0:
128,248,22124,2,0,L|128:208,1,40.0000005960464
128,128,22839,5,0,0:0:0:0:
208,128,23196,1,2,0:0:0:0:
288,128,23553,1,2,0:0:0:0:
288,208,23910,1,0,0:0:0:0:
368,208,24267,1,0,0:0:0:0:
448,208,24624,1,0,0:0:0:0:
448,128,24982,1,0,0:0:0:0:
448,288,25696,5,2,0:0:0:0:
368,288,26053,1,0,0:0:0:0:
288,288,26410,1,0,0:0:0:0:
288,208,26767,1,0,0:0:0:0:
208,208,27124,1,0,0:0:0:0:
128,208,27481,1,0,0:0:0:0:
128,288,27839,1,0,0:0:0:0:
248,192,28553,5,0,0:0:0:0:
248,192,28910,1,0,0:0:0:0:
248,112,29267,2,0,P|248:88|248:88,2,20.0000002980232
248,192,29982,1,0,0:0:0:0:
248,192,30339,1,0,0:0:0:0:
248,272,30696,2,0,P|248:296|248:296,2,20.0000002980232
248,192,31410,5,0,0:0:0:0:
168,192,31767,1,0,0:0:0:0:
88,192,32124,1,2,0:0:0:0:
88,112,32482,2,0,P|64:112|64:112,2,20.0000002980232
168,112,33196,1,0,0:0:0:0:
248,112,33553,1,6,0:0:0:0:
256,272,34267,5,0,0:0:0:0:
256,272,34624,1,0,0:0:0:0:
176,272,34982,2,0,P|152:272|152:272,2,20.0000002980232
176,192,35696,6,0,B|160:192|152:192|152:192,6,20.0000002980232
256,192,37124,5,8,0:0:0:0:
256,192,37482,1,0,0:0:0:0:
336,192,37839,1,8,0:0:0:0:
416,192,38196,2,0,P|440:192|440:192,8,20.0000002980232
336,192,39982,5,4,0:0:0:0:
256,192,40339,1,0,0:0:0:0:
176,192,40696,1,2,0:0:0:0:
256,56,41410,6,0,B|272:56|280:56|280:56,2,20.0000002980232
176,56,42124,2,0,L|176:136,1,80.0000011920928
256,136,43196,1,0,0:0:0:0:
336,136,43553,1,0,0:0:0:0:
336,216,43910,1,0,0:0:0:0:
256,216,44267,1,8,0:0:0:0:
176,216,44624,1,8,0:0:0:0:
96,216,44982,5,12,0:0:0:0:
96,136,45339,2,0,B|80:136|72:136|72:136,2,20.0000002980232
176,136,46053,2,0,P|176:112|176:112,4,20.0000002980232
256,136,47124,1,8,0:0:0:0:
256,136,47482,1,8,0:0:0:0:
256,216,47839,5,0,0:0:0:0:
256,296,48196,1,0,0:0:0:0:
336,296,48553,1,2,0:0:0:0:
256,296,48910,1,0,0:0:0:0:
176,296,49267,1,0,0:0:0:0:
176,216,49624,1,2,0:0:0:0:
256,216,49982,1,2,0:0:0:0:
256,216,50339,1,2,0:0:0:0:
256,136,50696,5,0,0:0:0:0:
336,136,51053,2,0,P|360:136|360:136,2,20.0000002980232
336,216,51767,2,0,P|336:240|336:240,4,20.0000002980232
256,216,52839,2,0,L|208:216,1,40.0000005960464
216,136,53553,6,0,P|216:112|216:112,2,20.0000002980232
296,136,54267,1,0,0:0:0:0:
376,136,54624,1,0,0:0:0:0:
456,136,54982,2,0,P|456:112|456:112,4,20.0000002980232
256,192,81053,6,0,P|256:216|256:216,4,20.0000002980232
256,272,82124,2,0,P|256:296|256:296,6,20.0000002980232
256,192,83553,5,2,0:0:0:0:
256,112,83910,1,0,0:0:0:0:
336,112,84267,2,0,L|336:160,1,40.0000005960464
336,232,84982,1,2,0:0:0:0:
336,232,85339,1,2,0:0:0:0:
336,232,85696,1,6,0:0:0:0:
184,192,86410,6,0,P|160:192|160:192,2,20.0000002980232
184,272,87124,2,0,B|168:272|160:272|160:272,2,20.0000002980232
264,272,87839,2,0,P|288:272|288:272,6,20.0000002980232
256,192,89267,1,2,0:0:0:0:
256,112,89624,2,0,P|256:88|256:88,2,20.0000002980232
336,112,90339,2,0,P|336:88|336:88,2,20.0000002980232
336,192,91053,1,0,0:0:0:0:
336,192,91410,1,2,0:0:0:0:
336,192,91767,1,2,0:0:0:0:
336,272,92124,6,0,P|360:272|360:272,2,20.0000002980232
256,272,92839,2,0,L|216:272,1,40.0000005960464
216,192,93553,2,0,P|240:192|240:192,2,20.0000002980232
136,192,94267,2,0,L|136:232,1,40.0000005960464
136,312,94982,5,0,0:0:0:0:
216,312,95339,1,0,0:0:0:0:
216,232,95696,1,0,0:0:0:0:
216,152,96053,1,0,0:0:0:0:
216,72,96410,1,8,0:0:0:0:
216,72,96767,1,8,0:0:0:0:
216,72,97124,5,8,0:0:0:0:
296,72,97482,2,0,P|320:72|320:72,2,20.0000002980232
296,152,98196,2,0,B|312:152|320:152|320:152,2,20.0000002980232
216,152,98910,1,0,0:0:0:0:
136,152,99267,1,0,0:0:0:0:
256,256,99982,5,0,0:0:0:0:
176,256,100339,2,0,P|152:256|152:256,2,20.0000002980232
176,176,101053,1,2,0:0:0:0:
176,96,101410,2,0,P|176:72|176:72,4,20.0000002980232
304,192,102839,5,0,0:0:0:0:
224,192,103196,2,0,P|200:192|200:192,2,20.0000002980232
304,192,103910,2,0,B|320:192|328:192|328:192,2,20.0000002980232
304,112,104624,1,2,0:0:0:0:
224,112,104982,2,2,L|184:112,1,40.0000005960464
184,192,105696,5,0,0:0:0:0:
264,192,106053,2,0,P|288:192|288:192,2,20.0000002980232
264,272,106767,2,0,P|240:272|240:272,2,20.0000002980232
344,272,107482,1,0,0:0:0:0:
344,192,107839,2,0,L|344:152,1,40.0000005960464
344,72,108553,5,2,0:0:0:0:
424,72,108910,2,0,P|448:72|448:72,6,20.0000002980232
424,152,110339,1,0,0:0:0:0:
424,232,110696,2,0,L|384:232,1,40.0000005960464
304,232,111410,6,0,B|304:248|304:256|304:256,2,20.0000002980232
304,152,112124,1,2,0:0:0:0:
224,152,112482,2,0,P|224:128|224:128,2,20.0000002980232
224,232,113196,1,0,0:0:0:0:
304,232,113553,2,2,L|352:232,1,40.0000005960464
256,48,122839,6,0,L|256:96,1,40.0000005960464
256,168,123553,2,0,L|256:216,1,40.0000005960464
256,288,124267,2,0,P|256:312|256:312,2,20.0000002980232
256,208,124982,2,0,L|256:168,1,40.0000005960464
256,88,125696,5,0,0:0:0:0:
256,88,126053,1,0,0:0:0:0:
256,88,126410,1,6,0:0:0:0:
256,88,126767,1,0,0:0:0:0:
256,168,127124,2,0,P|256:192|256:192,6,20.0000002980232
256,248,128553,5,0,0:0:0:0:
176,248,128910,1,0,0:0:0:0:
176,328,129267,1,0,0:0:0:0:
256,328,129624,1,2,0:0:0:0:
336,328,129982,1,2,0:0:0:0:
336,248,130339,1,2,0:0:0:0:
336,168,130696,1,2,0:0:0:0:
176,192,131410,5,0,0:0:0:0:
256,192,131767,1,0,0:0:0:0:
336,192,132124,1,2,0:0:0:0:
416,192,132482,1,0,0:0:0:0:
416,272,132839,1,0,0:0:0:0:
416,272,133196,1,0,0:0:0:0:
416,272,133553,2,0,L|376:272,1,40.0000005960464
368,192,134267,5,0,0:0:0:0:
288,192,134624,1,0,0:0:0:0:
208,192,134982,2,0,L|168:192,1,40.0000005960464
88,192,135696,5,0,0:0:0:0:
88,192,136053,1,0,0:0:0:0:
88,272,136410,2,0,P|64:272|64:272,2,20.0000002980232
168,272,137124,2,0,P|168:296|168:296,8,20.0000002980232
168,192,138910,1,0,0:0:0:0:
168,192,139267,1,0,0:0:0:0:
168,192,139624,1,0,0:0:0:0:
248,192,139982,6,0,P|272:192|272:192,2,20.0000002980232
248,272,140696,1,0,0:0:0:0:
328,272,141053,1,0,0:0:0:0:
328,192,141410,2,0,P|352:192|352:192,4,20.0000002980232
248,192,142482,1,0,0:0:0:0:
248,112,142839,1,2,0:0:0:0:
328,112,143196,2,0,P|352:112|352:112,4,20.0000002980232
328,192,144267,6,0,P|352:192|352:192,2,20.0000002980232
248,192,144982,2,0,B|232:192|224:192|224:192,2,20.0000002980232
408,192,146053,6,0,P|432:192|432:192,4,20.0000002980232
408,272,147124,2,0,P|432:272|432:272,6,20.0000002980232
328,272,148553,6,0,P|328:296|328:296,4,20.0000002980232
328,192,149624,1,2,0:0:0:0:
248,192,149982,2,0,L|248:216,1,20.0000002980232
208,192,150339,2,0,L|208:216,1,20.0000002980232
168,192,150696,2,0,L|168:256,1,60.0000008940696
208,248,151410,5,8,0:0:0:0:
288,248,151767,1,2,0:0:0:0:
368,248,152124,1,2,0:0:0:0:
368,248,152482,1,2,0:0:0:0:
368,168,152839,5,12,0:0:0:0:
368,88,153196,2,0,P|392:88|392:88,4,20.0000002980232
288,88,154267,2,0,P|288:64|288:64,2,20.0000002980232
288,168,154982,1,0,0:0:0:0:
368,168,155339,2,0,P|368:144|368:144,4,20.0000002980232
368,248,156410,2,0,L|320:248,1,40.0000005960464
256,48,164267,5,0,0:0:0:0:
256,48,164624,1,0,0:0:0:0:
256,128,164982,2,0,L|256:176,1,40.0000005960464
256,248,165696,1,0,0:0:0:0:
256,248,166053,1,0,0:0:0:0:
256,168,166410,2,0,L|256:128,1,40.0000005960464
256,48,167124,6,0,B|272:48|280:48|280:48,2,20.0000002980232
176,48,167839,1,0,0:0:0:0:
176,128,168196,2,8,P|152:128|152:128,2,20.0000002980232
256,128,168910,1,8,0:0:0:0:
336,128,169267,1,12,0:0:0:0:
256,192,180696,12,0,183910,0:0:0:0:
256,48,187214,5,0,0:0:0:0:
256,88,187392,1,2,0:0:0:0:
256,128,187571,1,0,0:0:0:0:
256,208,187928,1,0,0:0:0:0:
256,248,188107,1,2,0:0:0:0:
256,288,188285,1,0,0:0:0:0:
