osu file format v14

[General]
AudioFilename: halloween.mp3
AudioLeadIn: 0
PreviewTime: 63551
Countdown: 1
SampleSet: Normal
StackLeniency: 0.7
Mode: 2
LetterboxInBreaks: 1
WidescreenStoryboard: 0

[Editor]
DistanceSpacing: 2
BeatDivisor: 4
GridSize: 8
TimelineZoom: 1

[Metadata]
Title:This Is Halloween
TitleUnicode:This Is Halloween
Artist:Marilyn Manson
ArtistUnicode:Marilyn Manson
Creator:coldsoup
Version:Nightmare
Source:The Nightmare Before Christmas
Tags:cover gothic rock metal English Nightmare Revisited Tim Burton's Walt Disney Pictures Danny Elfman
BeatmapID:191818
BeatmapSetID:62679

[Difficulty]
HPDrainRate:7
CircleSize:4
OverallDifficulty:5
ApproachRate:9
SliderMultiplier:3.59999990463257
SliderTickRate:2

[Events]
//Background and Video events
0,0,"bg1.jpg",0,0
//Break Periods
2,68753,81524
2,184110,186614
//Storyboard Layer 0 (Background)
//Storyboard Layer 1 (Fail)
//Storyboard Layer 2 (Pass)
//Storyboard Layer 3 (Foreground)
//Storyboard Layer 4 (Overlay)
//Storyboard Sound Samples

[TimingPoints]
7125,357.142857142857,4,1,0,30,1,0
42124,-129.87012987013,4,1,0,30,0,0
42659,-100,4,1,0,30,0,0
62839,-129.87012987013,4,1,0,30,0,0
63553,-100,4,1,0,30,0,0
121410,-66.6666666666667,4,1,0,30,0,0
122839,-100,4,1,0,30,0,0

[Colours]
Combo1 : 202,202,202
Combo2 : 82,82,82
Combo3 : 150,129,211
Combo4 : 247,30,203

[HitObjects]
48,40,2839,6,0,B|48:232|48:232|264:232,1,359.999990463257
464,344,3553,2,0,B|464:160|464:160|272:160,1,359.999990463257
464,40,4267,2,0,B|464:232|464:232|272:232,1,359.999990463257
48,344,4982,2,0,B|48:160|48:160|224:160,1,359.999990463257
464,40,5696,6,0,B|464:136|464:136|192:136,1,359.999990463257
464,344,6410,2,0,B|464:248|464:248|200:248,1,359.999990463257
48,40,7125,2,0,B|48:136|48:136|312:136,1,359.999990463257
64,344,7839,1,0,0:0:0:0:
448,40,8196,1,0,0:0:0:0:
256,40,8553,6,0,B|256:224|256:224|72:224,1,359.999990463257
256,344,9267,2,0,B|256:160|256:160|432:160,1,359.999990463257
256,40,9982,2,0,B|192:104|192:104|256:168|256:168|192:232|192:232|256:296,1,359.999990463257
256,40,10696,2,0,B|256:136|256:136|40:136|40:136|24:192,1,359.999990463257
256,192,11410,12,0,13196,0:0:0:0:
64,192,13553,5,0,0:0:0:0:
448,192,13910,1,0,0:0:0:0:
256,192,14267,12,0,15517,0:0:0:0:
256,192,15696,12,0,16946,0:0:0:0:
64,40,17125,5,0,0:0:0:0:
448,192,17482,1,0,0:0:0:0:
64,344,17839,1,0,0:0:0:0:
448,200,18196,1,0,0:0:0:0:
256,192,18553,1,0,0:0:0:0:
64,192,18732,1,0,0:0:0:0:
256,192,18910,1,0,0:0:0:0:
256,8,19267,2,0,L|256:376,1,359.999990463257
448,192,19982,5,0,0:0:0:0:
256,192,20160,1,0,0:0:0:0:
64,192,20339,1,0,0:0:0:0:
448,192,20696,1,0,0:0:0:0:
256,192,20874,1,0,0:0:0:0:
64,192,21053,1,0,0:0:0:0:
256,344,21232,2,0,L|56:344,1,179.999995231629
256,40,21589,2,0,L|440:40,1,179.999995231629
472,40,21946,2,0,B|288:40|288:40|256:216|256:216|224:40|224:40|32:40,1,719.999980926514
48,344,22839,5,0,0:0:0:0:
256,344,23196,1,0,0:0:0:0:
48,192,23553,1,0,0:0:0:0:
256,192,23910,1,0,0:0:0:0:
48,40,24267,1,0,0:0:0:0:
256,40,24624,1,0,0:0:0:0:
448,192,24982,2,0,L|80:192,1,359.999990463257
464,40,25696,5,0,0:0:0:0:
256,40,26053,1,0,0:0:0:0:
464,192,26410,1,0,0:0:0:0:
256,192,26767,1,0,0:0:0:0:
464,344,27124,1,0,0:0:0:0:
256,344,27482,1,0,0:0:0:0:
64,192,27839,2,0,L|432:192,1,359.999990463257
456,192,28553,5,0,0:0:0:0:
56,192,28910,1,0,0:0:0:0:
456,192,29267,1,0,0:0:0:0:
240,192,29446,1,0,0:0:0:0:
456,192,29624,1,0,0:0:0:0:
56,192,29982,5,0,0:0:0:0:
456,192,30339,1,0,0:0:0:0:
56,192,30696,1,0,0:0:0:0:
272,192,30874,1,0,0:0:0:0:
56,192,31053,1,0,0:0:0:0:
448,192,31410,5,0,0:0:0:0:
64,192,31767,1,0,0:0:0:0:
256,136,32124,2,0,L|256:320,1,179.999995231629
64,192,32482,1,0,0:0:0:0:
256,40,32660,1,0,0:0:0:0:
256,344,32839,2,0,L|56:344,1,179.999995231629
256,344,33196,2,0,L|440:344,1,179.999995231629
464,192,33553,2,0,B|416:192|416:192|80:192,1,359.999990463257
56,192,34267,5,0,0:0:0:0:
456,192,34624,1,0,0:0:0:0:
56,192,34982,1,0,0:0:0:0:
272,192,35160,1,0,0:0:0:0:
56,192,35339,1,0,0:0:0:0:
448,192,35696,5,0,0:0:0:0:
256,40,35874,1,0,0:0:0:0:
64,192,36053,1,0,0:0:0:0:
256,344,36232,1,0,0:0:0:0:
448,192,36410,1,0,0:0:0:0:
256,40,36589,1,0,0:0:0:0:
64,192,36767,2,0,L|256:192,1,179.999995231629
448,192,37124,5,0,0:0:0:0:
64,192,37482,1,0,0:0:0:0:
448,192,37839,1,0,0:0:0:0:
256,40,38196,1,0,0:0:0:0:
256,40,38374,1,0,0:0:0:0:
256,344,38553,2,0,L|56:344,1,179.999995231629
256,344,38910,2,0,L|440:344,1,179.999995231629
448,192,39267,1,0,0:0:0:0:
448,192,39446,1,0,0:0:0:0:
256,192,39624,2,0,B|232:192|232:192|280:192|280:192|224:192|224:192|288:192|288:192|256:256,1,179.999995231629
448,192,39982,5,0,0:0:0:0:
64,192,40339,1,0,0:0:0:0:
64,192,40696,2,0,B|160:192|160:192|272:344|272:344|352:344,1,359.999990463257
256,40,41410,2,0,L|64:40,1,179.999995231629
256,344,41767,2,0,L|456:344,1,179.999995231629
464,192,42124,2,0,L|48:192,1,415.799980737076
48,40,42839,5,0,0:0:0:0:
120,40,43196,1,0,0:0:0:0:
192,40,43553,1,0,0:0:0:0:
264,40,43910,1,0,0:0:0:0:
336,40,44267,1,0,0:0:0:0:
464,40,44624,1,0,0:0:0:0:
336,40,44982,5,0,0:0:0:0:
192,40,45339,1,0,0:0:0:0:
48,40,45517,1,0,0:0:0:0:
192,40,45696,1,0,0:0:0:0:
256,344,46053,2,0,L|56:344,1,179.999995231629
256,344,46410,2,0,L|456:344,1,179.999995231629
256,280,46767,2,0,L|256:96,1,179.999995231629
256,40,47124,2,0,B|160:192|160:192|344:192,1,359.999990463257
448,192,47839,5,0,0:0:0:0:
256,192,48196,1,0,0:0:0:0:
64,192,48553,1,0,0:0:0:0:
256,192,48910,1,0,0:0:0:0:
256,40,49267,1,0,0:0:0:0:
256,344,49624,2,0,B|192:280|192:280|288:280,1,179.999995231629
448,192,49982,2,0,B|264:192|264:192|136:64,1,359.999990463257
64,192,50696,5,0,0:0:0:0:
256,192,51053,1,0,0:0:0:0:
448,192,51232,1,0,0:0:0:0:
256,192,51410,1,0,0:0:0:0:
104,344,51767,2,0,L|256:192,1,179.999995231629
408,40,52124,2,0,L|256:192,1,179.999995231629
408,344,52482,2,0,L|256:192,1,179.999995231629
64,192,52839,2,0,B|272:16|272:16|272:200|272:200|392:200,1,539.999985694885
448,192,53553,6,0,L|256:192,1,179.999995231629
64,192,53910,1,0,0:0:0:0:
256,192,54267,1,0,0:0:0:0:
448,192,54624,1,0,0:0:0:0:
256,336,54982,2,0,L|72:336,1,179.999995231629
256,40,55339,1,0,0:0:0:0:
448,40,55517,1,0,0:0:0:0:
256,112,55696,2,0,B|256:336|256:336|256:176|256:176,1,359.999990463257
456,192,56410,5,0,0:0:0:0:
56,192,56767,1,0,0:0:0:0:
456,192,57124,1,0,0:0:0:0:
240,192,57303,1,0,0:0:0:0:
456,192,57482,1,0,0:0:0:0:
56,192,57839,5,0,0:0:0:0:
456,192,58196,1,0,0:0:0:0:
56,192,58553,1,0,0:0:0:0:
272,192,58732,1,0,0:0:0:0:
56,192,58910,1,0,0:0:0:0:
456,192,59267,5,0,0:0:0:0:
256,40,59446,1,0,0:0:0:0:
56,192,59624,1,0,0:0:0:0:
456,192,59982,1,0,0:0:0:0:
256,344,60160,1,0,0:0:0:0:
56,192,60339,1,0,0:0:0:0:
56,40,60696,5,0,0:0:0:0:
256,40,60874,1,0,0:0:0:0:
56,40,61053,1,0,0:0:0:0:
456,344,61410,1,0,0:0:0:0:
256,344,61589,1,0,0:0:0:0:
456,344,61767,1,0,0:0:0:0:
256,40,62124,5,0,0:0:0:0:
64,192,62303,1,0,0:0:0:0:
256,336,62482,1,0,0:0:0:0:
448,192,62660,1,0,0:0:0:0:
464,192,62839,2,0,L|32:192,1,415.799980737076
256,192,63553,5,0,0:0:0:0:
256,192,63910,1,0,0:0:0:0:
64,192,64267,2,0,P|368:192|432:192,1,359.999990463257
448,192,64982,5,0,0:0:0:0:
448,192,65339,1,0,0:0:0:0:
448,192,65696,2,0,L|88:192,1,359.999990463257
64,192,66410,2,0,P|256:192|256:192,2,179.999995231629
448,192,67124,1,0,0:0:0:0:
64,192,67482,1,0,0:0:0:0:
256,192,67660,1,0,0:0:0:0:
56,192,67839,1,0,0:0:0:0:
456,192,68196,1,0,0:0:0:0:
56,192,68553,1,0,0:0:0:0:
256,336,82124,6,0,L|48:336,1,179.999995231629
256,40,82482,2,0,L|480:40,1,179.999995231629
256,336,82839,2,0,L|480:336,1,179.999995231629
256,40,83196,2,0,L|48:40,1,179.999995231629
448,192,83553,5,0,0:0:0:0:
64,192,83910,1,0,0:0:0:0:
344,192,84178,2,0,L|152:192,1,179.999995231629
448,192,84624,1,0,0:0:0:0:
64,192,84982,1,0,0:0:0:0:
448,192,85339,1,0,0:0:0:0:
64,192,85696,1,0,0:0:0:0:
256,192,86008,2,0,P|208:192|208:192,2,44.9999988079071
64,344,86410,5,0,0:0:0:0:
256,344,86589,1,0,0:0:0:0:
448,344,86767,1,0,0:0:0:0:
64,40,87124,1,0,0:0:0:0:
256,40,87303,1,0,0:0:0:0:
448,40,87482,1,0,0:0:0:0:
64,40,87839,2,0,L|160:192,1,179.999995231629
448,344,88196,2,0,L|352:192,1,179.999995231629
64,344,88553,2,0,L|160:192,1,179.999995231629
448,40,88910,2,0,L|352:192,1,179.999995231629
448,192,89267,5,0,0:0:0:0:
256,192,89624,1,0,0:0:0:0:
64,192,89803,1,0,0:0:0:0:
256,192,89982,1,0,0:0:0:0:
448,192,90339,1,0,0:0:0:0:
256,192,90517,1,0,0:0:0:0:
448,192,90696,1,0,0:0:0:0:
64,192,91053,1,0,0:0:0:0:
88,72,91410,2,0,B|88:296|88:296|88:192|88:192|40:192|40:192,1,359.999990463257
256,344,92124,6,0,L|72:344,1,179.999995231629
256,344,92482,2,0,L|448:344,1,179.999995231629
256,192,92839,12,0,93374,0:0:0:0:
256,32,93553,6,0,L|488:32,1,179.999995231629
256,32,93910,2,0,L|64:32,1,179.999995231629
256,192,94267,12,0,94803,0:0:0:0:
256,192,94982,5,0,0:0:0:0:
224,192,95339,1,0,0:0:0:0:
184,192,95696,1,0,0:0:0:0:
128,192,96053,1,0,0:0:0:0:
64,192,96410,1,0,0:0:0:0:
448,192,96767,1,0,0:0:0:0:
64,192,97124,5,0,0:0:0:0:
256,192,97482,1,0,0:0:0:0:
448,192,97660,1,0,0:0:0:0:
256,192,97839,1,0,0:0:0:0:
64,192,98196,1,0,0:0:0:0:
256,192,98374,1,0,0:0:0:0:
256,344,98553,2,0,L|456:344,1,179.999995231629
256,344,98910,2,0,L|72:344,1,179.999995231629
80,344,99267,2,0,B|72:248|72:248|248:40,1,359.999990463257
64,192,99982,5,0,0:0:0:0:
448,192,100339,1,0,0:0:0:0:
256,192,100517,1,0,0:0:0:0:
64,192,100696,1,0,0:0:0:0:
448,192,101053,1,0,0:0:0:0:
64,192,101410,1,0,0:0:0:0:
256,192,101589,1,0,0:0:0:0:
448,192,101767,1,0,0:0:0:0:
256,192,101946,1,0,0:0:0:0:
64,192,102124,2,0,B|272:192|272:192|432:192,1,359.999990463257
256,336,102839,5,0,0:0:0:0:
184,192,103196,1,0,0:0:0:0:
336,192,103374,1,0,0:0:0:0:
112,192,103553,1,0,0:0:0:0:
408,192,103910,1,0,0:0:0:0:
112,192,104089,1,0,0:0:0:0:
336,192,104267,1,0,0:0:0:0:
256,344,104624,2,0,L|440:344,1,179.999995231629
256,344,104982,2,0,B|72:344|72:344|72:32|72:32|72:120,1,539.999985694885
64,192,105696,5,0,0:0:0:0:
64,192,106053,1,0,0:0:0:0:
256,192,106232,1,0,0:0:0:0:
64,192,106410,1,0,0:0:0:0:
256,40,106767,2,0,L|64:40,1,179.999995231629
256,344,107124,2,0,L|440:344,1,179.999995231629
256,40,107482,2,0,L|440:40,1,179.999995231629
256,344,107839,2,0,L|72:344,1,179.999995231629
448,192,108553,5,0,0:0:0:0:
64,192,108910,1,0,0:0:0:0:
64,192,109089,1,0,0:0:0:0:
400,336,109267,2,0,L|256:192,1,179.999995231629
64,192,109624,1,0,0:0:0:0:
64,192,109803,1,0,0:0:0:0:
256,40,109982,2,0,L|448:40,1,179.999995231629
256,112,110339,2,0,L|440:112,1,179.999995231629
256,184,110696,2,0,B|432:184|432:184|432:296|432:368,1,359.999990463257
256,192,111410,6,0,L|48:192,1,179.999995231629
64,192,111767,1,0,0:0:0:0:
104,344,112124,2,0,L|256:192,1,179.999995231629
256,192,112482,1,0,0:0:0:0:
448,192,112660,1,0,0:0:0:0:
256,32,112839,2,0,L|64:32,1,179.999995231629
256,96,113196,2,0,L|72:96,1,179.999995231629
256,344,113553,2,0,B|440:344|440:344|440:152|440:152,1,359.999990463257
56,192,114267,5,0,0:0:0:0:
456,192,114624,1,0,0:0:0:0:
56,192,114982,1,0,0:0:0:0:
272,192,115160,1,0,0:0:0:0:
56,192,115339,1,0,0:0:0:0:
456,192,115696,5,0,0:0:0:0:
56,192,116053,1,0,0:0:0:0:
456,192,116410,1,0,0:0:0:0:
240,192,116589,1,0,0:0:0:0:
456,192,116767,1,0,0:0:0:0:
56,192,117124,5,0,0:0:0:0:
272,192,117303,1,0,0:0:0:0:
56,192,117482,1,0,0:0:0:0:
456,192,117839,5,0,0:0:0:0:
240,192,118017,1,0,0:0:0:0:
456,192,118196,1,0,0:0:0:0:
56,192,118553,5,0,0:0:0:0:
272,192,118732,1,0,0:0:0:0:
56,192,118910,1,0,0:0:0:0:
456,192,119267,5,0,0:0:0:0:
240,192,119446,1,0,0:0:0:0:
456,192,119624,1,0,0:0:0:0:
56,192,119982,5,0,0:0:0:0:
272,192,120160,1,0,0:0:0:0:
56,192,120339,1,0,0:0:0:0:
464,192,120696,5,0,0:0:0:0:
240,192,120874,1,0,0:0:0:0:
456,192,121053,1,0,0:0:0:0:
256,344,121410,6,0,L|256:72,1,270.000003147125
256,344,121767,2,0,L|200:80,1,270.000003147125
256,344,122124,2,0,L|344:88,1,270.000003147125
256,344,122482,2,0,L|104:120,1,270.000003147125
64,32,122839,6,0,B|64:360|64:360|64:272,1,359.999990463257
448,40,123553,2,0,B|448:368|448:368|448:280,1,359.999990463257
64,192,124267,1,0,0:0:0:0:
256,192,124446,1,0,0:0:0:0:
448,192,124624,1,0,0:0:0:0:
432,256,124982,2,0,L|64:256,1,359.999990463257
256,40,125696,6,0,L|448:40,1,179.999995231629
256,104,126053,2,0,L|456:104,1,179.999995231629
256,176,126410,2,0,L|456:176,1,179.999995231629
256,248,126767,2,0,L|448:248,1,179.999995231629
256,248,127124,1,0,0:0:0:0:
64,192,127303,1,0,0:0:0:0:
256,104,127482,1,0,0:0:0:0:
64,192,127839,2,0,L|440:192,1,359.999990463257
464,192,128553,5,0,0:0:0:0:
384,192,128910,1,0,0:0:0:0:
304,192,129267,1,0,0:0:0:0:
224,192,129624,1,0,0:0:0:0:
144,192,129982,1,0,0:0:0:0:
64,192,130339,1,0,0:0:0:0:
48,48,130696,1,0,0:0:0:0:
464,48,131410,5,0,0:0:0:0:
448,192,131767,1,0,0:0:0:0:
368,192,132124,1,0,0:0:0:0:
288,192,132482,1,0,0:0:0:0:
208,192,132839,1,0,0:0:0:0:
128,192,133196,1,0,0:0:0:0:
48,192,133553,1,0,0:0:0:0:
64,336,134267,5,0,0:0:0:0:
256,336,134624,1,0,0:0:0:0:
448,344,134982,2,0,L|64:344,1,359.999990463257
64,192,135696,5,0,0:0:0:0:
256,192,136053,1,0,0:0:0:0:
448,192,136410,1,0,0:0:0:0:
256,192,136589,1,0,0:0:0:0:
64,192,136767,1,0,0:0:0:0:
256,40,137124,6,0,L|64:40,1,179.999995231629
256,40,137482,2,0,L|472:40,1,179.999995231629
256,344,137839,2,0,L|256:152,1,179.999995231629
64,192,138196,1,0,0:0:0:0:
256,344,138374,1,0,0:0:0:0:
256,192,138553,2,0,L|464:192,1,179.999995231629
256,192,138910,2,0,L|64:192,1,179.999995231629
128,128,139267,2,0,B|64:192|64:192|208:48|208:48|208:192,1,359.999990463257
448,192,139982,5,0,0:0:0:0:
256,192,140160,1,0,0:0:0:0:
64,192,140339,1,0,0:0:0:0:
448,192,140696,1,0,0:0:0:0:
64,192,141053,1,0,0:0:0:0:
200,32,141410,5,0,0:0:0:0:
312,32,141589,1,0,0:0:0:0:
200,32,141767,1,0,0:0:0:0:
312,32,141946,1,0,0:0:0:0:
200,32,142124,1,0,0:0:0:0:
64,192,142482,1,0,0:0:0:0:
448,192,142839,5,0,0:0:0:0:
256,336,143196,1,0,0:0:0:0:
184,336,143374,1,0,0:0:0:0:
112,336,143553,2,0,P|112:192|88:168,1,179.999995231629
448,48,143910,2,0,P|448:192|472:216,1,179.999995231629
448,344,144267,5,0,0:0:0:0:
448,344,144446,1,0,0:0:0:0:
448,344,144624,1,0,0:0:0:0:
64,192,144982,1,0,0:0:0:0:
64,192,145160,1,0,0:0:0:0:
64,192,145339,1,0,0:0:0:0:
448,192,145696,6,0,L|448:136,1,44.9999988079071
256,40,146053,5,0,0:0:0:0:
184,40,146232,1,0,0:0:0:0:
400,40,146410,1,0,0:0:0:0:
112,40,146589,1,0,0:0:0:0:
472,40,146767,1,0,0:0:0:0:
224,344,147124,6,0,L|416:344,1,179.999995231629
288,344,147482,2,0,L|96:344,1,179.999995231629
48,192,147839,2,0,B|192:192|192:192|256:256|256:256|320:192|320:192|416:192,1,359.999990463257
48,192,148553,5,0,0:0:0:0:
120,192,148732,1,0,0:0:0:0:
200,192,148910,1,0,0:0:0:0:
288,192,149089,1,0,0:0:0:0:
400,192,149267,1,0,0:0:0:0:
120,192,149624,1,0,0:0:0:0:
256,344,149982,6,0,L|440:344,1,179.999995231629
256,344,150339,2,0,L|56:344,1,179.999995231629
256,192,150696,2,0,B|248:192|248:192|264:192|264:192|240:192|240:192|272:192|272:192|232:192|232:192|280:192|280:192|224:192|224:192|288:192|288:192|216:192|216:192|296:192|296:192|208:192|208:192|304:192|304:192,1,539.999985694885
64,192,151410,5,0,0:0:0:0:
448,192,151767,1,0,0:0:0:0:
64,192,152124,1,0,0:0:0:0:
448,192,152482,1,0,0:0:0:0:
256,40,152749,1,0,0:0:0:0:
448,192,153196,5,0,0:0:0:0:
256,192,153374,1,0,0:0:0:0:
64,192,153553,1,0,0:0:0:0:
64,192,153732,1,0,0:0:0:0:
448,192,153910,1,0,0:0:0:0:
256,344,154267,5,0,0:0:0:0:
256,344,154624,1,0,0:0:0:0:
256,40,154982,1,0,0:0:0:0:
448,192,155339,1,0,0:0:0:0:
256,192,155517,1,0,0:0:0:0:
64,192,155696,1,0,0:0:0:0:
64,192,155874,1,0,0:0:0:0:
448,192,156053,1,0,0:0:0:0:
256,40,156410,2,0,B|264:40|264:40|248:40|248:40|272:40|272:40|240:40|240:40|280:40|280:40|232:40|232:40|288:40|288:40|224:40|224:40|296:40|296:40|216:40|216:40|304:40|304:40|208:40|208:40,1,539.999985694885
56,192,157124,5,0,0:0:0:0:
456,192,157482,1,0,0:0:0:0:
56,192,157839,1,0,0:0:0:0:
272,192,158017,1,0,0:0:0:0:
56,192,158196,1,0,0:0:0:0:
456,192,158553,5,0,0:0:0:0:
56,192,158910,1,0,0:0:0:0:
456,192,159267,1,0,0:0:0:0:
240,192,159446,1,0,0:0:0:0:
456,192,159624,1,0,0:0:0:0:
56,192,159982,5,0,0:0:0:0:
272,192,160160,1,0,0:0:0:0:
56,192,160339,1,0,0:0:0:0:
456,192,160696,5,0,0:0:0:0:
240,192,160874,1,0,0:0:0:0:
456,192,161053,1,0,0:0:0:0:
56,192,161410,5,0,0:0:0:0:
272,192,161589,1,0,0:0:0:0:
56,192,161767,1,0,0:0:0:0:
456,192,162124,5,0,0:0:0:0:
240,192,162303,1,0,0:0:0:0:
456,192,162482,1,0,0:0:0:0:
256,40,164267,5,0,0:0:0:0:
256,40,164624,1,0,0:0:0:0:
256,40,164982,2,0,B|256:344|256:344|256:208,1,359.999990463257
256,40,165696,5,0,0:0:0:0:
256,40,166053,1,0,0:0:0:0:
256,40,166410,2,0,B|256:352|256:352|256:256,1,359.999990463257
408,344,167124,6,0,L|256:192,1,179.999995231629
256,192,167482,1,0,0:0:0:0:
64,192,167839,1,0,0:0:0:0:
448,192,168196,1,0,0:0:0:0:
256,40,168374,1,0,0:0:0:0:
64,192,168553,1,0,0:0:0:0:
448,192,168910,1,0,0:0:0:0:
448,192,169267,2,0,L|80:192,1,359.999990463257
456,192,169982,5,0,0:0:0:0:
56,192,170696,1,0,0:0:0:0:
456,192,171410,1,0,0:0:0:0:
56,192,172124,1,0,0:0:0:0:
456,192,172482,1,0,0:0:0:0:
56,192,172839,5,0,0:0:0:0:
456,192,173553,1,0,0:0:0:0:
56,192,174267,1,0,0:0:0:0:
456,192,174982,1,0,0:0:0:0:
56,192,175339,1,0,0:0:0:0:
456,192,175696,5,0,0:0:0:0:
56,192,176410,1,0,0:0:0:0:
456,192,177124,1,0,0:0:0:0:
56,192,177839,1,0,0:0:0:0:
456,192,178196,1,0,0:0:0:0:
56,192,178553,5,0,0:0:0:0:
456,192,179267,1,0,0:0:0:0:
56,192,179624,1,0,0:0:0:0:
448,192,179982,1,0,0:0:0:0:
256,192,180696,12,0,183910,0:0:0:0:
456,192,187214,5,0,0:0:0:0:
256,192,187392,1,0,0:0:0:0:
56,192,187571,1,0,0:0:0:0:
456,192,187928,1,0,0:0:0:0:
256,192,188107,1,0,0:0:0:0:
56,192,188285,1,0,0:0:0:0:
