osu file format v4

[General]
AudioFilename: halloween.mp3
AudioLeadIn: 0
AudioHash: 928eb7a3726b81b1af02c0313ec8ff44
PreviewTime: -1
SampleSet: Normal

[Metadata]
Title:This is Halloween
Artist:Marilyn Manson
Creator:RatherDashing42
Version:Insane

[Difficulty]
HPDrainRate:4
CircleSize:6
OverallDifficulty:5
SliderMultiplier: 1.4
SliderTickRate: 1

[Events]
1,-500,"file-14701954.avi"
3,0,163,162,255

[TimingPoints]
7101,357.142857142857,4,1,1

[HitObjects]
48,48,5672,1,0,
112,96,6029,1,0,
176,144,6386,1,0,
240,192,6743,1,0,
304,240,7101,1,0,
368,288,7458,1,0,
432,336,7815,2,0,B|432:336|480:256|432:160|416:192,2,140
368,288,8886,5,0,
304,240,9243,1,0,
240,192,9600,1,0,
176,144,9958,1,0,
112,96,10315,1,0,
48,48,10672,2,0,B|48:48|0:128|64:192,2,140
128,48,11743,5,0,
208,48,12100,1,0,
288,48,12458,1,0,
368,48,12815,1,0,
448,48,13172,1,0,
448,128,13529,2,0,B|448:128|448:288,1,140
448,352,14243,5,0,
368,352,14601,1,0,
288,352,14958,2,0,B|288:352|128:352,1,140
80,352,15672,2,4,B|80:352|-32:352|-16:112,2,280
80,272,17458,5,0,
80,192,17815,1,0,
80,112,18172,1,0,
128,48,18529,1,0,
160,32,18708,1,0,
192,48,18886,1,0,
272,48,19243,1,0,
432,48,19958,5,0,
448,80,20136,1,0,
432,112,20315,1,0,
432,192,20672,1,0,
448,224,20850,1,0,
432,256,21029,1,0,
368,320,21386,2,0,L|368:320|248:251|96:336,1,280
32,320,22815,5,4,
96,272,23172,1,0,
160,224,23529,1,0,
224,176,23886,1,0,
288,128,24243,1,0,
352,64,24600,2,0,B|352:64|400:173|496:80,1,140
464,32,25672,5,0,
384,32,26029,1,0,
304,32,26386,2,0,B|304:32|160:32,1,140
80,32,27100,1,0,
16,80,27458,1,0,
80,128,27815,2,0,B|80:128|37:208|112:320,1,140
80,352,28529,5,4,
160,352,28886,1,0,
240,352,29243,1,0,
272,368,29422,1,0,
304,352,29600,1,0,
384,352,29958,1,0,
464,352,30315,1,0,
464,272,30672,1,0,
480,240,30850,1,0,
464,208,31029,1,0,
464,128,31386,5,0,
400,64,31743,1,0,
336,16,32100,1,0,
256,16,32458,2,0,B|256:16|160:16,1,70
144,16,32815,1,0,
80,64,33172,1,0,
16,112,33529,1,0,
16,272,34243,5,4,
16,352,34600,1,0,
96,352,34958,1,0,
128,368,35136,1,0,
160,352,35315,1,0,
224,352,35672,2,0,B|224:352|256:384|304:336,1,70
336,352,36029,2,0,B|336:352|368:320|400:352,1,70
432,352,36386,1,0,
464,368,36565,1,0,
496,352,36743,1,0,
480,272,37100,5,0,
480,192,37458,1,0,
480,112,37815,1,0,
480,32,38172,1,0,
448,16,38350,1,0,
416,32,38529,2,0,B|416:32|376:1|304:64,1,70
304,32,38886,2,0,B|304:32|272:64|240:32,1,70
192,32,39243,2,0,B|192:32|160:5|128:32,1,70
80,32,39600,1,0,
80,112,39958,5,4,
80,192,40315,1,0,
80,272,40672,2,0,B|80:272|35:271|9:335|80:368,1,140
160,368,41386,1,0,
192,384,41565,1,0,
224,368,41743,1,0,
256,384,41922,1,0,
288,368,42100,2,0,B|288:368|320:268|392:240|485:286|496:400,1,280
400,352,43172,1,0,
432,272,43529,1,0,
464,192,43886,1,0,
464,112,44243,2,0,B|464:112|432:16|352:0|240:16|224:32,1,280
144,32,45315,5,0,
112,16,45493,1,0,
80,32,45672,1,0,
32,96,46029,1,0,
16,128,46208,1,0,
32,160,46386,1,0,
16,192,46565,1,0,
32,224,46743,2,0,B|32:224|-16:288|32:368,1,140
192,352,47815,5,0,
272,352,48172,1,0,
352,352,48529,2,0,B|352:352|427:421|480:336,1,140
480,272,49243,2,0,B|480:272|358:236|496:176,1,140
496,160,49779,1,0,
464,128,49958,1,0,
464,32,50672,5,4,
384,32,51029,1,0,
352,16,51208,1,0,
320,32,51386,1,0,
240,32,51743,1,0,
208,16,51922,1,0,
176,32,52100,1,0,
144,16,52279,1,0,
112,32,52458,2,0,B|112:32|16:160,1,140
32,304,53529,6,0,B|32:304|80:352,1,70
123,358,53886,1,0,
206,359,54243,1,0,
289,361,54600,1,0,
373,362,54958,1,0,
400,335,55136,1,0,
426,305,55315,1,0,
408,273,55493,1,0,
384,240,55672,2,4,B|384:240|496:224|512:128|480:80|400:32|352:48,1,280
320,48,56743,5,0,
240,48,57100,1,0,
208,32,57279,1,0,
176,48,57458,1,0,
96,48,57815,1,0,
16,48,58172,1,0,
16,128,58529,1,0,
0,160,58708,1,0,
16,192,58886,1,0,
48,272,59243,5,0,
80,288,59422,1,0,
112,272,59600,1,0,
176,320,59958,1,0,
208,336,60136,1,0,
240,320,60315,1,0,
320,320,60672,2,0,B|320:320|368:352|400:304,1,70
416,288,61029,1,0,
464,224,61386,2,0,B|464:224|512:192|464:144,1,70
464,128,61743,2,4,B|464:128|464:48|416:-16|346:-24|339:204|256:184|200:187|207:-23|173:0|73:-12|23:119|80:176,1,560
32,208,63529,5,0,
64,288,63886,1,0,
112,352,64243,2,0,B|112:352|192:272|256:384|304:416|384:336,1,280
448,336,65315,1,0,
448,256,65672,2,0,B|448:256|368:176|480:112|512:64|432:-16,1,280
416,16,66565,1,0,
384,32,66743,1,0,
304,32,67100,1,0,
224,32,67458,1,0,
192,48,67636,1,0,
160,32,67815,1,0,
80,64,68172,1,0,
32,128,68529,1,4,
32,288,69243,5,0,
96,352,69600,1,0,
176,352,69958,2,0,B|176:352|229:384|389:389|464:336,1,280
480,272,71029,1,0,
480,192,71386,1,0,
496,160,71565,1,0,
480,128,71743,1,0,
448,48,72100,2,0,B|448:48|400:16|368:64,1,70
336,48,72458,2,0,B|336:48|288:80|256:32,1,70
224,48,72815,2,0,B|224:48|176:16|144:64,1,70
112,48,73172,2,0,B|112:48|64:80|32:32,1,70
0,64,73529,2,4,B|0:64|-57:218|32:352,1,280
192,336,74958,5,0,
272,336,75315,1,0,
352,336,75672,1,0,
384,352,75850,1,0,
416,336,76029,1,0,
480,288,76386,1,0,
496,256,76565,1,0,
480,224,76743,1,0,
496,192,76922,1,0,
480,160,77100,1,0,
448,80,77458,1,0,
384,16,77815,5,0,
304,48,78172,1,0,
224,80,78529,1,0,
192,64,78708,1,0,
160,80,78886,1,0,
128,64,79065,1,0,
96,80,79243,1,0,
32,144,79600,1,0,
32,224,79958,2,4,L|32:224|32:368|176:368,1,280
256,368,81029,5,0,
272,336,81208,1,0,
304,320,81386,1,0,
336,336,81565,1,0,
352,368,81743,1,0,
432,352,82100,1,0,
416,320,82279,1,0,
400,288,82458,1,0,
416,256,82636,1,0,
432,224,82815,1,0,
416,192,82993,1,0,
400,160,83172,1,0,
400,80,83529,6,0,B|400:80|256:32,3,140
192,64,84958,1,0,
128,112,85315,1,0,
64,160,85672,1,4,
64,320,86386,6,0,B|64:320|109:347|144:304,1,70
176,320,86743,1,0,
256,320,87100,2,0,B|256:320|301:293|336:336,1,70
368,320,87458,1,0,
448,320,87815,1,0,
464,288,87993,1,0,
448,256,88172,1,0,
464,224,88350,1,0,
448,176,88529,2,0,B|448:176|475:127|432:96,1,70
448,64,88886,1,0,
384,16,89243,5,4,
304,16,89600,2,0,B|304:16|272:-16|224:32,1,70
208,48,89958,1,0,
160,112,90315,2,0,B|160:112|128:144|80:96,1,70
48,112,90672,2,0,L|48:112|-27:221|48:352,1,280
208,352,92100,5,0,
224,320,92279,1,0,
256,304,92458,1,0,
288,320,92636,1,0,
304,352,92815,1,4,
464,352,93529,1,0,
432,336,93708,1,0,
416,304,93886,1,0,
432,272,94065,1,0,
464,256,94243,1,4,
464,80,94958,2,0,B|464:80|404:156|336:64,1,140
256,80,95672,2,0,B|256:80|196:4|128:96,1,140
80,128,96386,1,0,
80,208,96743,2,0,B|80:208|48:234|80:272,1,70
80,304,97100,1,4,
144,352,97458,5,0,
176,336,97636,1,0,
208,352,97815,1,0,
288,352,98172,1,0,
304,320,98350,1,0,
336,304,98529,1,0,
368,320,98708,1,0,
384,352,98886,1,0,
464,352,99243,1,0,
464,176,99958,5,0,
464,96,100315,1,0,
480,64,100493,1,0,
464,32,100672,1,0,
384,32,101029,1,0,
304,32,101386,1,0,
304,80,101565,1,0,
256,80,101743,1,0,
256,32,101922,1,0,
208,48,102100,1,0,
32,48,102815,5,4,
32,128,103172,1,0,
48,160,103350,1,0,
32,192,103529,1,0,
32,272,103886,1,0,
32,320,104065,1,0,
80,320,104243,1,0,
144,272,104600,1,0,
224,240,104958,1,0,
352,336,105672,5,0,
432,336,106029,1,0,
448,304,106208,1,0,
432,272,106386,1,0,
432,192,106743,1,0,
432,144,106922,1,0,
384,144,107100,1,0,
384,64,107458,1,0,
304,64,107815,1,0,
224,208,108529,5,4,
224,288,108886,1,0,
176,288,109065,1,0,
176,240,109243,1,0,
128,240,109422,1,0,
128,288,109600,1,0,
80,288,109779,1,0,
80,240,109958,1,0,
80,160,110315,1,0,
80,80,110672,1,0,
192,32,111386,6,0,B|192:32|240:144|240:160,1,70
240,128,111743,1,0,
288,192,112100,1,0,
336,256,112458,1,0,
336,304,112636,1,0,
384,304,112815,1,0,
448,304,113172,1,0,
448,224,113529,1,0,
448,48,114243,5,4,
368,48,114600,1,0,
288,48,114958,2,0,B|288:48|208:48,1,70
176,48,115315,1,0,
96,48,115672,1,4,
16,48,116029,1,0,
16,128,116386,2,0,B|16:128|16:208,1,70
16,240,116743,1,0,
16,320,117100,6,0,B|16:320|80:368,1,70
112,368,117458,1,0,
172,363,117815,2,0,B|172:363|245:310,1,70
272,320,118172,1,0,
352,320,118529,2,0,B|352:320|416:368,1,70
448,368,118886,1,0,
496,304,119243,2,0,B|496:304|464:224,1,70
464,192,119600,1,0,
464,112,119958,6,0,B|464:112|496:80|448:32,1,70
416,48,120315,1,0,
336,48,120672,2,0,B|336:48|368:80|320:128,1,70
288,112,121029,1,0,
208,112,121386,2,0,B|208:112|240:80|192:32,1,70
160,48,121743,1,0,
123,49,121922,1,0,
80,48,122100,2,0,B|80:48|112:80|64:128,1,70
32,112,122458,1,0,
32,160,122636,1,0,
32,208,122815,1,4,
256,192,123172,12,4,127815
256,192,128529,5,2,
288,112,128886,1,0,
208,112,129243,1,2,
160,192,129600,1,0,
208,256,129958,1,2,
288,256,130315,1,2,
336,192,130672,1,2,
256,192,131386,5,2,
256,112,131743,1,0,
336,112,132100,1,2,
336,32,132458,1,0,
416,32,132815,2,6,L|416:32|416:176|416:224|512:96|512:304,1,560
432,336,134600,5,0,
352,336,134958,2,0,L|352:336|263:228|176:352,1,280
96,336,136029,1,0,
16,336,136386,1,0,
0,304,136565,1,0,
16,272,136743,1,0,
32,192,137100,5,0,
64,208,137279,1,0,
96,192,137458,1,0,
112,160,137636,1,0,
96,128,137815,1,0,
64,112,137993,1,0,
32,128,138172,1,0,
16,160,138350,1,0,
64,160,138529,1,0,
144,160,138886,1,0,
224,160,139243,1,4,
384,160,139958,6,0,L|384:160|448:160|448:80|304:80,1,280
224,80,141029,1,0,
144,80,141386,2,0,L|144:80|80:80|80:160|0:160|0:224|144:224|144:352,1,560
224,352,143172,1,0,
256,336,143350,1,0,
288,352,143529,1,0,
368,352,143886,1,0,
448,352,144243,2,0,L|448:352|448:272,1,70
448,240,144600,1,0,
448,160,144958,2,0,L|448:160|480:64,1,70
480,48,145315,1,0,
400,48,145672,1,4,
320,48,146029,5,0,
288,32,146208,1,0,
256,48,146386,1,0,
224,32,146565,1,0,
192,48,146743,1,0,
112,48,147100,2,0,L|112:48|16:80,1,70
32,112,147458,2,0,L|32:112|32:192,1,70
32,224,147815,2,0,L|32:224|32:368|192:368,1,280
208,368,148708,1,0,
256,368,148886,1,0,
256,320,149065,1,0,
304,320,149243,1,0,
384,320,149600,5,0,
432,320,149779,1,0,
432,272,149958,1,0,
384,272,150136,1,0,
384,224,150315,1,0,
432,224,150493,1,0,
432,176,150672,2,0,L|432:176|432:32|272:32,1,280
208,32,151743,1,0,
128,32,152100,1,0,
48,32,152458,1,0,
48,112,152815,5,4,
48,192,153172,1,0,
80,208,153350,1,0,
112,192,153529,1,0,
144,208,153708,1,0,
176,192,153886,1,0,
256,192,154243,5,0,
240,224,154422,1,0,
256,256,154600,1,0,
224,336,154958,1,0,
304,336,155315,1,0,
336,352,155493,1,0,
368,336,155672,1,0,
384,304,155850,1,0,
400,272,156029,1,0,
448,192,156386,2,0,B|448:192|512:160|544:50|450:22|379:28|320:32,1,280
272,32,157458,5,0,
192,32,157815,1,0,
176,64,157993,1,0,
160,96,158172,1,0,
80,96,158529,1,4,
32,160,158886,1,0,
32,240,159243,1,0,
48,272,159422,1,0,
64,304,159600,1,0,
128,352,159958,1,0,
160,336,160136,1,0,
192,320,160315,1,0,
272,320,160672,1,0,
304,336,160850,1,0,
336,352,161029,1,0,
416,352,161386,2,0,B|416:352|464:304,1,70
480,272,161743,1,0,
480,192,162100,2,0,B|480:192|480:112,1,70
480,80,162458,2,0,B|480:80|432:16|276:32|352:160|513:348|339:380|172:245|306:136|300:32|320:-80|52:452|237:330|64:80,1,700
64,64,164600,5,0,
144,64,164958,1,0,
304,64,165672,1,0,
384,64,166029,1,0,
464,64,166386,1,0,
464,224,167100,2,0,B|464:224|464:320,1,70
464,336,167458,1,0,
384,336,167815,1,0,
304,336,168172,1,0,
272,352,168350,1,0,
240,336,168529,1,0,
160,336,168886,1,0,
80,336,169243,1,0,
48,48,169958,5,4,
112,96,170315,1,0,
176,144,170672,1,4,
240,192,171029,1,0,
304,240,171386,1,4,
368,288,171743,1,0,
432,336,172100,2,4,B|432:336|480:256|432:160|416:192,2,140
368,288,173172,5,0,
304,240,173529,1,4,
240,192,173886,1,0,
176,144,174243,1,4,
112,96,174600,1,0,
48,48,174958,2,4,B|48:48|0:128|64:192,2,140
128,48,176029,5,0,
208,48,176386,1,4,
288,48,176743,1,0,
368,48,177100,1,4,
448,48,177458,1,0,
448,128,177815,2,4,B|448:128|448:320,1,140
448,352,178529,5,4,
368,352,178886,1,0,
288,352,179243,2,4,B|288:352|144:352,1,140
80,352,179958,2,4,B|80:352|-32:352|-16:112,2,280
