osu file format v8

[General]
AudioFilename: Mariko Honda - Zettai Kaichou Sengen.mp3
AudioLeadIn: 0
PreviewTime: 37639
Countdown: 0
SampleSet: Soft
StackLeniency: 0.7
Mode: 0
LetterboxInBreaks: 1

[Editor]
DistanceSpacing: 0.8
BeatDivisor: 2
GridSize: 8

[Metadata]
Title:Zettai Kaichou Sengen (TV Size)
Artist:Mariko Honda
Creator:blissfulyoshi
Version:Normal
Source:Seitokai no Ichizon
Tags:President

[Difficulty]
HPDrainRate:4
CircleSize:3
OverallDifficulty:6
ApproachRate:6
SliderMultiplier:1.4
SliderTickRate:2

[Events]
//Background and Video events
Video,-1163,"Seitokai no Ichizon ep 11 ed (x264).avi"
0,0,"seitokai-no-ichizon.jpg"
//Break Periods
2,59822,70037
//Storyboard Layer 0 (Background)
//Storyboard Layer 1 (Fail)
//Storyboard Layer 2 (Pass)
//Storyboard Layer 3 (Foreground)
//Storyboard Sound Samples
//Background Colour Transformations
3,100,163,162,255

[TimingPoints]
398,344.827586206897,4,2,0,74,1,0
76260,-100,4,2,0,74,0,1
89880,-100,4,2,0,74,0,0

[Colours]
Combo1 : 146,194,33
Combo2 : 218,0,17
Combo3 : 2,157,223
Combo4 : 252,210,1

[HitObjects]
432,120,18846,5,0
432,120,19018,1,2
432,232,19363,2,0,B|400:320|320:320,1,140,0|2
296,216,20053,6,0,B|224:160|152:232,1,140,0|2
88,296,20742,2,0,B|168:344|240:280,1,140,0|2
296,216,21432,6,0,B|368:168|344:64,1,140,0|2
240,96,22122,1,0
240,96,22294,1,0
432,304,23846,5,2
216,256,24535,5,2
128,184,24880,2,0,B|80:160|80:72|160:56,1,140,0|2
224,128,25570,2,0,B|296:184|376:112,1,140,0|2
272,344,26604,5,2
160,344,26949,2,0,B|72:336|72:192|192:192,1,210,0|2
272,192,27811,6,0,B|416:192|416:48|248:48,1,280,0|2
32,192,29363,5,2
32,192,29535,1,0
136,144,29880,1,2
256,336,30570,5,2
256,224,30915,2,0,B|256:56,1,140,0|2
480,192,32122,5,2
376,144,32466,1,0
376,144,32639,1,2
256,192,33501,12,4,35915
16,128,37639,6,0,B|56:56|56:56|136:56,1,140,0|8
224,56,38329,2,0,B|192:128|192:128|280:128,1,140,0|8
368,128,39018,2,0,B|464:168|464:168|464:280,1,210,0|8
184,272,40398,5,0
72,272,40742,1,8
128,176,41087,1,0
240,176,41432,2,0,B|248:0|512:0|512:184,1,420,8|0
112,240,43501,6,0,B|24:264|40:368,2,140,8|0|8
224,240,44535,1,0
392,240,45053,2,0,B|480:216|464:112,1,140,8|0
336,24,45915,5,2
224,48,46260,2,0,B|176:56|168:136|224:152,1,140,0|2
384,208,47122,6,0,B|376:376|152:344,1,280,2|2
160,72,48673,6,0,B|96:208,1,140,0|8
208,168,49363,2,0,B|208:320,1,140,0|8
288,232,50052,1,0
368,312,50398,1,8
368,312,50569,1,0
208,80,51432,5,0
112,136,51776,1,8
112,248,52121,1,0
208,304,52466,1,8
208,304,52639,2,0,B|400:304|368:104,1,280
136,152,54535,6,0,B|144:8|376:8|376:184,1,350,8|8
320,256,55742,2,0,B|256:304|176:248,1,140,2|2
80,64,56777,5,2
40,168,57122,2,0,B|16:368|256:360,1,280,2|0
352,304,58328,5,8
400,200,58673,1,8
256,288,59191,6,0,B|256:80,1,175,2|4
64,304,71087,5,2
104,200,71432,1,2
208,72,71949,2,0,B|248:48|288:56,4,70,2|0|0|0|0
464,192,73501,6,0,B|464:280|360:312,1,140,2|0
128,192,74708,1,2
296,192,75225,2,0,B|296:64|152:24,1,210,2|0
128,192,76260,6,0,B|144:296|256:272,1,140,4|0
296,192,76949,2,0,B|384:248|440:112,1,140,8|0
328,88,77639,1,8
224,120,77984,1,0
224,120,78156,1,0
64,352,79019,5,8
176,352,79363,1,0
288,352,79708,1,8
400,352,80053,1,0
400,352,80225,2,0,B|496:288|496:192|392:120,1,280
120,336,82122,6,0,B|32:296|0:192|32:64|152:48,1,350,2|2
312,192,83674,1,2
88,192,84364,5,2
152,288,84709,1,0
152,288,84880,2,0,B|296:384|432:272,1,280,2|0
472,192,85915,5,8
488,80,86260,1,8
256,80,86863,5,0
256,80,87035,1,0
256,80,87208,1,0
256,192,87294,12,4,89880
