osu file format v8

[General]
AudioFilename: 07 7.mp3
AudioLeadIn: 0
PreviewTime: 39678
Countdown: 0
SampleSet: Soft
StackLeniency: 0.7
Mode: 0
LetterboxInBreaks: 1

[Editor]
DistanceSpacing: 1.4
BeatDivisor: 4
GridSize: 8

[Metadata]
Title:Uchinaru Ame
Artist:Marika
Creator:PSPDS Eddie
Version:Hard
Source:Comyu - Kuroi Ryuu to Yasashii Oukoku
Tags:Akatsuki Works

[Difficulty]
HPDrainRate:8
CircleSize:4
OverallDifficulty:7
ApproachRate:7
SliderMultiplier:1.4
SliderTickRate:2

[Events]
//Background and Video events
0,0,"back.JPG"
Video,3055,"8.avi"
//Break Periods
//Storyboard Layer 0 (Background)
//Storyboard Layer 1 (Fail)
//Storyboard Layer 2 (Pass)
//Storyboard Layer 3 (Foreground)
//Storyboard Sound Samples
//Background Colour Transformations
3,100,163,162,255

[TimingPoints]
3883.24162015731,413.793103448276,4,2,0,53,1,0
40178,-100,4,2,0,41,0,0
40297,-100,4,2,0,41,0,1
40298,-100,4,2,0,41,0,0
46917,-100,4,2,0,41,0,1
46918,-100,4,2,0,41,0,0
56826,-100,4,1,0,53,0,0
56848,-100,4,1,0,53,0,1
56849,-100,4,1,0,53,0,0
99469,-100,4,2,0,0,0,0

[HitObjects]
256,192,3883,5,2
256,192,4297,1,4
256,192,4710,12,2,6779
256,272,7193,6,0,B|408:272,1,140,2|0
256,112,8021,2,0,B|112:112,1,140,2|0
440,192,8848,6,0,B|440:48,1,140,2|0
72,192,9676,2,0,B|72:336,1,140,2|0
256,192,10503,5,0
256,192,10917,1,0
192,40,11331,2,0,B|272:0|336:48,1,140,0|2
256,192,12159,1,0
211,263,12366,1,0
299,263,12572,1,2
256,104,12986,2,2,B|256:80,16,17.5,2|2|2|2|2|2|2|2|2|2|2|2|2|2|2|2|6
424,104,14228,6,0,B|480:176|416:240,1,140,0|2
336,232,14848,1,0
248,232,15055,2,0,B|184:304|264:368,2,140,0|2|0
336,232,16090,1,0
336,152,16297,2,0,B|248:24,1,140,2|0
264,208,17124,5,2
216,144,17331,1,0
176,72,17538,1,2
184,240,17952,1,2
264,208,18159,1,0
344,176,18366,1,2
480,192,18779,5,2
256,352,19193,1,0
32,192,19607,1,2
256,32,20021,1,0
256,192,20434,1,4
128,296,20848,6,0,B|176:352|280:336,1,140,0|2
256,256,21469,1,0
256,176,21676,2,0,B|360:152|416:216,1,140,0|2
392,280,22297,1,0
224,280,22710,1,0
224,200,22917,1,2
56,200,23331,1,0
56,112,23538,1,0
56,24,23745,2,0,B|224:24,2,140,0|2|0
56,112,24779,2,0,C|144:112,1,70,0|2
408,192,25400,6,0,B|512:192,1,70,2|0
256,280,25814,2,0,B|256:360,1,70,2|0
104,192,26228,2,0,B|24:192,1,70,2|0
256,104,26641,2,0,B|256:24,1,70,2|0
256,192,27055,1,4
96,136,27469,6,0,B|144:56|224:64,1,140,2|0
208,144,28090,2,0,B|256:192|312:184|344:120,1,140,2|0
272,96,28710,2,0,B|272:248,2,140,2|0|2
136,192,29952,1,0
256,304,30366,2,0,B|160:304,2,70,2|0|0
256,216,30986,1,0
344,216,31193,2,0,B|344:128,2,70,2|0|0
432,216,31814,1,0
432,128,32021,1,2
432,128,32124,1,0
432,128,32228,1,0
368,80,32434,1,0
288,96,32641,1,0
264,176,32848,2,0,B|216:176,4,35,2|0|0|0|2
176,320,33676,6,0,B|16:320,2,140,0|2|0
120,256,34710,1,0
176,192,34917,1,2
232,256,35124,1,0
176,320,35331,2,0,B|336:320,2,140,0|2|0
120,240,36366,1,0
200,184,36572,1,2
128,112,36779,1,0
224,88,36986,2,0,B|320:88|344:176,3,140,0|2|0|2
256,352,38641,6,0,B|256:272,1,70,2|0
32,192,39055,2,0,B|128:192,1,70,2|0
256,32,39469,2,0,B|256:104,1,70,2|0
480,192,39883,2,0,B|408:192,1,70,2|0
312,192,40297,5,4
128,120,40710,1,0
64,192,40917,1,0
128,264,41124,1,4
312,192,41538,2,0,B|216:192,1,70,0|4
48,192,42159,1,0
240,192,42572,1,4
104,48,42986,5,4
192,88,43193,1,0
280,48,43400,1,0
192,88,43607,2,0,B|192:256,2,140,4|0|4
288,88,44641,1,0
288,184,44848,1,0
192,184,45055,1,4
336,312,45469,1,4
144,312,45883,1,4
336,312,46297,6,4,B|416:256|400:168,1,140,4|0
304,192,46917,2,0,B|304:48,2,140,4|0|4
264,280,47952,1,0
184,328,48159,2,0,B|104:328,1,70,0|4
312,328,48779,1,4
312,136,49193,1,4
128,192,49607,6,0,B|128:96,1,70,0|0
200,192,50021,2,0,B|200:96,1,70,0|4
272,192,50434,2,0,B|272:96,1,70,0|4
344,192,50848,1,0
416,192,51055,1,4
416,224,51159,1,0
408,256,51262,1,0
392,288,51366,1,0
368,312,51469,1,4
272,344,51676,1,0
176,344,51883,1,4
144,336,51986,1,0
120,312,52090,1,0
32,192,52297,5,4
256,32,52710,1,4
480,192,53124,1,4
256,352,53538,2,0,B|256:248,1,70,4|0
328,280,53952,2,0,B|328:192,1,70,2|0
184,280,54366,2,0,B|184:200,1,70,4|0
256,136,54779,1,2
256,40,54986,5,0
352,40,55193,1,2
384,48,55297,1,0
416,72,55400,1,0
440,96,55503,1,0
448,128,55607,1,2
464,224,55814,1,0
440,320,56021,1,2
416,344,56124,1,0
384,360,56228,1,0
352,368,56331,1,0
320,368,56434,1,2
288,368,56538,1,0
256,360,56641,1,0
224,344,56745,1,0
200,320,56848,1,4
128,192,57262,6,0,B|160:80|312:64,1,210
376,88,58090,1,0
392,184,58297,1,0
296,168,58503,2,0,B|224:224,2,70
296,168,59124,1,0
392,184,59331,1,0
424,200,59434,1,0
448,232,59538,1,0
456,264,59641,1,0
448,296,59745,6,0,B|400:352|304:352,3,140
224,352,61193,1,0
128,320,61400,1,0
72,240,61607,1,0
160,192,61814,2,0,B|160:112,1,70,0|2
232,192,62228,2,0,B|232:120,1,70,0|2
296,48,62641,1,0
264,24,62745,1,2
232,16,62848,1,0
200,24,62952,1,0
176,48,63055,1,2
112,216,63469,6,0,B|168:264|264:264,2,140,0|8|0
112,120,64503,1,0
208,120,64710,1,8
304,120,64917,1,0
400,120,65124,6,0,B|392:32|296:24,2,140,0|8|0
400,216,66159,1,0
400,312,66366,1,8
400,312,66469,1,0
400,312,66572,1,0
312,264,66779,6,0,B|248:304|160:256,1,140,2|0
176,168,67400,1,0
176,72,67607,2,0,B|96:8|24:96,1,140,2|0
48,168,68228,2,0,B|48:246|104:320,2,140,2|2|2
144,168,69262,1,2
192,160,69366,1,0
240,168,69469,1,0
288,160,69572,1,0
336,168,69676,1,2
184,280,70090,6,0,B|224:344|320:336,1,140
304,240,70710,1,0
304,144,70917,2,0,B|384:136|416:208,1,140
416,304,71538,2,0,B|240:304,2,140
352,232,72572,1,0
304,224,72676,1,0
256,232,72779,1,0
208,224,72883,1,0
160,232,72986,1,0
96,160,73193,1,0
160,88,73400,6,0,B|320:88,3,140
400,88,74848,1,0
400,184,75055,1,0
400,216,75159,1,0
400,248,75262,1,2
352,336,75469,1,0
304,248,75676,1,2
256,336,75883,1,0
224,336,75986,1,2
192,336,76090,1,0
160,336,76193,1,0
128,336,76297,6,0,B|128:248,2,70,2|0|0
128,136,77124,2,0,B|128:240,2,70
296,240,77952,1,0
96,240,78366,1,0
296,240,78779,1,0
392,240,78986,1,0
200,240,79400,1,0
296,240,79607,1,0
392,240,79814,1,0
304,48,80021,6,0,B|400:48,1,70
208,112,80434,2,0,B|136:112,1,70
304,176,80848,1,0
344,176,80952,1,0
384,176,81055,1,0
208,240,81262,2,0,B|104:240,2,70
288,296,81883,1,0
384,296,82090,1,0
464,240,82297,1,0
384,176,82503,2,0,B|416:128,4,35,8|8|8|8|12
288,176,83124,1,0
208,240,83331,1,0
256,352,83745,5,0
480,192,84159,1,0
256,32,84572,1,0
32,192,84986,1,0
256,352,85400,2,0,B|256:272,1,70
256,248,85710,1,0
256,216,85814,1,0
184,152,86021,1,0
256,80,86228,1,0
320,152,86434,5,0
352,152,86538,1,0
384,152,86641,1,8
320,72,86848,2,0,B|384:72,2,35,0|0|8
224,72,87262,1,0
200,88,87366,1,0
176,104,87469,1,0
152,120,87572,1,0
128,136,87676,1,8
80,224,87883,5,0
176,224,88090,1,0
128,312,88297,1,0
128,312,88400,1,8
224,328,88607,1,0
224,328,88710,1,8
320,328,88917,1,0
416,304,89124,1,0
440,280,89228,1,0
456,248,89331,1,8
464,216,89434,1,0
464,184,89538,1,8
456,152,89641,1,0
432,120,89745,1,0
400,96,89848,1,0
368,88,89952,1,4
344,224,90366,5,0
280,168,90572,1,0
224,232,90779,1,0
168,168,90986,1,0
112,232,91193,1,0
56,168,91400,1,0
72,128,91503,1,0
104,104,91607,2,0,B|184:56|264:112,3,140,0|8|0|8
320,128,93055,1,0
400,160,93262,6,0,B|480:200,1,70
392,232,93676,2,0,B|440:320,1,70,8|0
344,288,94090,2,0,B|336:368,1,70
272,304,94503,2,0,B|216:360,1,70,8|0
200,272,94917,2,0,B|40:296,1,140,0|8
88,216,95538,1,0
120,128,95745,2,0,B|176:128,4,35,0|0|0|0|12
256,128,96572,5,0
200,192,96779,1,0
256,256,96986,1,0
312,192,97193,1,0
256,80,97400,5,0
152,192,97607,1,0
256,304,97814,1,0
360,192,98021,1,0
256,32,98228,5,0
104,192,98434,1,0
256,352,98641,1,0
408,192,98848,1,4
256,192,99469,12,0,103193
