osu file format v8

[General]
AudioFilename: 07 7.mp3
AudioLeadIn: 0
PreviewTime: 39678
Countdown: 0
SampleSet: Soft
StackLeniency: 0.7
Mode: 0
LetterboxInBreaks: 1

[Editor]
DistanceSpacing: 1
BeatDivisor: 4
GridSize: 8

[Metadata]
Title:Uchinaru Ame
Artist:Marika
Creator:PSPDS Eddie
Version:Normal
Source:Comyu - Kuroi Ryuu to Yasashii Oukoku
Tags:Akatsuki Works

[Difficulty]
HPDrainRate:5
CircleSize:4
OverallDifficulty:5
ApproachRate:5
SliderMultiplier:1
SliderTickRate:2

[Events]
//Background and Video events
0,0,"back.JPG"
Video,3055,"8.avi"
//Break Periods
//Storyboard Layer 0 (Background)
//Storyboard Layer 1 (Fail)
//Storyboard Layer 2 (Pass)
//Storyboard Layer 3 (Foreground)
//Storyboard Sound Samples
//Background Colour Transformations
3,100,163,162,255

[TimingPoints]
3883.24162015731,413.793103448276,4,2,0,53,1,0
40178,-100,4,2,0,41,0,0
40297,-100,4,2,0,41,0,1
40298,-100,4,2,0,41,0,0
46917,-100,4,2,0,41,0,1
46918,-100,4,2,0,41,0,0
56826,-100,4,1,0,53,0,0
56848,-100,4,1,0,53,0,1
56849,-100,4,1,0,53,0,0
99469,-100,4,2,0,0,0,0

[HitObjects]
256,192,3883,5,2
256,192,4297,1,4
256,192,4710,12,2,6779
206,243,7193,6,0,B|318:243,1,100,2|0
306,142,8021,2,0,B|186:142,1,100,2|0
308,242,8848,6,0,B|308:138,1,100,2|0
207,142,9676,2,0,B|207:254,1,100,2|0
207,342,10503,5,0
303,342,10917,1,0
398,342,11331,2,0,B|422:262|382:230,1,100,2|0
303,246,12159,1,0
207,246,12572,1,2
255,158,12986,2,2,B|255:142,16,12.5,2|2|2|2|2|2|2|2|2|2|2|2|2|2|2|2|6
256,64,14228,6,0,B|376:64,1,100,0|2
456,64,15055,2,0,B|456:176,2,100,0|2|0
384,136,16297,2,0,B|272:136,1,100,2|0
200,192,17124,5,0
200,96,17538,1,2
200,192,17952,1,0
200,96,18366,1,2
256,288,18779,5,2
432,192,19193,1,0
256,104,19607,1,2
80,192,20021,1,0
256,192,20434,5,4
256,288,20848,6,0,B|320:328|360:272,1,100,0|2
352,184,21676,2,0,B|432:168|448:232,1,100,0|2
440,320,22503,1,0
344,320,22917,1,2
240,320,23331,1,0
136,320,23745,2,0,B|136:208,3,100,0|2|0|2
136,120,25400,2,0,B|248:120,3,100,2|0|2|0
256,216,27055,1,4
160,224,27469,6,0,B|184:288|240:296,1,100,2|0
272,304,28090,2,0,B|336:288|352:224,1,100,2|0
360,192,28710,2,0,B|352:104|240:104,2,150,2|2|2
360,296,30366,2,0,B|200:296,2,150,2|2|2
408,208,32021,1,2
312,208,32434,1,0
216,208,32848,2,0,B|168:208,4,25,2|0|0|0|0
256,296,33676,6,0,B|136:296,2,100,0|2|0
256,200,34917,1,2
256,296,35331,2,0,B|416:296,2,150,0|2|0
256,248,36779,1,0
256,200,36986,2,0,B|368:200,3,100,2|0|2|0
256,200,38641,6,0,B|144:200,1,100,2|0
152,304,39469,2,0,B|208:304,1,50,2|0
256,304,39883,2,0,B|320:304,1,50,2|0
360,304,40297,5,4
360,200,40710,1,0
360,96,41124,1,4
360,200,41538,2,0,B|288:200,1,50,0|4
208,200,42159,1,0
112,200,42572,1,4
112,96,42986,5,4
160,96,43193,1,0
208,96,43400,1,0
256,96,43607,2,0,B|256:216,2,100,4|0|4
304,96,44641,2,0,B|376:96,2,50,0|0|4
336,192,45469,2,4,B|336:296,1,100
232,296,46297,6,4,B|168:296|176:224,1,100,4|0
176,184,46917,2,0,B|176:72,2,100,4|0|4
176,288,48159,2,0,B|248:288,1,50,0|4
328,288,48779,1,0
328,192,49193,1,4
128,192,49607,6,0,B|184:192,3,50,4|0|0|4
280,192,50641,1,4
384,192,51055,1,4
368,240,51262,1,0
344,280,51469,1,4
256,328,51883,1,4
208,320,52090,1,0
184,280,52297,6,4,B|184:168,3,100,4|4|4|0
184,128,53745,2,0,B|248:128,1,50,2|0
288,128,54159,2,0,B|352:128,1,50,0|2
384,128,54572,2,0,B|456:128,1,50,0|0
488,128,54986,2,0,B|488:192,1,50,2|0
480,224,55400,2,0,B|456:288,1,50,0|2
408,352,56021,2,0,B|368:352,8,25,2|0|0|0|2|0|0|0|4
304,352,57262,6,2,B|208:344|192:256,1,150,2|0
192,216,58090,1,2
192,112,58503,2,0,B|264:112,3,50,0|0|2|0
288,112,59331,1,6
368,192,59745,6,0,B|360:256|296:280,3,100,0|0|2|0
224,312,61400,1,2
136,272,61814,2,0,B|136:208,1,50,0|2
184,240,62228,2,0,B|184:168,1,50,0|2
232,208,62641,2,0,B|232:136,1,50,0|2
232,104,63055,1,2
384,192,63469,6,0,B|392:288|304:296,2,150
336,192,64917,1,0
288,192,65124,2,0,B|280:96|368:88,2,150
288,240,66572,1,0
288,288,66779,6,0,B|232:336|184:272,1,100,2|0
200,192,67607,2,0,B|152:144|104:200,1,100,2|0
112,240,68228,2,0,B|112:318|160:336,2,100,2|2|2
112,192,69262,2,0,B|112:120,2,50,2|0|2
216,192,70090,6,0,B|248:248|304:240,1,100,0|2
296,192,70710,1,0
296,144,70917,2,0,B|376:136|392:192,1,100,0|2
384,272,71745,2,0,B|264:272,3,100,0|2|0|2
224,192,73400,6,0,B|336:192,3,100
320,88,75055,1,2
224,88,75469,1,2
128,88,75883,2,0,B|128:40,4,25,2|0|0|0|2
128,192,76710,5,0
128,296,77124,2,0,B|248:296,2,100
128,192,78366,1,0
224,192,78779,2,0,B|280:192,1,50
376,192,79400,2,0,B|376:120,2,50
376,240,80021,6,0,B|328:288,1,50
304,304,80434,2,0,B|248:304,1,50
208,296,80848,1,0
168,264,81055,1,0
152,216,81262,2,0,B|152:152,2,50
256,216,82090,1,0
360,216,82503,2,8,B|360:256,4,25
360,112,83331,5,0
304,192,83745,5,0
256,280,84159,1,0
208,192,84572,1,0
256,104,84986,1,0
304,192,85400,6,0,B|240:192,1,50
152,192,86021,1,0
152,96,86434,1,0
256,96,86848,1,0
360,96,87262,1,0
360,192,87676,1,0
360,288,88090,1,0
360,192,88503,5,0
312,192,88710,1,8
264,192,88917,1,0
216,192,89124,2,0,B|176:192,8,25,0|0|0|0|8|0|0|0|0
216,296,90366,5,8
312,296,90779,1,0
312,192,91193,1,8
216,192,91607,2,0,B|176:136|224:96,3,100,0|8|0|8
312,104,93262,6,0,B|408:144,1,100,0|8
312,104,94090,2,0,B|312:216,1,100,0|8
312,104,94917,2,0,B|208:152,1,100,0|8
136,192,95745,2,0,B|104:208,4,25,8|0|0|0|8
256,192,96572,5,0
304,192,96779,2,0,B|368:192,2,50
256,192,97400,5,0
256,144,97607,2,0,B|256:88,2,50
256,192,98228,5,0
224,224,98434,2,0,B|176:264,2,50
256,192,99469,12,0,103193
