osu file format v8

[General]
AudioFilename: 07 7.mp3
AudioLeadIn: 0
PreviewTime: 39678
Countdown: 0
SampleSet: Soft
StackLeniency: 0.7
Mode: 0
LetterboxInBreaks: 1

[Editor]
DistanceSpacing: 1
BeatDivisor: 4
GridSize: 8

[Metadata]
Title:Uchinaru Ame
Artist:Marika
Creator:PSPDS Eddie
Version:Easy
Source:Comyu - Kuroi Ryuu to Yasashii Oukoku
Tags:Akatsuki Works

[Difficulty]
HPDrainRate:2
CircleSize:3
OverallDifficulty:1
ApproachRate:1
SliderMultiplier:0.8
SliderTickRate:2

[Events]
//Background and Video events
0,0,"back.JPG"
Video,3055,"8.avi"
//Break Periods
//Storyboard Layer 0 (Background)
//Storyboard Layer 1 (Fail)
//Storyboard Layer 2 (Pass)
//Storyboard Layer 3 (Foreground)
//Storyboard Sound Samples
//Background Colour Transformations
3,100,163,162,255

[TimingPoints]
3883.24162015731,413.793103448276,4,2,0,53,1,0
40178,-100,4,2,0,41,0,0
40297,-100,4,2,0,41,0,1
40298,-100,4,2,0,41,0,0
46917,-100,4,2,0,41,0,1
46918,-100,4,2,0,41,0,0
56826,-100,4,1,0,53,0,0
56848,-100,4,1,0,53,0,1
56849,-100,4,1,0,53,0,0
99469,-100,4,2,0,0,0,0

[HitObjects]
256,192,3883,5,2
256,192,4297,1,4
256,192,4710,12,2,6779
216,232,7193,6,0,B|304:232,3,80,2|0|2|0
296,152,8848,2,0,B|208:152,3,80
152,112,10503,6,0,B|168:72|232:72,1,80
296,72,11331,2,0,B|352:72|368:128,1,80,2|0
360,192,12159,1,0
296,240,12572,1,2
288,160,12986,2,2,B|280:152,16,10,2|2|2|2|2|2|2|2|2|2|2|2|2|2|2|2|6
280,88,14228,6,0,B|368:88,1,80,0|2
440,88,15055,2,0,B|440:176,3,80,0|2|0|2
416,248,16710,1,0
336,248,17124,6,2,B|240:248,1,80,0|2
256,168,17952,2,2,B|352:168,1,80,0|2
336,88,18779,5,2
416,88,19193,1,0
416,168,19607,1,2
336,168,20021,1,0
256,168,20434,5,4
208,232,20848,6,0,B|240:256|296:240,1,80,0|2
368,240,21676,2,0,B|432:240|424:304,1,80,0|2
368,344,22503,1,0
288,344,22917,1,2
208,344,23331,1,0
128,344,23745,2,0,B|128:256,3,80,2|0|2|0
128,184,25400,2,0,B|224:184,3,80,2|0|2|0
288,184,27055,1,4
288,264,27469,6,0,B|328:296|368:256,1,80,2|0
360,184,28297,1,0
360,104,28710,2,0,B|352:16|240:32,2,160,2|0|2
200,104,31193,1,0
280,240,32021,1,2
280,80,32848,2,0,B|280:32,4,40
280,160,34090,6,0,B|192:160,2,80
280,240,35331,2,0,B|416:240,2,120,0|2|0
280,320,36986,2,0,B|192:320,3,80,2|0|2|0
120,320,38641,6,0,B|120:224,1,80,2|0
120,160,39469,1,2
200,160,39883,1,2
200,240,40297,5,4
280,240,40710,1,0
360,240,41124,1,4
360,160,41538,2,0,B|304:160,1,40,0|4
240,160,42159,1,0
160,160,42572,1,4
160,80,42986,5,4
240,80,43400,1,0
280,80,43607,2,0,B|280:168,2,80,4|0|4
320,80,44641,2,0,B|376:80,2,40,4|0|4
320,160,45469,2,4,B|320:248,1,80
240,240,46297,6,4,B|176:240|152:216,1,80,4|0
120,224,46917,2,0,B|120:136,2,80,4|0|4
40,224,48159,2,0,B|40:280,1,40,0|4
40,344,48779,1,4
120,344,49193,1,4
200,344,49607,6,0,B|224:352|256:336,3,40,4|0|0|4
320,328,50641,1,2
384,280,51055,1,0
416,208,51469,1,2
400,128,51883,1,0
328,168,52297,6,4,B|328:72,2,80
328,248,53538,2,0,B|240:248,1,80,0|2
248,328,54366,2,0,B|160:328,1,80,0|2
128,328,54986,2,0,B|128:272,1,40,2|0
128,248,55400,2,0,B|128:200,1,40,0|2
128,128,56021,2,0,B|128:96,8,20,2|0|0|0|2|0|0|0|4
208,128,57262,5,0
264,184,57676,1,0
320,128,58090,1,0
264,64,58503,2,0,B|360:64,2,80
208,128,59745,6,0,B|208:216,3,80
208,288,61400,1,0
288,288,61814,2,0,B|288:232,1,40,0|2
328,248,62228,2,0,B|328:192,1,40,0|2
368,208,62641,2,0,B|368:160,2,40,0|2|2
448,216,63469,6,0,B|448:344,2,120
448,136,65124,2,0,B|320:136,2,120
448,56,66779,6,0,B|352:56,1,80,2|8
288,56,67607,2,0,B|192:56,1,80,2|8
208,96,68228,2,0,B|208:152|240:176,2,80,2|2|2
168,96,69262,2,0,B|168:48,2,40,2|0|2
88,96,70090,6,0,B|88:184,1,80
88,256,70917,2,0,B|104:304|168:304,1,80
224,304,71745,2,0,B|224:216,3,80,0|8|0|8
304,224,73400,6,0,B|392:224,3,80,0|8|0|8
384,144,75055,1,2
384,64,75469,1,2
312,104,75883,2,0,B|264:104,2,40,2|0|2
312,184,76710,5,0
312,264,77124,2,0,B|400:264,2,80
232,264,78366,1,0
152,264,78779,2,0,B|152:208,1,40
152,144,79400,2,0,B|152:96,2,40
272,128,80434,6,0,B|368:128,1,80
432,128,81262,2,0,B|432:72,2,40
408,208,82090,1,0
336,248,82503,2,8,B|336:296,2,40
256,248,83331,5,0
176,192,83745,1,0
256,136,84159,1,0
336,192,84572,1,0
256,248,84986,1,0
176,192,85400,1,0
176,272,85814,5,0
176,312,86021,2,0,B|232:312,2,40
176,192,87055,1,8
216,192,87262,1,0
296,192,87676,1,8
336,192,87883,1,0
392,248,88297,5,0
336,304,88710,1,0
256,304,89124,2,0,B|232:304,8,20,0|0|0|0|8|0|0|0|0
256,224,90366,5,8
336,224,90779,1,0
336,144,91193,1,8
256,144,91607,2,0,B|160:144,3,80,0|8|0|8
96,144,93262,6,0,B|96:312,3,160,0|8|0|8
256,304,96572,5,0
336,304,96986,1,0
336,224,97400,2,0,B|336:168,2,40
304,224,98021,5,0
216,224,98434,2,0,B|168:224,2,40
256,192,99469,12,0,103193
