osu file format v13

[General]
AudioFilename: Meis Clauson is Awesome.mp3
AudioLeadIn: 0
PreviewTime: 44218
Countdown: 0
SampleSet: Soft
StackLeniency: 0.7
Mode: 3
LetterboxInBreaks: 0
SpecialStyle: 0
WidescreenStoryboard: 1

[Editor]
Bookmarks: 30016,81239
DistanceSpacing: 1
BeatDivisor: 4
GridSize: 4
TimelineZoom: 3.6

[Metadata]
Title:Soul Release short ver
TitleUnicode:Soul Release short ver
Artist:Marika
ArtistUnicode:真里歌
Creator:Reikosaka
Version:Normal
Source:ハロー・レディ!
Tags:Hello Lady! Meis Clauson Angel Note
BeatmapID:445455
BeatmapSetID:186465

[Difficulty]
HPDrainRate:7
CircleSize:7
OverallDifficulty:7.2
ApproachRate:5
SliderMultiplier:1.4
SliderTickRate:1

[Events]
//Background and Video events
0,0,"Hello Meis Clauson.png",0,0
//Break Periods
//Storyboard Layer 0 (Background)
//Storyboard Layer 1 (Fail)
//Storyboard Layer 2 (Pass)
//Storyboard Layer 3 (Foreground)
//Storyboard Sound Samples
Sample,4165,0,"Bass.wav",100
Sample,4803,0,"Bass.wav",100
Sample,5442,0,"Bass.wav",100
Sample,6718,0,"Bass.wav",100
Sample,7356,0,"Bass.wav",100
Sample,7995,0,"Bass.wav",100
Sample,9271,0,"Bass.wav",100
Sample,9910,0,"Bass.wav",100
Sample,10548,0,"Bass.wav",100
Sample,11825,0,"Bass.wav",100
Sample,12463,0,"Bass.wav",100
Sample,13101,0,"Bass.wav",100
Sample,24112,0,"HHClose.wav",100
Sample,24431,0,"HHClose.wav",100
Sample,24591,0,"HHClose.wav",40
Sample,24750,0,"HHClose.wav",100
Sample,25069,0,"HHClose.wav",100
Sample,25388,0,"HHClose.wav",100
Sample,25708,0,"HHClose.wav",100
Sample,25867,0,"HHClose.wav",40
Sample,26027,0,"HHClose.wav",100
Sample,26346,0,"HHClose.wav",100
Sample,26665,0,"HHClose.wav",100
Sample,26984,0,"HHClose.wav",100
Sample,27144,0,"HHClose.wav",40
Sample,27303,0,"HHClose.wav",100
Sample,27622,0,"HHClose.wav",100
Sample,27942,0,"HHClose.wav",100
Sample,28261,0,"HHClose.wav",100
Sample,28420,0,"HHClose.wav",40
Sample,28580,0,"HHClose.wav",100
Sample,29218,0,"HHClose.wav",100
Sample,29537,0,"HHClose.wav",100
Sample,29697,0,"HHClose.wav",40
Sample,29856,0,"HHClose.wav",100
Sample,30176,0,"HHClose.wav",100
Sample,30495,0,"HHClose.wav",100
Sample,30814,0,"HHClose.wav",100
Sample,30973,0,"HHClose.wav",40
Sample,31133,0,"HHClose.wav",100
Sample,31452,0,"HHClose.wav",100
Sample,31771,0,"HHClose.wav",100
Sample,32091,0,"HHClose.wav",100
Sample,32250,0,"HHClose.wav",40
Sample,32410,0,"HHClose.wav",100
Sample,32729,0,"HHOpen.wav",100
Sample,33048,0,"HHOpen.wav",100
Sample,41984,0,"HHOpen.wav",100
Sample,42303,0,"HHOpen.wav",100
Sample,42622,0,"HHOpen.wav",100
Sample,42942,0,"Crash-2.wav",90
Sample,43261,0,"Crash-2.wav",90
Sample,43580,0,"Crash-1.wav",90
Sample,44537,0,"HHOpen.wav",100
Sample,44856,0,"HHOpen.wav",100
Sample,45176,0,"HHOpen.wav",100
Sample,45495,0,"HHOpen.wav",100
Sample,45814,0,"HHOpen.wav",100
Sample,46133,0,"HHOpen.wav",100
Sample,47091,0,"HHOpen.wav",100
Sample,47410,0,"HHOpen.wav",100
Sample,47729,0,"HHOpen.wav",100
Sample,48048,0,"HHOpen.wav",100
Sample,48367,0,"HHOpen.wav",100
Sample,48686,0,"HHOpen.wav",100
Sample,49005,0,"HHOpen.wav",100
Sample,49644,0,"HHOpen.wav",100
Sample,49963,0,"HHOpen.wav",100
Sample,50282,0,"HHOpen.wav",100
Sample,50601,0,"HHOpen.wav",100
Sample,50920,0,"HHOpen.wav",100
Sample,51239,0,"HHOpen.wav",100
Sample,51559,0,"HHOpen.wav",100
Sample,51878,0,"HHOpen.wav",100
Sample,52197,0,"HHOpen.wav",100
Sample,52516,0,"HHOpen.wav",100
Sample,52835,0,"HHOpen.wav",100
Sample,53473,0,"Crash-1.wav",90
Sample,54112,0,"Crash-1.wav",90
Sample,54750,0,"HHOpen.wav",100
Sample,55069,0,"HHOpen.wav",100
Sample,55388,0,"HHOpen.wav",100
Sample,55708,0,"HHOpen.wav",100
Sample,56027,0,"HHOpen.wav",100
Sample,56346,0,"HHOpen.wav",100
Sample,57303,0,"HHOpen.wav",100
Sample,57622,0,"HHOpen.wav",100
Sample,57942,0,"HHOpen.wav",100
Sample,58261,0,"HHOpen.wav",100
Sample,58580,0,"HHOpen.wav",100
Sample,58899,0,"HHOpen.wav",100
Sample,59218,0,"Crash-2.wav",90
Sample,59537,0,"Crash-1.wav",90
Sample,59856,0,"Ride.wav",90
Sample,60176,0,"Ride.wav",90
Sample,60814,0,"Ride.wav",90
Sample,61133,0,"Ride.wav",90
Sample,61452,0,"Ride.wav",90
Sample,62091,0,"Ride.wav",90
Sample,62410,0,"Ride.wav",90
Sample,62729,0,"Ride.wav",90
Sample,63048,0,"Ride.wav",90
Sample,63367,0,"Ride.wav",90
Sample,63686,0,"Ride.wav",90
Sample,64005,0,"Ride.wav",90
Sample,64963,0,"HHOpen.wav",100
Sample,65282,0,"HHOpen.wav",100
Sample,65601,0,"HHOpen.wav",100
Sample,67197,0,"Crash-1.wav",90
Sample,67516,0,"HHOpen.wav",100
Sample,67835,0,"HHOpen.wav",100
Sample,67995,0,"Bass.wav",100
Sample,68154,0,"HHOpen.wav",100
Sample,68473,0,"HHOpen.wav",100
Sample,68633,0,"Bass.wav",100
Sample,68793,0,"HHOpen.wav",100
Sample,69112,0,"HHOpen.wav",100
Sample,69271,0,"Bass.wav",100
Sample,69431,0,"HHOpen.wav",100
Sample,69750,0,"HHOpen.wav",100
Sample,70069,0,"HHOpen.wav",100
Sample,70388,0,"HHOpen.wav",100
Sample,70548,0,"Bass.wav",100
Sample,70708,0,"HHOpen.wav",100
Sample,71027,0,"HHOpen.wav",100
Sample,71186,0,"Bass.wav",100
Sample,71346,0,"HHOpen.wav",100
Sample,71665,0,"HHOpen.wav",100
Sample,71825,0,"Bass.wav",100
Sample,71984,0,"HHOpen.wav",100
Sample,72303,0,"HHOpen.wav",100
Sample,72622,0,"HHOpen.wav",100
Sample,72942,0,"HHOpen.wav",100
Sample,73101,0,"Bass.wav",100
Sample,73261,0,"HHOpen.wav",100
Sample,73580,0,"HHOpen.wav",100
Sample,73739,0,"Bass.wav",100
Sample,73899,0,"HHOpen.wav",100
Sample,74218,0,"HHOpen.wav",100
Sample,74378,0,"Bass.wav",100
Sample,74537,0,"HHOpen.wav",100
Sample,74856,0,"HHOpen.wav",100
Sample,75176,0,"HHOpen.wav",100
Sample,75495,0,"HHOpen.wav",100
Sample,75654,0,"Bass.wav",100
Sample,75814,0,"HHOpen.wav",100
Sample,76133,0,"HHOpen.wav",100
Sample,76293,0,"Bass.wav",100
Sample,76452,0,"HHOpen.wav",100
//Background Colour Transformations
3,100,163,162,255

[TimingPoints]
2091,319.148936170213,4,2,1,30,1,0
44218,-100,4,2,1,30,0,1
59537,-100,4,2,1,30,0,0
67197,-100,4,2,1,30,0,1
77410,-100,4,2,1,30,0,0

[HitObjects]
182,192,2091,5,0,0:0:0:100:HHOpen.wav
329,192,2410,1,0,0:0:0:100:HHOpen.wav
182,192,2729,1,0,0:0:0:100:HHOpen.wav
329,192,2888,1,0,0:0:0:100:Bass.wav
402,192,2968,1,0,0:0:0:100:Bass.wav
475,192,3048,1,0,0:0:0:45:Snare.wav
109,192,3048,1,0,0:0:0:45:Snare.wav
36,192,3367,1,0,0:0:0:90:Crash-2.wav
402,192,3367,1,0,0:0:0:100:Bass.wav
182,192,3686,1,0,0:0:0:100:HHOpen.wav
402,192,3686,1,0,0:0:0:90:Snare.wav
36,192,4005,1,0,0:0:0:100:HHOpen.wav
402,192,4005,1,0,0:0:0:100:Bass.wav
475,192,4325,1,0,0:0:0:90:Snare.wav
182,192,4325,1,0,0:0:0:100:HHOpen.wav
36,192,4644,1,0,0:0:0:100:HHOpen.wav
402,192,4644,1,0,0:0:0:100:Bass.wav
182,192,4963,1,0,0:0:0:100:HHOpen.wav
402,192,4963,1,0,0:0:0:90:Snare.wav
36,192,5282,1,0,0:0:0:100:HHOpen.wav
475,192,5282,1,0,0:0:0:100:Bass.wav
182,192,5601,1,0,0:0:0:100:HHOpen.wav
402,192,5601,1,0,0:0:0:90:Snare.wav
109,192,5920,1,0,0:0:0:100:HHOpen.wav
256,192,5920,1,0,0:0:0:100:Bass.wav
182,192,6239,1,0,0:0:0:100:HHOpen.wav
475,192,6239,1,0,0:0:0:90:Snare.wav
109,192,6559,1,0,0:0:0:100:HHOpen.wav
402,192,6559,1,0,0:0:0:100:Bass.wav
36,192,6878,1,0,0:0:0:100:HHOpen.wav
329,192,6878,1,0,0:0:0:90:Snare.wav
329,192,7197,1,0,0:0:0:100:HHOpen.wav
475,192,7197,1,0,0:0:0:100:Bass.wav
256,192,7516,1,0,0:0:0:100:HHOpen.wav
402,192,7516,1,0,0:0:0:90:Snare.wav
36,192,7835,1,0,0:0:0:100:HHOpen.wav
182,192,7835,1,0,0:0:0:100:Bass.wav
109,192,8154,1,0,0:0:0:100:HHOpen.wav
256,192,8154,1,0,0:0:0:90:Snare.wav
402,192,8314,1,0,0:0:0:40:Snare.wav
182,192,8394,1,0,0:0:0:40:Snare.wav
475,192,8473,1,0,0:0:0:100:Bass.wav
109,192,8473,1,0,0:0:0:100:HHOpen.wav
36,192,8793,1,0,0:0:0:100:HHOpen.wav
475,192,8793,1,0,0:0:0:90:Snare.wav
475,192,9112,1,0,0:0:0:100:Bass.wav
109,192,9112,1,0,0:0:0:100:HHOpen.wav
36,192,9431,1,0,0:0:0:100:HHOpen.wav
475,192,9431,1,0,0:0:0:90:Snare.wav
36,192,9750,1,0,0:0:0:100:HHOpen.wav
402,192,9750,1,0,0:0:0:100:Bass.wav
329,192,10069,1,0,0:0:0:90:Snare.wav
36,192,10069,1,0,0:0:0:100:HHOpen.wav
36,192,10388,1,0,0:0:0:100:HHOpen.wav
256,192,10388,1,0,0:0:0:100:Bass.wav
402,192,10708,1,0,0:0:0:90:Snare.wav
36,192,10708,1,0,0:0:0:100:HHOpen.wav
109,192,11027,1,0,0:0:0:100:HHOpen.wav
475,192,11027,1,0,0:0:0:100:Bass.wav
36,192,11346,1,0,0:0:0:100:HHOpen.wav
402,192,11346,1,0,0:0:0:90:Snare.wav
109,192,11665,1,0,0:0:0:100:HHOpen.wav
256,192,11665,1,0,0:0:0:100:Bass.wav
402,192,11984,1,0,0:0:0:90:Snare.wav
36,192,11984,1,0,0:0:0:100:HHOpen.wav
109,192,12303,1,0,0:0:0:100:HHOpen.wav
256,192,12303,1,0,0:0:0:100:Bass.wav
402,192,12622,1,0,0:0:0:90:Snare.wav
182,192,12622,1,0,0:0:0:100:HHOpen.wav
109,192,12942,1,0,0:0:0:100:HHOpen.wav
475,192,12942,1,0,0:0:0:100:Bass.wav
402,192,13261,1,0,0:0:0:45:Snare.wav
256,192,13261,1,0,0:0:0:45:Snare.wav
36,192,13261,1,0,0:0:0:90:Crash-2.wav
36,192,13580,1,0,0:0:0:90:Crash-1.wav
182,192,13580,1,0,0:0:0:50:Bass.wav
475,192,13580,1,0,0:0:0:50:Bass.wav
329,192,13899,1,0,0:0:0:100:HHClose.wav
402,192,13899,1,0,0:0:0:90:Snare.wav
329,192,14537,1,0,0:0:0:100:HHClose.wav
402,192,14537,1,0,0:0:0:90:Snare.wav
329,192,15176,1,0,0:0:0:100:HHClose.wav
402,192,15176,1,0,0:0:0:90:Snare.wav
329,192,15814,1,0,0:0:0:100:HHClose.wav
402,192,15814,1,0,0:0:0:90:Snare.wav
36,192,15973,1,0,0:0:0:100:Bass.wav
182,192,16133,1,0,0:0:0:100:Bass.wav
329,192,16452,1,0,0:0:0:100:HHClose.wav
402,192,16452,1,0,0:0:0:90:Snare.wav
329,192,17091,1,0,0:0:0:100:HHClose.wav
402,192,17091,1,0,0:0:0:90:Snare.wav
329,192,17729,1,0,0:0:0:100:HHClose.wav
402,192,17729,1,0,0:0:0:90:Snare.wav
329,192,18367,1,0,0:0:0:100:HHClose.wav
402,192,18367,1,0,0:0:0:90:Snare.wav
36,192,18686,1,0,0:0:0:100:Bass.wav
329,192,19005,1,0,0:0:0:100:HHClose.wav
402,192,19005,1,0,0:0:0:90:Snare.wav
329,192,19644,1,0,0:0:0:100:HHClose.wav
402,192,19644,1,0,0:0:0:90:Snare.wav
329,192,20282,1,0,0:0:0:100:HHClose.wav
402,192,20282,1,0,0:0:0:90:Snare.wav
329,192,20920,1,0,0:0:0:100:HHClose.wav
402,192,20920,1,0,0:0:0:90:Snare.wav
36,192,21080,1,0,0:0:0:100:Bass.wav
182,192,21239,1,0,0:0:0:100:Bass.wav
329,192,21559,1,0,0:0:0:100:HHClose.wav
402,192,21559,1,0,0:0:0:90:Snare.wav
329,192,22197,1,0,0:0:0:100:HHClose.wav
402,192,22197,1,0,0:0:0:90:Snare.wav
329,192,22835,1,0,0:0:0:100:HHClose.wav
402,192,22835,1,0,0:0:0:90:Snare.wav
182,192,23314,1,0,0:0:0:90:Snare.wav
109,192,23314,1,0,0:0:0:100:HHClose.wav
402,192,23473,1,0,0:0:0:90:Snare.wav
329,192,23553,1,0,0:0:0:40:Snare.wav
256,192,23633,1,0,0:0:0:70:Snare.wav
182,192,23713,1,0,0:0:0:70:Snare.wav
109,192,23793,1,0,0:0:0:90:Crash-2.wav
475,192,23793,1,0,0:0:0:100:Bass.wav
475,192,23952,1,0,0:0:0:0:
36,192,24112,1,0,0:0:0:90:Snare.wav
36,192,24271,1,0,0:0:0:40:HHClose.wav
402,192,24431,1,0,0:0:0:100:Bass.wav
402,192,24591,1,0,0:0:0:100:Bass.wav
109,192,24750,1,0,0:0:0:90:Snare.wav
109,192,24910,1,0,0:0:0:40:HHClose.wav
475,192,25069,1,0,0:0:0:100:Bass.wav
475,192,25229,1,0,0:0:0:40:HHClose.wav
182,192,25388,1,0,0:0:0:90:Snare.wav
182,192,25548,1,0,0:0:0:40:HHClose.wav
329,192,25708,1,0,0:0:0:100:Bass.wav
329,192,25867,1,0,0:0:0:100:Bass.wav
36,192,26027,1,0,0:0:0:90:Snare.wav
36,192,26186,1,0,0:0:0:40:HHClose.wav
402,192,26346,1,0,0:0:0:100:Bass.wav
402,192,26505,1,0,0:0:0:40:HHClose.wav
109,192,26665,1,0,0:0:0:90:Snare.wav
109,192,26825,1,0,0:0:0:40:HHClose.wav
475,192,26984,1,0,0:0:0:100:Bass.wav
475,192,27144,1,0,0:0:0:100:Bass.wav
36,192,27303,1,0,0:0:0:90:Snare.wav
36,192,27463,1,0,0:0:0:40:HHClose.wav
182,192,27543,1,0,0:0:0:40:HHClose.wav
329,192,27622,1,0,0:0:0:100:Bass.wav
329,192,27782,1,0,0:0:0:40:HHClose.wav
109,192,27942,1,0,0:0:0:90:Snare.wav
109,192,28101,1,0,0:0:0:40:HHClose.wav
402,192,28261,1,0,0:0:0:100:Bass.wav
402,192,28420,1,0,0:0:0:100:Bass.wav
36,192,28580,1,0,0:0:0:90:Snare.wav
36,192,28739,1,0,0:0:0:40:HHClose.wav
256,192,28899,1,0,0:0:0:100:HHOpenM.wav
475,192,28899,1,0,0:0:0:100:Bass.wav
475,192,29059,1,0,0:0:0:40:HHClose.wav
182,192,29218,1,0,0:0:0:90:Snare.wav
182,192,29378,1,0,0:0:0:40:HHClose.wav
329,192,29537,1,0,0:0:0:100:Bass.wav
329,192,29697,1,0,0:0:0:100:Bass.wav
109,192,29856,1,0,0:0:0:90:Snare.wav
109,192,30016,1,0,0:0:0:40:HHClose.wav
475,192,30176,1,0,0:0:0:100:Bass.wav
475,192,30335,1,0,0:0:0:40:HHClose.wav
36,192,30495,1,0,0:0:0:90:Snare.wav
36,192,30654,1,0,0:0:0:40:HHClose.wav
402,192,30814,1,0,0:0:0:100:Bass.wav
402,192,30973,1,0,0:0:0:100:Bass.wav
36,192,31133,1,0,0:0:0:90:Snare.wav
36,192,31293,1,0,0:0:0:40:HHClose.wav
182,192,31452,1,0,0:0:0:100:Bass.wav
182,192,31612,1,0,0:0:0:40:HHClose.wav
475,192,31771,1,0,0:0:0:90:Snare.wav
475,192,31931,1,0,0:0:0:40:HHClose.wav
329,192,32091,1,0,0:0:0:100:Bass.wav
329,192,32250,1,0,0:0:0:100:Bass.wav
109,192,32410,1,0,0:0:0:90:Snare.wav
109,192,32569,1,0,0:0:0:40:HHClose.wav
402,192,32729,1,0,0:0:0:100:Bass.wav
402,192,32888,1,0,0:0:0:45:Snare.wav
182,192,32888,128,0,33048:0:0:0:45:Snare.wav
36,192,33048,128,0,33208:0:0:0:90:Snare.wav
329,192,33208,1,0,0:0:0:40:Snare.wav
402,192,33287,1,0,0:0:0:70:Snare.wav
36,192,33367,1,0,0:0:0:45:Snare.wav
475,192,33367,128,0,33527:0:0:0:45:Snare.wav
36,192,33527,128,0,33686:0:0:0:0:
256,192,33527,1,0,0:0:0:100:Tom1.wav
329,192,33686,1,0,0:0:0:50:Tom3.wav
475,192,33686,1,0,0:0:0:50:Tom3.wav
182,192,33686,128,0,34005:0:0:0:0:
36,192,34005,1,0,0:0:0:100:Bass.wav
475,192,34005,1,0,0:0:0:90:Crash-1.wav
36,192,34165,1,0,0:0:0:100:Bass.wav
475,192,34325,1,0,0:0:0:100:HHClose.wav
36,192,34484,1,0,0:0:0:100:Bass.wav
475,192,34644,1,0,0:0:0:100:HHClose.wav
36,192,34644,1,0,0:0:0:90:Snare.wav
475,192,34963,1,0,0:0:0:100:HHClose.wav
109,192,34963,1,0,0:0:0:100:Bass.wav
109,192,35122,1,0,0:0:0:100:Bass.wav
475,192,35282,1,0,0:0:0:100:HHClose.wav
109,192,35442,1,0,0:0:0:90:Snare.wav
475,192,35601,1,0,0:0:0:100:HHClose.wav
109,192,35601,1,0,0:0:0:100:Bass.wav
475,192,35920,1,0,0:0:0:100:HHClose.wav
109,192,35920,1,0,0:0:0:90:Snare.wav
475,192,36239,1,0,0:0:0:100:HHClose.wav
329,192,36399,1,0,0:0:0:40:Snare.wav
182,192,36479,1,0,0:0:0:40:Snare.wav
475,192,36559,1,0,0:0:0:100:HHClose.wav
36,192,36559,1,0,0:0:0:100:Bass.wav
36,192,36718,1,0,0:0:0:100:Bass.wav
475,192,36878,1,0,0:0:0:100:HHClose.wav
36,192,37037,1,0,0:0:0:100:Bass.wav
475,192,37197,1,0,0:0:0:100:HHClose.wav
36,192,37197,1,0,0:0:0:90:Snare.wav
475,192,37516,1,0,0:0:0:100:HHClose.wav
109,192,37516,1,0,0:0:0:100:Bass.wav
109,192,37676,1,0,0:0:0:100:Bass.wav
475,192,37835,1,0,0:0:0:100:HHClose.wav
109,192,37995,1,0,0:0:0:90:Snare.wav
475,192,38154,1,0,0:0:0:100:HHClose.wav
109,192,38154,1,0,0:0:0:100:Bass.wav
475,192,38473,1,0,0:0:0:100:HHClose.wav
109,192,38473,1,0,0:0:0:90:Snare.wav
109,192,38633,1,0,0:0:0:100:Bass.wav
475,192,38793,1,0,0:0:0:100:HHClose.wav
36,192,38952,1,0,0:0:0:90:Snare.wav
402,192,39112,1,0,0:0:0:100:Bass.wav
36,192,39112,1,0,0:0:0:90:Crash-2.wav
402,192,39271,1,0,0:0:0:100:Bass.wav
36,192,39431,1,0,0:0:0:100:HHClose.wav
402,192,39591,1,0,0:0:0:100:Bass.wav
402,192,39750,1,0,0:0:0:90:Snare.wav
36,192,39750,1,0,0:0:0:100:HHClose.wav
36,192,40069,1,0,0:0:0:100:HHClose.wav
402,192,40069,1,0,0:0:0:100:Bass.wav
402,192,40229,1,0,0:0:0:100:Bass.wav
36,192,40388,1,0,0:0:0:100:HHClose.wav
402,192,40548,1,0,0:0:0:90:Snare.wav
402,192,40708,1,0,0:0:0:100:Bass.wav
36,192,40708,1,0,0:0:0:100:HHClose.wav
109,192,41027,1,0,0:0:0:90:Snare.wav
475,192,41027,1,0,0:0:0:100:HHClose.wav
109,192,41186,1,0,0:0:0:100:Bass.wav
475,192,41346,1,0,0:0:0:100:HHOpen.wav
329,192,41505,1,0,0:0:0:90:Snare.wav
256,192,41585,1,0,0:0:0:90:Snare.wav
36,192,41665,1,0,0:0:0:90:Crash-1.wav
475,192,41665,1,0,0:0:0:50:Bass.wav
182,192,41665,1,0,0:0:0:50:Bass.wav
36,192,41984,1,0,0:0:0:45:Snare.wav
182,192,41984,1,0,0:0:0:45:Snare.wav
329,192,42303,1,0,0:0:0:100:Bass.wav
329,192,42463,1,0,0:0:0:100:Bass.wav
182,192,42622,1,0,0:0:0:45:Snare.wav
36,192,42622,1,0,0:0:0:45:Snare.wav
402,192,42942,1,0,0:0:0:100:Bass.wav
402,192,43101,1,0,0:0:0:100:Bass.wav
182,192,43261,1,0,0:0:0:45:Snare.wav
36,192,43261,1,0,0:0:0:45:Snare.wav
329,192,43420,1,0,0:0:0:100:Bass.wav
182,192,43580,1,0,0:0:0:45:Snare.wav
36,192,43580,1,0,0:0:0:45:Snare.wav
475,192,43739,1,0,0:0:0:100:Bass.wav
36,192,43899,1,0,0:0:0:90:Snare.wav
402,192,43979,1,0,0:0:0:70:Snare.wav
36,192,44059,1,0,0:0:0:100:Tom2.wav
402,192,44138,1,0,0:0:0:100:Tom2.wav
109,192,44218,1,0,0:0:0:100:Bass.wav
256,192,44218,1,0,0:0:0:90:Crash-1.wav
109,192,44537,1,0,0:0:0:45:Snare.wav
475,192,44537,1,0,0:0:0:45:Snare.wav
329,192,44856,1,0,0:0:0:100:Bass.wav
329,192,45016,1,0,0:0:0:100:Bass.wav
475,192,45176,1,0,0:0:0:45:Snare.wav
182,192,45176,1,0,0:0:0:45:Snare.wav
256,192,45495,1,0,0:0:0:100:Bass.wav
256,192,45654,1,0,0:0:0:100:Bass.wav
109,192,45814,1,0,0:0:0:45:Snare.wav
475,192,45814,1,0,0:0:0:45:Snare.wav
329,192,46133,1,0,0:0:0:100:Bass.wav
256,192,46293,1,0,0:0:0:100:Bass.wav
109,192,46452,1,0,0:0:0:45:Snare.wav
475,192,46452,1,0,0:0:0:45:Snare.wav
256,192,46931,1,0,0:0:0:100:Bass.wav
109,192,47091,1,0,0:0:0:45:Snare.wav
475,192,47091,1,0,0:0:0:45:Snare.wav
182,192,47410,1,0,0:0:0:100:Bass.wav
182,192,47569,1,0,0:0:0:100:Bass.wav
36,192,47729,1,0,0:0:0:45:Snare.wav
256,192,47729,1,0,0:0:0:45:Snare.wav
109,192,48048,1,0,0:0:0:100:Bass.wav
109,192,48208,1,0,0:0:0:100:Bass.wav
36,192,48367,1,0,0:0:0:45:Snare.wav
329,192,48367,1,0,0:0:0:45:Snare.wav
182,192,48686,1,0,0:0:0:100:Bass.wav
182,192,48846,1,0,0:0:0:100:Bass.wav
36,192,49005,1,0,0:0:0:45:Snare.wav
402,192,49005,1,0,0:0:0:45:Snare.wav
36,192,49325,1,0,0:0:0:45:Crash-2.wav
402,192,49325,1,0,0:0:0:100:Bass.wav
109,192,49325,1,0,0:0:0:45:Crash-2.wav
475,192,49644,1,0,0:0:0:45:Snare.wav
256,192,49644,1,0,0:0:0:45:Snare.wav
329,192,49963,1,0,0:0:0:100:Bass.wav
329,192,50122,1,0,0:0:0:100:Bass.wav
182,192,50282,1,0,0:0:0:45:Snare.wav
475,192,50282,1,0,0:0:0:45:Snare.wav
36,192,50601,1,0,0:0:0:100:Bass.wav
475,192,50920,1,0,0:0:0:45:Snare.wav
256,192,50920,1,0,0:0:0:45:Snare.wav
329,192,51239,1,0,0:0:0:100:Bass.wav
329,192,51399,1,0,0:0:0:100:Bass.wav
475,192,51559,1,0,0:0:0:45:Snare.wav
182,192,51559,1,0,0:0:0:45:Snare.wav
475,192,51878,1,0,0:0:0:50:Bass.wav
36,192,51878,1,0,0:0:0:50:Bass.wav
475,192,52197,1,0,0:0:0:45:Snare.wav
36,192,52197,1,0,0:0:0:45:Snare.wav
329,192,52516,1,0,0:0:0:100:Bass.wav
329,192,52676,1,0,0:0:0:100:Bass.wav
402,192,52835,1,0,0:0:0:45:Snare.wav
182,192,52835,1,0,0:0:0:45:Snare.wav
109,192,53154,1,0,0:0:0:100:Bass.wav
329,192,53314,1,0,0:0:0:100:Bass.wav
182,192,53473,1,0,0:0:0:45:Snare.wav
36,192,53473,1,0,0:0:0:45:Snare.wav
402,192,53633,1,0,0:0:0:100:Tom2.wav
36,192,53713,1,0,0:0:0:100:Tom2.wav
402,192,53793,1,0,0:0:0:100:Tom3.wav
256,192,53793,1,0,0:0:0:100:Bass.wav
109,192,53952,1,0,0:0:0:100:Bass.wav
329,192,54112,1,0,0:0:0:45:Snare.wav
475,192,54112,1,0,0:0:0:45:Snare.wav
109,192,54271,1,0,0:0:0:100:Bass.wav
329,192,54431,1,0,0:0:0:45:Crash-2.wav
475,192,54431,1,0,0:0:0:45:Crash-2.wav
36,192,54431,1,0,0:0:0:100:Bass.wav
402,192,54750,1,0,0:0:0:45:Snare.wav
36,192,54750,1,0,0:0:0:45:Snare.wav
182,192,55069,1,0,0:0:0:100:Bass.wav
182,192,55229,1,0,0:0:0:100:Bass.wav
36,192,55388,1,0,0:0:0:45:Snare.wav
329,192,55388,1,0,0:0:0:45:Snare.wav
256,192,55708,1,0,0:0:0:100:Bass.wav
256,192,55867,1,0,0:0:0:100:Bass.wav
402,192,56027,1,0,0:0:0:45:Snare.wav
36,192,56027,1,0,0:0:0:45:Snare.wav
182,192,56346,1,0,0:0:0:100:Bass.wav
256,192,56505,1,0,0:0:0:100:Bass.wav
36,192,56665,1,0,0:0:0:45:Snare.wav
402,192,56665,1,0,0:0:0:45:Snare.wav
256,192,57144,1,0,0:0:0:100:Bass.wav
36,192,57303,1,0,0:0:0:45:Snare.wav
402,192,57303,1,0,0:0:0:45:Snare.wav
182,192,57543,1,0,0:0:0:90:Snare.wav
36,192,57622,1,0,0:0:0:50:Bass.wav
475,192,57622,1,0,0:0:0:50:Bass.wav
329,192,57782,1,0,0:0:0:100:Bass.wav
109,192,57942,1,0,0:0:0:45:Snare.wav
475,192,57942,1,0,0:0:0:45:Snare.wav
182,192,58261,1,0,0:0:0:100:Bass.wav
36,192,58420,1,0,0:0:0:100:Bass.wav
256,192,58580,1,0,0:0:0:45:Snare.wav
475,192,58580,1,0,0:0:0:45:Snare.wav
329,192,58899,1,0,0:0:0:100:Bass.wav
36,192,59059,1,0,0:0:0:100:Bass.wav
256,192,59218,1,0,0:0:0:45:Snare.wav
475,192,59218,1,0,0:0:0:45:Snare.wav
109,192,59537,128,0,59697:0:0:0:100:Bass.wav
329,192,59697,128,0,59856:0:0:0:100:Bass.wav
109,192,59856,128,0,60016:0:0:0:100:Bass.wav
329,192,60016,128,0,60176:0:0:0:100:Bass.wav
109,192,60176,128,0,60654:0:0:0:90:Snare.wav
402,192,60495,1,0,0:0:0:90:Ride.wav
182,192,60654,1,0,0:0:0:90:Snare.wav
402,192,60814,128,0,60973:0:0:0:100:Bass.wav
182,192,60973,128,0,61133:0:0:0:100:Bass.wav
402,192,61133,128,0,61293:0:0:0:100:Bass.wav
182,192,61293,128,0,61452:0:0:0:100:Bass.wav
402,192,61452,128,0,61931:0:0:0:90:Snare.wav
36,192,61612,1,0,0:0:0:100:Bass.wav
182,192,61771,1,0,0:0:0:90:Ride.wav
329,192,61931,1,0,0:0:0:90:Snare.wav
36,192,62091,128,0,62250:0:0:0:100:Bass.wav
475,192,62250,128,0,62410:0:0:0:100:Bass.wav
36,192,62410,128,0,62569:0:0:0:100:Bass.wav
475,192,62569,128,0,62729:0:0:0:100:Bass.wav
36,192,62729,128,0,63048:0:0:0:90:Snare.wav
402,192,63048,128,0,63208:0:0:0:100:Bass.wav
109,192,63208,128,0,63367:0:0:0:100:Bass.wav
402,192,63367,128,0,63527:0:0:0:100:Bass.wav
109,192,63527,128,0,63686:0:0:0:45:Snare.wav
182,192,63527,128,0,63686:0:0:0:45:Snare.wav
402,192,63686,128,0,63846:0:0:0:100:Bass.wav
109,192,63846,128,0,64005:0:0:0:100:Bass.wav
329,192,64005,128,0,64165:0:0:0:45:Snare.wav
402,192,64005,128,0,64165:0:0:0:45:Snare.wav
182,192,64165,1,0,0:0:0:100:Bass.wav
36,192,64245,1,0,0:0:0:100:Bass.wav
182,192,64325,1,0,0:0:0:90:Snare.wav
475,192,64325,1,0,0:0:0:90:Crash-1.wav
36,192,64644,1,0,0:0:0:100:Bass.wav
329,192,64644,1,0,0:0:0:90:Crash-2.wav
36,192,64963,1,0,0:0:0:45:Snare.wav
475,192,64963,1,0,0:0:0:45:Snare.wav
109,192,65282,1,0,0:0:0:100:Bass.wav
109,192,65442,1,0,0:0:0:100:Bass.wav
256,192,65601,1,0,0:0:0:45:Snare.wav
402,192,65601,1,0,0:0:0:45:Snare.wav
36,192,65920,1,0,0:0:0:100:Tom3.wav
256,192,65920,1,0,0:0:0:90:Snare.wav
329,192,66080,1,0,0:0:0:90:Snare.wav
475,192,66080,1,0,0:0:0:100:Tom3.wav
256,192,66239,1,0,0:0:0:90:Snare.wav
36,192,66239,1,0,0:0:0:100:Tom3.wav
475,192,66399,1,0,0:0:0:100:Tom3.wav
329,192,66399,1,0,0:0:0:90:Snare.wav
402,192,66718,1,0,0:0:0:100:Bass.wav
329,192,66798,1,0,0:0:0:100:Bass.wav
256,192,66878,1,0,0:0:0:90:Snare.wav
36,192,66878,1,0,0:0:0:100:Splash.wav
182,192,67197,1,0,0:0:0:100:Bass.wav
475,192,67197,128,0,67356:0:0:0:0:
36,192,67356,128,0,67516:0:0:0:0:
402,192,67516,1,0,0:0:0:45:Snare.wav
256,192,67516,1,0,0:0:0:45:Snare.wav
182,192,67676,128,0,67835:0:0:0:0:
475,192,67835,1,0,0:0:0:100:Bass.wav
36,192,67995,128,0,68154:0:0:0:0:
402,192,68154,1,0,0:0:0:45:Snare.wav
256,192,68154,1,0,0:0:0:45:Snare.wav
475,192,68314,128,0,68473:0:0:0:0:
329,192,68473,128,0,68633:0:0:0:0:
109,192,68473,1,0,0:0:0:100:Bass.wav
36,192,68633,128,0,68793:0:0:0:0:
182,192,68793,128,0,68952:0:0:0:0:
402,192,68793,1,0,0:0:0:90:Snare.wav
475,192,68952,128,0,69112:0:0:0:0:
329,192,69112,128,0,69271:0:0:0:0:
109,192,69112,1,0,0:0:0:100:Bass.wav
36,192,69271,128,0,69431:0:0:0:0:
182,192,69431,128,0,69591:0:0:0:0:
402,192,69431,1,0,0:0:0:90:Snare.wav
109,192,69750,128,0,70069:0:0:0:0:
475,192,69750,1,0,0:0:0:100:Bass.wav
36,192,70069,1,0,0:0:0:45:Snare.wav
256,192,70069,1,0,0:0:0:45:Snare.wav
402,192,70229,128,0,70388:0:0:0:0:
182,192,70388,1,0,0:0:0:100:Bass.wav
109,192,70548,128,0,70708:0:0:0:0:
256,192,70708,1,0,0:0:0:45:Snare.wav
36,192,70708,1,0,0:0:0:45:Snare.wav
402,192,70867,128,0,71027:0:0:0:0:
475,192,71027,128,0,71186:0:0:0:0:
182,192,71027,1,0,0:0:0:100:Bass.wav
109,192,71186,128,0,71346:0:0:0:0:
36,192,71346,128,0,71505:0:0:0:0:
256,192,71346,1,0,0:0:0:90:Snare.wav
329,192,71505,128,0,71665:0:0:0:0:
475,192,71665,1,0,0:0:0:100:Bass.wav
182,192,71825,128,0,71984:0:0:0:0:
475,192,71984,1,0,0:0:0:45:Snare.wav
109,192,71984,1,0,0:0:0:45:Snare.wav
402,192,72144,1,0,0:0:0:40:Snare.wav
182,192,72223,1,0,0:0:0:40:Snare.wav
329,192,72303,128,0,72622:0:0:0:0:
36,192,72303,1,0,0:0:0:100:Bass.wav
256,192,72622,1,0,0:0:0:45:Snare.wav
475,192,72622,1,0,0:0:0:45:Snare.wav
109,192,72782,128,0,72942:0:0:0:0:
36,192,72942,1,0,0:0:0:100:Bass.wav
402,192,73101,128,0,73261:0:0:0:0:
256,192,73261,1,0,0:0:0:45:Snare.wav
475,192,73261,1,0,0:0:0:45:Snare.wav
109,192,73420,128,0,73580:0:0:0:0:
182,192,73580,128,0,73739:0:0:0:0:
329,192,73580,1,0,0:0:0:100:Bass.wav
36,192,73739,128,0,73899:0:0:0:0:
402,192,73899,128,0,74059:0:0:0:0:
109,192,73899,1,0,0:0:0:90:Snare.wav
329,192,74059,128,0,74218:0:0:0:0:
475,192,74218,128,0,74378:0:0:0:0:
36,192,74218,1,0,0:0:0:100:Bass.wav
182,192,74378,128,0,74537:0:0:0:0:
329,192,74537,128,0,74697:0:0:0:0:
109,192,74537,1,0,0:0:0:90:Snare.wav
182,192,74856,128,0,75176:0:0:0:0:
475,192,74856,1,0,0:0:0:100:Bass.wav
36,192,75176,1,0,0:0:0:45:Snare.wav
256,192,75176,1,0,0:0:0:45:Snare.wav
402,192,75335,128,0,75495:0:0:0:0:
475,192,75495,1,0,0:0:0:100:Bass.wav
182,192,75654,128,0,75814:0:0:0:0:
256,192,75814,1,0,0:0:0:45:Snare.wav
36,192,75814,1,0,0:0:0:45:Snare.wav
402,192,75973,128,0,76133:0:0:0:0:
329,192,76133,128,0,76293:0:0:0:0:
182,192,76133,1,0,0:0:0:100:Bass.wav
475,192,76293,128,0,76452:0:0:0:0:
402,192,76452,1,0,0:0:0:90:Snare.wav
109,192,76452,128,0,76612:0:0:0:0:
36,192,76612,128,0,76771:0:0:0:0:
182,192,76771,1,0,0:0:0:45:Snare.wav
256,192,76771,1,0,0:0:0:45:Snare.wav
329,192,76931,128,0,77091:0:0:0:0:
402,192,77091,1,0,0:0:0:100:Tom3.wav
36,192,77091,128,0,77250:0:0:0:0:
256,192,77250,128,0,77410:0:0:0:0:
475,192,77410,128,0,81239:0:0:0:60:Crash-1.wav
329,192,77410,128,0,81239:0:0:0:90:Crash-2.wav
36,192,77410,1,0,0:0:0:100:Bass.wav
