osu file format v14

[General]
AudioFilename: Marika - Soul Release.mp3
AudioLeadIn: 500
PreviewTime: 187571
Countdown: 0
SampleSet: Soft
StackLeniency: 0.7
Mode: 0
LetterboxInBreaks: 0
WidescreenStoryboard: 0

[Editor]
DistanceSpacing: 1.1
BeatDivisor: 4
GridSize: 4
TimelineZoom: 1.2

[Metadata]
Title:Soul Release
TitleUnicode:Soul Release
Artist:Marika
ArtistUnicode:真里歌
Creator:El SolarBeam
Version:Normal
Source:ハロー・レディ!
Tags:Hello Lady! Akatsuki Works Meis Clauson Angel Note eroge visual novel ts8zs UnitedWeSin
BeatmapID:520699
BeatmapSetID:222790

[Difficulty]
HPDrainRate:3
CircleSize:3
OverallDifficulty:4
ApproachRate:5.5
SliderMultiplier:1.1
SliderTickRate:1

[Events]
//Background and Video events
0,0,"bg.jpg",0,0
//Break Periods
2,80537,81446
2,131396,150383
//Storyboard Layer 0 (Background)
//Storyboard Layer 1 (Fail)
//Storyboard Layer 2 (Pass)
//Storyboard Layer 3 (Foreground)
//Storyboard Sound Samples

[TimingPoints]
1189,319.148936170213,4,2,1,85,1,0
1189,-100,4,2,1,60,0,0
3742,-100,4,2,1,85,0,0
13954,-100,4,2,1,75,0,0
24167,-100,4,2,1,85,0,0
34061,-100,4,2,1,60,0,0
34380,-100,4,2,1,85,0,0
44593,-100,4,2,1,90,0,1
67571,-100,4,2,1,85,0,0
77784,-100,4,2,1,60,0,0
82891,-100,4,2,1,85,0,0
97891,-100,4,2,1,60,0,0
98210,-100,4,2,1,85,0,0
108423,-100,4,2,1,90,0,1
131401,-100,4,2,1,85,0,0
172252,-100,4,2,1,60,0,0
176720,-100,4,2,1,10,0,0
177359,-100,4,2,1,75,0,0
182146,-100,4,2,1,85,0,0
182465,-100,4,2,1,85,0,1
197465,-100,4,2,1,85,0,0
197784,-100,4,2,1,90,0,1
220763,-100,4,2,1,85,0,0
231295,-100,4,2,1,70,0,0
231614,-100,4,2,1,60,0,0
232252,-100,4,2,1,50,0,0
232891,-100,4,2,1,40,0,0
233529,-100,4,2,1,30,0,0
234167,-100,4,2,1,20,0,0
234806,-100,4,2,1,10,0,0

[Colours]
Combo1 : 243,52,81
Combo2 : 0,0,136
Combo3 : 202,101,0

[HitObjects]
92,200,1189,6,0,B|150:165|190:249|190:249|258:137|322:249|322:249|364:164|424:192,1,440
508,108,2784,1,0,0:0:0:0:
404,48,3103,1,0,0:0:0:0:
296,108,3423,1,8,0:0:0:0:
189,49,3742,6,0,B|156:67|108:48|108:48|36:112|57:164,1,220,6|2,0:0|0:0,0:0:0:0:
164,224,4699,1,8,0:0:0:0:
60,284,5018,2,0,L|24:340,2,55,2|2|8,0:0|0:0|0:0,0:0:0:0:
56,164,5657,2,0,L|20:108,2,55,2|2|8,0:0|0:0|0:0,0:0:0:0:
164,224,6295,6,0,B|224:196|280:220|280:220|308:276|380:284,1,220,2|2,0:0|0:0,0:0:0:0:
416,268,7093,2,0,L|484:240,1,55,2|8,0:0|0:0,0:0:0:0:
412,140,7571,2,0,L|344:168,2,55,2|2|8,0:0|0:0|0:0,0:0:0:0:
324,56,8210,2,0,L|260:80,1,55,2|2,0:0|0:0,0:0:0:0:
252,132,8529,2,0,L|180:156,1,55,8|0,0:0|0:0,0:0:0:0:
140,144,8848,6,0,P|189:239|140:344,1,220,6|2,0:0|0:0,0:0:0:0:
72,244,9806,1,8,0:0:0:0:
140,144,10125,2,0,L|132:84,2,55,2|2|8,0:0|0:0|0:0,0:0:0:0:
256,172,10763,2,0,L|248:117,2,55,2|2|8,0:0|0:0|0:0,0:0:0:0:
184,268,11401,6,0,B|232:296|292:276|292:276|348:256|396:285,1,220,2|2,0:0|0:0,0:0:0:0:
452,308,12199,2,0,L|468:244,1,55,2|8,0:0|0:0,0:0:0:0:
380,168,12678,2,0,L|396:104,1,55,2|2,0:0|0:0,0:0:0:0:
412,56,12997,2,0,P|356:69|303:55,1,110,8|2,0:0|0:0,0:0:0:0:
264,100,13476,1,2,0:0:0:0:
228,148,13635,2,0,P|172:136|119:146,1,110,8|4,0:0|0:0,0:0:0:0:
172,256,14274,6,0,P|277:271|352:196,3,220,8|8|8|8,0:0|0:0|0:0|0:0,0:0:0:0:
340,136,16348,2,0,P|327:106|308:84,1,55,2|2,0:0|0:0,0:0:0:0:
228,176,16827,6,0,P|264:284|368:316,3,220,8|8|8|8,0:0|0:0|0:0|0:0,0:0:0:0:
348,196,19061,1,2,0:0:0:0:
468,212,19380,6,0,P|432:108|328:72,3,220,8|8|8|8,0:0|0:0|0:0|0:0,0:0:0:0:
276,68,21454,2,0,P|253:83|239:107,1,55,2|2,0:0|0:0,0:0:0:0:
196,220,21933,6,0,P|232:324|332:359,3,220,8|8|8|8,0:0|0:0|0:0|0:0,0:0:0:0:
312,240,24167,6,0,L|360:196,1,55,6|2,0:0|0:0,0:0:0:0:
412,184,24486,2,0,P|340:144|302:73,1,165,8|2,0:0|0:0,0:0:0:0:
260,116,25125,1,8,0:0:0:0:
184,208,25444,2,0,P|200:261|188:314,1,110,2|8,0:0|0:0,0:0:0:0:
308,308,26082,2,0,L|380:296,1,55,2|2,0:0|0:0,0:0:0:0:
352,240,26401,2,0,L|424:228,1,55,8|0,0:0|0:0,0:0:0:0:
452,192,26720,6,0,P|424:144|418:90,1,110,2|8,0:0|0:0,0:0:0:0:
296,100,27359,2,0,L|224:116,1,55,2|2,0:0|0:0,0:0:0:0:
184,124,27678,1,8,0:0:0:0:
256,220,27997,2,0,B|284:280|260:328|260:328|316:316|369:342,1,220,2|2,0:0|0:0,0:0:0:0:
424,344,28795,1,2,0:0:0:0:
484,332,28954,2,0,L|480:256,1,55,8|0,0:0|0:0,0:0:0:0:
448,224,29274,6,0,L|440:114,1,110,2|8,0:0|0:0,0:0:0:0:
320,108,29912,2,0,L|324:164,1,55,2|2,0:0|0:0,0:0:0:0:
324,223,30231,2,0,P|274:245|219:241,1,110,8|2,0:0|0:0,0:0:0:0:
112,184,30869,1,8,0:0:0:0:
28,272,31189,2,0,L|32:344,1,55,2|2,0:0|0:0,0:0:0:0:
92,316,31508,2,0,L|96:388,1,55,8|0,0:0|0:0,0:0:0:0:
156,360,31827,6,0,P|209:347|262:359,1,110,2|8,0:0|0:0,0:0:0:0:
308,316,32306,2,0,P|361:327|414:315,1,110,2|2,0:0|0:0,0:0:0:0:
452,268,32784,1,8,0:0:0:0:
372,176,33103,2,0,P|368:148|369:121,2,55,2|8|0,0:0|0:0|0:0,0:0:0:0:
316,196,33582,2,0,P|316:228|308:256,1,55,2|8,0:0|0:0,0:0:0:0:
276,300,33901,1,0,0:0:0:0:
224,332,34061,6,0,P|171:343|120:323,1,110,2|6,0:0|0:0,0:0:0:0:
68,292,34540,1,2,0:0:0:0:
64,172,34858,1,2,0:0:0:0:
116,140,35018,2,0,P|169:129|220:149,1,110,8|0,0:0|0:0,0:0:0:0:
280,144,35497,2,0,P|330:163|383:152,1,110,2|8,0:0|0:0,0:0:0:0:
444,140,35976,2,0,L|436:268,1,110,2|8,0:0|0:0,0:0:0:0:
376,352,36614,1,0,0:0:0:0:
312,236,36933,5,2,0:0:0:0:
312,236,37093,2,0,P|259:248|207:230,1,110,2|2,0:0|0:0,0:0:0:0:
160,192,37571,2,0,P|147:139|165:87,1,110,8|2,0:0|0:0,0:0:0:0:
204,40,38050,1,2,0:0:0:0:
312,92,38369,2,0,L|368:92,1,55,8|2,0:0|0:0,0:0:0:0:
416,204,38848,2,0,L|360:204,1,55,8|2,0:0|0:0,0:0:0:0:
292,304,39327,6,0,L|348:304,2,55,8|6|2,0:0|0:0|0:0,0:0:0:0:
232,200,39965,1,2,0:0:0:0:
232,200,40125,2,0,P|178:189|124:201,1,110,8|2,0:0|0:0,0:0:0:0:
68,224,40603,1,2,0:0:0:0:
92,104,40923,2,0,L|96:40,1,55,8|2,0:0|0:0,0:0:0:0:
216,72,41401,2,0,P|269:83|324:71,1,110,8|0,0:0|0:0,0:0:0:0:
344,192,42040,6,0,L|336:324,1,110,6|8,0:0|0:0,0:0:0:0:
456,320,42678,2,0,L|460:256,1,55,2|2,0:0|0:0,0:0:0:0:
488,212,42997,2,0,L|472:144,1,55,8|0,0:0|0:0,0:0:0:0:
484,99,43316,2,0,P|435:123|382:113,1,110,2|8,0:0|0:0,0:0:0:0:
272,68,43954,2,0,P|218:57|160:80,1,110,8|8,0:0|0:0,0:0:0:0:
228,180,44593,5,6,0:0:0:0:
180,292,44912,2,0,P|233:302|288:288,1,110,8|2,0:0|0:0,0:0:0:0:
348,300,45391,2,0,L|368:244,1,55,2|8,0:0|0:0,0:0:0:0:
428,248,45710,2,0,B|432:180|432:180|420:152|408:145,1,110,0|2,0:0|0:0,0:0:0:0:
388,88,46189,2,0,P|337:108|285:94,1,110,8|2,0:0|0:0,0:0:0:0:
176,44,46827,6,0,P|132:144|183:239,2,220,12|8|8,0:0|0:0|0:0,0:0:0:0:
252,140,48423,2,0,B|304:140|304:140|336:144|356:164,1,110,0|8,0:0|0:0,0:0:0:0:
416,168,48901,2,0,P|419:223|394:271,1,110,0|0,0:0|0:0,0:0:0:0:
356,316,49380,1,8,0:0:0:0:
256,248,49699,6,0,P|253:193|276:144,1,110,6|8,0:0|0:0,0:0:0:0:
348,48,50337,2,0,L|284:40,1,55,2|2,0:0|0:0,0:0:0:0:
232,36,50657,1,8,0:0:0:0:
132,104,50976,2,0,P|140:160|124:212,1,110,2|8,0:0|0:0,0:0:0:0:
60,312,51614,2,0,L|124:320,1,55,2|2,0:0|0:0,0:0:0:0:
176,324,51933,1,8,0:0:0:0:
296,348,52252,6,0,P|284:292|300:240,1,110,2|8,0:0|0:0,0:0:0:0:
336,196,52731,2,0,P|348:140|332:80,1,110,0|2,0:0|0:0,0:0:0:0:
300,40,53210,1,8,0:0:0:0:
232,140,53529,2,0,L|160:140,2,55,2|2|12,0:0|0:0|0:0,0:0:0:0:
336,196,54167,2,0,L|408:196,2,55,2|2|12,0:0|0:0|0:0,0:0:0:0:
232,260,54806,5,6,0:0:0:0:
232,140,55125,2,0,P|232:80|260:36,1,110,8|2,0:0|0:0,0:0:0:0:
312,64,55603,2,0,P|333:48|360:37,1,55,2|8,0:0|0:0,0:0:0:0:
396,84,55923,2,0,P|449:95|486:135,1,110,0|2,0:0|0:0,0:0:0:0:
451,183,56401,2,0,P|471:234|462:288,1,110,8|2,0:0|0:0,0:0:0:0:
348,248,57040,6,0,P|328:140|416:64,2,220,12|8|8,0:0|0:0|0:0,0:0:0:0:
248,312,58635,2,0,L|140:292,1,110,0|8,0:0|0:0,0:0:0:0:
160,236,59114,2,0,L|52:216,1,110
84,164,59593,1,8,0:0:0:0:
194,112,59912,6,0,L|218:62,1,55,6|2,0:0|0:0,0:0:0:0:
275,39,60231,2,0,L|297:89,1,55,2|2,0:0|0:0,0:0:0:0:
316,148,60550,2,0,P|370:160|422:144,1,110,8|0,0:0|0:0,0:0:0:0:
476,120,61029,2,0,P|471:175|480:233,1,110,8|2,0:0|0:0,0:0:0:0:
492,288,61508,1,2,0:0:0:0:
376,320,61827,6,0,B|336:340|292:320|292:320|252:304|218:326,1,165,8|8,0:0|0:0,0:0:0:0:
160,340,62465,2,0,L|160:280,1,55,2|2,0:0|0:0,0:0:0:0:
104,264,62784,2,0,L|104:204,1,55,2|2,0:0|0:0,0:0:0:0:
76,156,63103,2,0,P|129:169|185:156,1,110,8|0,0:0|0:0,0:0:0:0:
244,156,63582,2,0,P|298:143|351:156,1,110,2|8,0:0|0:0,0:0:0:0:
408,176,64061,2,0,L|424:116,2,55,2|2|8,0:0|0:0|0:0,0:0:0:0:
368,292,64699,1,8,0:0:0:0:
368,292,65018,6,0,L|258:278,1,110,6|8,0:0|0:0,0:0:0:0:
208,312,65497,2,0,P|228:260|220:204,1,110,0|0,0:0|0:0,0:0:0:0:
204,148,65976,1,8,0:0:0:0:
324,140,66295,2,0,L|352:80,2,55,8|8|8,0:0|0:0|0:0,0:0:0:0:
315,195,66774,2,0,P|343:242|348:297,1,110,8|2,0:0|0:0,0:0:0:0:
332,356,67252,1,4,0:0:0:0:
216,324,67571,6,0,B|224:272|176:228|176:228|132:180|152:112,1,220,6|2,0:0|0:0,0:0:0:0:
248,56,68529,1,8,0:0:0:0:
288,172,68848,2,0,L|228:148,2,55,2|2|8,0:0|0:0|0:0,0:0:0:0:
384,248,69486,2,0,L|448:232,2,55,2|2|8,0:0|0:0|0:0,0:0:0:0:
268,292,70125,6,0,B|208:276|144:292|144:292|184:260|180:208,1,220,2|2,0:0|0:0,0:0:0:0:
160,152,70923,2,0,P|152:120|136:96,1,55,2|8,0:0|0:0,0:0:0:0:
256,64,71401,2,0,L|324:52,2,55,2|2|8,0:0|0:0|0:0,0:0:0:0:
280,184,72040,2,0,L|291:237,1,55,2|2,0:0|0:0,0:0:0:0:
352,236,72359,2,0,L|368:312,1,55,8|2,0:0|0:0,0:0:0:0:
408,332,72678,6,0,B|452:304|516:324|516:324|492:268|507:215,1,220,6|2,0:0|0:0,0:0:0:0:
504,96,73635,1,8,0:0:0:0:
396,148,73954,2,0,L|336:136,2,55,2|2|8,0:0|0:0|0:0,0:0:0:0:
312,236,74593,2,0,L|252:224,2,55,2|2|8,0:0|0:0|0:0,0:0:0:0:
236,328,75231,6,0,B|188:367|130:323|130:323|85:281|34:299,1,220,2|2,0:0|0:0,0:0:0:0:
48,240,76029,2,0,L|56:172,1,55,2|8,0:0|0:0,0:0:0:0:
148,108,76508,2,0,L|212:116,2,55,2|2|8,0:0|0:0|0:0,0:0:0:0:
204,216,77146,2,0,L|272:228,2,55,2|2|8,0:0|0:0|0:0,0:0:0:0:
260,324,77784,5,4,0:0:0:0:
256,192,77944,12,0,80337,0:0:0:0:
488,88,82571,6,0,L|440:136,1,55
388,112,82891,2,0,L|340:160,1,55,6|2,0:0|0:0,0:0:0:0:
348,212,83210,2,0,P|290:155|208:152,1,165,8|2,0:0|0:0,0:0:0:0:
152,172,83848,1,8,0:0:0:0:
224,272,84167,2,0,P|200:319|149:345,1,110,2|8,0:0|0:0,0:0:0:0:
92,240,84806,2,0,L|92:184,1,55,2|2,0:0|0:0,0:0:0:0:
152,172,85125,2,0,L|152:108,1,55,8|2,0:0|0:0,0:0:0:0:
128,60,85444,6,0,P|182:73|235:60,1,110,2|8,0:0|0:0,0:0:0:0:
296,60,85923,2,0,P|348:47|402:59,1,110,2|2,0:0|0:0,0:0:0:0:
448,96,86401,1,8,0:0:0:0:
452,216,86720,2,0,L|452:348,1,110,2|4,0:0|0:0,0:0:0:0:
332,328,87359,2,0,P|281:308|229:321,1,110,2|4,0:0|0:0,0:0:0:0:
172,216,87997,6,0,L|192:156,1,55,2|2,0:0|0:0,0:0:0:0:
280,84,88476,2,0,L|308:152,1,55,2|8,0:0|0:0,0:0:0:0:
368,236,88954,1,2,0:0:0:0:
368,236,89114,2,0,B|376:280|408:316|408:316|332:296|276:328,1,220,2|2,0:0|0:0,0:0:0:0:
244,276,89912,2,0,P|192:292|138:280,1,110,8|0,0:0|0:0,0:0:0:0:
140,160,90550,6,0,P|191:144|245:156,1,110,2|2,0:0|0:0,0:0:0:0:
304,140,91029,2,0,P|357:152|409:136,1,110,8|2,0:0|0:0,0:0:0:0:
468,128,91508,2,0,L|472:192,1,55,2|2,0:0|0:0,0:0:0:0:
464,304,91986,2,0,P|412:288|358:300,1,110,8|2,0:0|0:0,0:0:0:0:
300,316,92465,1,8,0:0:0:0:
180,296,92784,2,0,L|176:236,1,55,8|0,0:0|0:0,0:0:0:0:
116,228,93103,6,0,B|112:168|112:168|124:136|141:129,1,110,6|8,0:0|0:0,0:0:0:0:
252,76,93742,2,0,L|320:96,1,55,2|2,0:0|0:0,0:0:0:0:
364,112,94061,1,8,0:0:0:0:
484,108,94380,2,0,P|486:162|461:210,1,110,2|8,0:0|0:0,0:0:0:0:
376,296,95018,2,0,L|308:276,1,55,2|2,0:0|0:0,0:0:0:0:
264,260,95337,1,8,0:0:0:0:
152,308,95657,6,0,P|127:259|129:205,1,110,2|8,0:0|0:0,0:0:0:0:
76,172,96135,2,0,L|189:136,1,110,2|2,0:0|0:0,0:0:0:0:
240,120,96614,1,8,0:0:0:0:
359,151,96933,2,0,P|372:204|360:258,2,110,2|0|8,0:0|0:0|0:0,0:0:0:0:
324,36,97891,6,0,L|432:52,1,110,8|6,0:0|0:0,0:0:0:0:
492,64,98369,1,2,0:0:0:0:
428,168,98689,1,2,0:0:0:0:
428,168,98848,2,0,P|415:222|431:273,1,110,8|0,0:0|0:0,0:0:0:0:
448,328,99327,2,0,L|320:320,1,110,2|8,0:0|0:0,0:0:0:0:
276,316,99806,1,2,0:0:0:0:
156,316,100125,6,0,B|161:238|225:206|225:206|237:158|219:125,1,220,8|2,0:0|0:0,0:0:0:0:
200,68,100923,2,0,P|243:36|304:44,1,110,2|2,0:0|0:0,0:0:0:0:
332,88,101401,2,0,P|348:136|394:171,1,110,8|2,0:0|0:0,0:0:0:0:
412,228,101880,2,0,P|356:236|318:279,1,110,2|8,0:0|0:0,0:0:0:0:
284,320,102359,1,2,0:0:0:0:
168,288,102678,2,0,L|172:228,1,55,8|2,0:0|0:0,0:0:0:0:
72,164,103157,6,0,L|76:100,2,55,8|6|2,0:0|0:0|0:0,0:0:0:0:
192,136,103795,1,2,0:0:0:0:
192,136,103954,2,0,P|244:120|297:132,1,110,8|2,0:0|0:0,0:0:0:0:
324,188,104433,2,0,P|376:200|428:184,1,110,2|8,0:0|0:0,0:0:0:0:
476,148,104912,1,2,0:0:0:0:
380,72,105231,1,8,0:0:0:0:
284,148,105550,1,0,0:0:0:0:
316,264,105869,6,0,P|264:276|204:260,1,110,6|8,0:0|0:0,0:0:0:0:
108,196,106508,2,0,L|92:140,2,55,2|2|8,0:0|0:0|0:0,0:0:0:0:
100,316,107146,1,2,0:0:0:0:
212,264,107465,1,8,0:0:0:0:
320,320,107784,6,0,B|348:268|324:208|324:208|304:152|336:104,1,220,0|6,0:0|0:0,0:0:0:0:
440,52,108742,1,8,0:0:0:0:
424,172,109061,2,0,L|478:175,2,55,2|2|8,0:0|0:0|0:0,0:0:0:0:
388,220,109540,2,0,L|276:216,1,110,0|2,0:0|0:0,0:0:0:0:
232,256,110018,2,0,P|244:202|234:148,1,110,8|2,0:0|0:0,0:0:0:0:
184,40,110657,6,0,B|235:17|287:41|287:41|343:69|399:41,2,220,12|8|8,0:0|0:0|0:0,0:0:0:0:
132,148,112252,2,0,P|144:204|124:254,1,110,0|8,0:0|0:0,0:0:0:0:
100,308,112731,2,0,L|224:308,1,110
272,308,113210,1,8,0:0:0:0:
384,264,113529,6,0,P|367:211|378:158,1,110,4|8,0:0|0:0,0:0:0:0:
396,40,114167,2,0,L|328:44,1,55,2|2,0:0|0:0,0:0:0:0:
280,48,114486,1,8,0:0:0:0:
172,100,114806,2,0,P|162:153|181:204,1,110,2|8,0:0|0:0,0:0:0:0:
288,260,115444,2,0,L|356:256,1,55,2|2,0:0|0:0,0:0:0:0:
404,252,115763,1,8,0:0:0:0:
428,132,116082,6,0,P|409:81|365:50,1,110,2|8,0:0|0:0,0:0:0:0:
304,36,116561,2,0,P|249:39|207:73,1,110,0|2,0:0|0:0,0:0:0:0:
176,124,117040,1,8,0:0:0:0:
280,188,117359,2,0,L|284:252,2,55,2|2|12,0:0|0:0|0:0,0:0:0:0:
388,244,117997,2,0,L|392:308,2,55,2|2|12,0:0|0:0|0:0,0:0:0:0:
396,124,118635,6,0,P|360:82|308:65,1,110,6|8,0:0|0:0,0:0:0:0:
248,68,119114,2,0,P|197:87|170:134,1,110
160,192,119593,2,0,P|173:244|211:281,1,110,8|2,0:0|0:0,0:0:0:0:
272,268,120071,1,2,0:0:0:0:
308,316,120231,2,0,P|360:300|413:313,1,110,8|2,0:0|0:0,0:0:0:0:
480,212,120869,6,0,P|436:116|496:24,2,220,12|8|8,0:0|0:0|0:0,0:0:0:0:
360,196,122465,2,0,P|307:209|255:191,1,110,0|8,0:0|0:0,0:0:0:0:
216,144,122944,2,0,P|164:126|111:138,1,110
64,176,123423,1,8,0:0:0:0:
128,280,123742,6,0,L|152:336,1,55,6|2,0:0|0:0,0:0:0:0:
208,340,124061,2,0,L|228:284,1,55,2|2,0:0|0:0,0:0:0:0:
252,236,124380,2,0,P|306:228|358:246,1,110,8|0,0:0|0:0,0:0:0:0:
416,264,124859,2,0,L|436:144,1,110,8|2,0:0|0:0,0:0:0:0:
492,140,125337,2,0,L|472:68,1,55,2|2,0:0|0:0,0:0:0:0:
468,26,125657,6,0,P|428:63|374:67,1,110,8|0,0:0|0:0,0:0:0:0:
316,64,126135,1,8,0:0:0:0:
296,184,126454,1,0,0:0:0:0:
236,192,126614,2,0,L|172:180,1,55,2|2,0:0|0:0,0:0:0:0:
139,139,126933,2,0,P|143:193|120:242,1,110,8|0,0:0|0:0,0:0:0:0:
84,292,127412,1,8,0:0:0:0:
196,340,127731,2,0,P|247:355|300:340,1,110,8|2,0:0|0:0,0:0:0:0:
360,352,128210,2,0,P|412:334|464:350,1,110,8|0,0:0|0:0,0:0:0:0:
460,228,128848,6,0,L|444:116,1,110,6|8,0:0|0:0,0:0:0:0:
460,60,129327,2,0,P|408:77|354:66,1,110,0|2,0:0|0:0,0:0:0:0:
300,44,129806,1,8,0:0:0:0:
204,116,130125,2,0,L|212:184,1,55,8|8,0:0|0:0,0:0:0:0:
176,220,130444,2,0,L|184:288,1,55,8|8,0:0|0:0,0:0:0:0:
352,340,131082,1,12,0:0:0:0:
480,94,151508,6,0,P|437:61|383:56,1,110,0|2,0:0|0:0,0:0:0:0:
264,85,152146,1,2,0:0:0:0:
194,187,152465,1,2,0:0:0:0:
194,311,152784,1,2,0:0:0:0:
296,376,153103,2,0,P|314:340|304:264,1,110,2|2,0:0|0:0,0:0:0:0:
424,228,153742,2,0,P|402:179|359:146,1,110,2|2,0:0|0:0,0:0:0:0:
248,96,154380,5,2,0:0:0:0:
127,94,154699,1,2,0:0:0:0:
46,183,155018,2,0,P|84:208|148:212,1,110,2|2,0:0|0:0,0:0:0:0:
167,333,155657,2,0,P|215:321|260:276,1,110,2|2,0:0|0:0,0:0:0:0:
348,364,156295,2,0,P|374:319|377:263,1,110,2|2,0:0|0:0,0:0:0:0:
364,144,156933,1,2,0:0:0:0:
260,81,157252,5,2,0:0:0:0:
136,81,157571,1,2,0:0:0:0:
38,155,157891,1,2,0:0:0:0:
144,216,158210,2,0,P|152:270|139:323,1,110,2|2,0:0|0:0,0:0:0:0:
260,324,158848,2,0,P|244:272|252:216,1,110,2|2,0:0|0:0,0:0:0:0:
372,208,159486,6,0,P|354:151|316:116,1,110,2|2,0:0|0:0,0:0:0:0:
204,76,160125,2,0,P|148:95|108:139,1,110,2|2,0:0|0:0,0:0:0:0:
88,248,160763,2,0,P|100:300|137:340,1,110,2|2,0:0|0:0,0:0:0:0:
248,288,161401,2,0,P|235:235|196:196,1,110,2|2,0:0|0:0,0:0:0:0:
107,112,162040,6,0,P|141:69|193:54,1,110,4|0,0:0|0:0,0:0:0:0:
296,120,162678,2,0,B|345:132|402:98|402:98|386:162|410:210,1,220,8|0,0:0|0:0,0:0:0:0:
460,312,163635,1,0,0:0:0:0:
340,296,163954,2,0,P|280:292|238:316,1,110,8|0,0:0|0:0,0:0:0:0:
124,360,164593,6,0,P|93:315|91:261,1,110
180,180,165231,2,0,P|176:120|144:74,1,110,8|0,0:0|0:0,0:0:0:0:
272,80,165869,2,0,L|382:92,1,110
403,216,166508,2,0,L|292:204,1,110,8|0,0:0|0:0,0:0:0:0:
180,180,167146,5,4,0:0:0:0:
200,300,167465,1,0,0:0:0:0:
84,260,167784,2,0,P|55:164|120:64,1,220,8|0,0:0|0:0,0:0:0:0:
168,36,168582,2,0,L|236:64,1,55,8|0,0:0|0:0,0:0:0:0:
328,108,169061,1,8,0:0:0:0:
432,44,169380,1,0,0:0:0:0:
428,164,169699,6,0,L|408:280,1,110
292,248,170337,2,0,L|312:132,1,110,8|0,0:0|0:0,0:0:0:0:
212,72,170976,2,0,L|97:91,1,110
84,208,171614,2,0,L|208:187,1,110,8|0,0:0|0:0,0:0:0:0:
316,144,172252,5,4,0:0:0:0:
256,192,172412,12,0,176720,0:0:0:0:
256,192,177359,5,4,0:0:0:0:
256,192,179593,5,4,0:0:0:0:
255,191,182146,6,0,P|272:242|260:304,1,110,0|6,0:0|0:0,0:0:0:0:
160,360,182784,1,8,0:0:0:0:
132,244,183103,2,0,L|68:240,1,55,2|2,0:0|0:0,0:0:0:0:
76,180,183423,2,0,L|21:176,1,55,8|0,0:0|0:0,0:0:0:0:
60,128,183742,2,0,L|172:136,1,110,2|8,0:0|0:0,0:0:0:0:
288,104,184380,2,0,L|324:56,2,55,2|2|8,0:0|0:0|0:0,0:0:0:0:
268,224,185018,6,0,P|309:259|362:270,1,110,2|8,0:0|0:0,0:0:0:0:
380,328,185497,2,0,P|431:311|469:272,1,110,2|2,0:0|0:0,0:0:0:0:
472,212,185976,1,8,0:0:0:0:
396,120,186295,2,0,L|396:64,2,55,2|2|12,0:0|0:0|0:0,0:0:0:0:
276,104,186933,2,0,L|276:48,2,55,2|2|12,0:0|0:0|0:0,0:0:0:0:
316,220,187571,6,0,P|260:227|209:208,1,110,6|8,0:0|0:0,0:0:0:0:
156,184,188050,2,0,P|164:239|160:296,1,110,2|2,0:0|0:0,0:0:0:0:
152,352,188529,1,8,0:0:0:0:
272,344,188848,2,0,L|326:338,1,55,2|2,0:0|0:0,0:0:0:0:
388,340,189167,2,0,P|372:288|380:231,1,110,8|2,0:0|0:0,0:0:0:0:
456,140,189806,6,0,P|351:134|298:42,2,220,12|8|8,0:0|0:0|0:0,0:0:0:0:
468,260,191401,2,0,P|412:248|362:267,1,110,0|8,0:0|0:0,0:0:0:0:
304,252,191880,2,0,P|253:270|200:258,1,110
152,224,192359,1,8,0:0:0:0:
100,112,192678,6,0,L|112:52,1,55,6|2,0:0|0:0,0:0:0:0:
168,40,192997,2,0,L|192:100,1,55,2|2,0:0|0:0,0:0:0:0:
232,136,193316,2,0,P|286:128|344:145,1,110,8|0,0:0|0:0,0:0:0:0:
388,176,193795,2,0,P|368:226|375:280,1,110,8|0,0:0|0:0,0:0:0:0:
352,336,194274,2,0,L|404:372,2,55,2|2|8,0:0|0:0|0:0,0:0:0:0:
260,256,194912,1,8,0:0:0:0:
172,336,195231,6,0,P|118:349|65:336,1,110,2|8,0:0|0:0,0:0:0:0:
60,276,195710,2,0,L|68:156,1,110,0|2,0:0|0:0,0:0:0:0:
120,196,196189,2,0,L|128:76,1,110,8|12,0:0|0:0,0:0:0:0:
232,28,196827,1,12,0:0:0:0:
256,148,197146,2,0,L|312:136,1,55,12|0,0:0|0:0,0:0:0:0:
320,196,197465,6,0,L|428:176,1,110,12|6,0:0|0:0,0:0:0:0:
456,60,198103,1,8,0:0:0:0:
336,84,198423,2,0,L|276:72,2,55,2|2|8,0:0|0:0|0:0,0:0:0:0:
248,164,199061,2,0,L|188:152,2,55,2|2|8,0:0|0:0|0:0,0:0:0:0:
348,232,199699,1,0,0:0:0:0:
252,308,200018,6,0,B|192:328|140:300|140:300|80:268|32:300,2,220,12|8|8,0:0|0:0|0:0,0:0:0:0:
364,264,201614,2,0,P|348:211|360:156,1,110,0|8,0:0|0:0,0:0:0:0:
396,112,202093,2,0,P|341:119|290:102,1,110
236,76,202571,1,8,0:0:0:0:
116,100,202891,6,0,L|116:220,1,110,6|8,0:0|0:0,0:0:0:0:
216,280,203529,2,0,L|208:336,2,55,2|2|8,0:0|0:0|0:0,0:0:0:0:
336,256,204167,2,0,L|312:144,1,110,2|8,0:0|0:0,0:0:0:0:
420,92,204806,2,0,L|427:37,2,55,2|2|8,0:0|0:0|0:0,0:0:0:0:
436,212,205444,6,0,P|384:196|331:208,1,110,2|8,0:0|0:0,0:0:0:0:
272,200,205923,2,0,P|219:212|167:196,1,110,0|2,0:0|0:0,0:0:0:0:
116,164,206401,1,8,0:0:0:0:
80,280,206720,2,0,L|72:334,2,55,2|2|12,0:0|0:0|0:0,0:0:0:0:
196,312,207359,2,0,L|203:257,2,55,2|2|12,0:0|0:0|0:0,0:0:0:0:
316,332,207997,5,6,0:0:0:0:
404,248,208316,2,0,P|388:188|400:144,1,110,8|2,0:0|0:0,0:0:0:0:
416,84,208795,2,0,L|348:76,1,55,2|8,0:0|0:0,0:0:0:0:
328,28,209114,2,0,P|277:47|223:41,1,110,0|2,0:0|0:0,0:0:0:0:
200,96,209593,2,0,P|145:89|95:109,1,110,8|2,0:0|0:0,0:0:0:0:
164,212,210231,6,0,P|270:203|331:116,2,220,12|8|8,0:0|0:0|0:0,0:0:0:0:
76,128,211827,2,0,P|38:168|23:220,1,110,0|8,0:0|0:0,0:0:0:0:
64,264,212306,2,0,P|79:316|124:356,1,110
180,352,212784,1,8,0:0:0:0:
276,280,213103,6,0,L|260:224,1,55,2|2,0:0|0:0,0:0:0:0:
312,192,213423,2,0,L|296:136,1,55,2|2,0:0|0:0,0:0:0:0:
288,80,213742,2,0,P|240:109|185:111,1,110,8|0,0:0|0:0,0:0:0:0:
132,136,214220,2,0,P|77:138|32:168,1,110,8|0,0:0|0:0,0:0:0:0:
40,228,214699,2,0,L|64:280,1,55,2|2,0:0|0:0,0:0:0:0:
116,312,215018,2,0,P|171:306|216:276,1,110,8|0,0:0|0:0,0:0:0:0:
272,300,215496,6,0,P|317:270|371:264,1,110,8|0,0:0|0:0,0:0:0:0:
432,276,215976,1,2,0:0:0:0:
420,156,216295,2,0,L|400:48,1,110,8|2,0:0|0:0,0:0:0:0:
344,72,216774,1,2,0:0:0:0:
272,168,217093,2,0,P|220:193|168:189,1,110,8|0,0:0|0:0,0:0:0:0:
108,184,217571,2,0,P|116:240|109:293,1,110,8|8,0:0|0:0,0:0:0:0:
220,340,218210,5,6,0:0:0:0:
320,272,218529,2,0,P|370:252|423:262,1,110,8|2,0:0|0:0,0:0:0:0:
484,268,219008,2,0,L|476:200,1,55,2|8,0:0|0:0,0:0:0:0:
416,112,219486,2,0,L|384:52,1,55,8|8,0:0|0:0,0:0:0:0:
332,84,219806,2,0,L|300:24,1,55,8|8,0:0|0:0,0:0:0:0:
192,80,220284,2,0,L|224:140,1,55,2|4,0:0|0:0,0:0:0:0:
172,240,220763,6,0,B|228:268|276:240|276:240|328:212|383:245,1,220,6|2,0:0|0:0,0:0:0:0:
480,316,221720,1,8,0:0:0:0:
484,196,222040,2,0,L|500:144,2,55,2|2|8,0:0|0:0|0:0,0:0:0:0:
388,120,222678,2,0,L|404:68,2,55,2|2|8,0:0|0:0|0:0,0:0:0:0:
268,116,223316,6,0,B|240:168|268:220|268:220|292:276|260:326,1,220,2|2,0:0|0:0,0:0:0:0:
200,316,224114,2,0,L|144:348,1,55,2|8,0:0|0:0,0:0:0:0:
72,252,224593,2,0,L|128:220,1,55,2|2,0:0|0:0,0:0:0:0:
168,188,224912,2,0,P|128:148|120:96,1,110,8|2,0:0|0:0,0:0:0:0:
112,36,225391,2,0,L|48:68,2,55,2|8|0,0:0|0:0|0:0,0:0:0:0:
172,32,225869,6,0,B|284:32|284:32|360:116,1,220,6|2,0:0|0:0,0:0:0:0:
376,232,226827,1,8,0:0:0:0:
260,192,227146,2,0,L|220:144,2,55,2|2|8,0:0|0:0|0:0,0:0:0:0:
140,200,227784,2,0,L|100:152,2,55,2|2|8,0:0|0:0|0:0,0:0:0:0:
192,308,228423,6,0,B|244:304|296:336|296:336|344:304|401:311,1,220,2|2,0:0|0:0,0:0:0:0:
416,252,229220,2,0,L|472:244,1,55,2|8,0:0|0:0,0:0:0:0:
404,144,229699,2,0,L|347:151,1,55,2|2,0:0|0:0,0:0:0:0:
288,156,230018,2,0,P|296:100|272:44,2,110,8|8|8,0:0|0:0|0:0,0:0:0:0:
228,260,230976,5,4,0:0:0:0:
256,192,231135,12,0,234806,0:0:0:0:
