osu file format v14

[General]
AudioFilename: Marika - Soul Release.mp3
AudioLeadIn: 500
PreviewTime: 187571
Countdown: 0
SampleSet: Soft
StackLeniency: 0.7
Mode: 0
LetterboxInBreaks: 0
WidescreenStoryboard: 0

[Editor]
DistanceSpacing: 1
BeatDivisor: 4
GridSize: 4
TimelineZoom: 1.5

[Metadata]
Title:Soul Release
TitleUnicode:Soul Release
Artist:Marika
ArtistUnicode:真里歌
Creator:El SolarBeam
Version:Liberation
Source:ハロー・レディ!
Tags:Hello Lady! Akatsuki Works Meis Clauson Angel Note eroge visual novel ts8zs UnitedWeSin
BeatmapID:570140
BeatmapSetID:222790

[Difficulty]
HPDrainRate:6.5
CircleSize:4
OverallDifficulty:8
ApproachRate:9.2
SliderMultiplier:1.8
SliderTickRate:1

[Events]
//Background and Video events
0,0,"bg.jpg",0,0
//Break Periods
2,80537,82001
//Storyboard Layer 0 (Background)
//Storyboard Layer 1 (Fail)
//Storyboard Layer 2 (Pass)
//Storyboard Layer 3 (Foreground)
//Storyboard Sound Samples

[TimingPoints]
1189,319.148936170213,4,2,1,85,1,0
1189,-200,4,2,1,30,0,0
2465,-200,4,2,1,60,0,0
3742,-100,4,2,1,85,0,0
13954,-125,4,2,1,60,0,0
24167,-100,4,2,1,85,0,0
32784,-111.111111111111,4,2,1,85,0,0
33103,-100,4,2,1,85,0,0
33423,-142.857142857143,4,2,1,85,0,0
33742,-100,4,2,1,85,0,0
34061,-200,4,2,1,60,0,0
34380,-111.111111111111,4,2,1,85,0,0
44593,-90.9090909090909,4,2,1,90,0,1
67571,-100,4,2,1,85,0,0
77784,-100,4,2,1,60,0,0
82891,-100,4,2,1,85,0,0
97252,-142.857142857143,4,2,1,85,0,0
97571,-100,4,2,1,85,0,0
97891,-200,4,2,1,60,0,0
98210,-111.111111111111,4,2,1,85,0,0
107625,-200,4,2,1,40,0,0
108343,-111.111111111111,4,2,1,20,0,0
108423,-90.9090909090909,4,2,1,90,0,1
131401,-100,4,2,1,85,0,0
172252,-100,4,2,1,60,0,0
176720,-100,4,2,1,10,0,0
177359,-100,4,2,1,75,0,0
182146,-100,4,2,1,85,0,0
182465,-90.9090909090909,4,2,1,85,0,1
197465,-90.9090909090909,4,2,1,85,0,0
197784,-90.9090909090909,4,2,1,90,0,1
220763,-100,4,2,1,85,0,0
230976,-100,4,2,1,70,0,0
231614,-100,4,2,1,60,0,0
232252,-100,4,2,1,50,0,0
232891,-100,4,2,1,40,0,0
233529,-100,4,2,1,30,0,0
234167,-100,4,2,1,20,0,0
234806,-100,4,2,1,10,0,0

[Colours]
Combo1 : 243,52,81
Combo2 : 0,0,136
Combo3 : 202,101,0

[HitObjects]
144,84,1189,6,0,P|120:228|296:256,1,360,0|4,0:0|0:0,0:0:0:0:
248,164,2784,1,4,0:0:0:0:
152,344,3103,1,4,0:0:0:0:
364,336,3263,1,2,0:0:0:0:
364,336,3343,1,2,0:0:0:0:
364,336,3423,1,0,0:0:0:0:
463,71,3742,6,0,P|456:116|431:152,1,90,4|0,0:0|0:0,0:0:0:0:
280,220,4061,2,0,P|236:213|198:189,1,90,8|0,0:0|0:0,0:0:0:0:
292,56,4380,1,2,0:0:0:0:
432,152,4540,1,2,0:0:0:0:
456,320,4699,2,0,P|422:348|377:355,1,90,8|0,0:0|0:0,0:0:0:0:
256,344,5018,5,2,0:0:0:0:
252,220,5178,1,2,0:0:0:0:
252,220,5337,2,0,P|168:188|88:220,1,180,8|2,0:0|0:0,0:0:0:0:
80,124,5816,1,2,0:0:0:0:
80,124,5975,2,0,P|172:104|256:124,1,180,8|2,0:0|0:0,0:0:0:0:
352,232,6454,5,0,0:0:0:0:
460,140,6614,2,0,P|412:108|372:100,1,90,8|0,0:0|0:0,0:0:0:0:
252,144,6933,1,2,0:0:0:0:
224,272,7093,1,2,0:0:0:0:
368,280,7252,2,0,P|388:240|384:192,1,90,8|0,0:0|0:0,0:0:0:0:
224,272,7571,6,0,P|204:312|208:360,1,90,2|0,0:0|0:0,0:0:0:0:
284,196,7891,2,0,P|244:176|196:180,1,90,8|0,0:0|0:0,0:0:0:0:
80,268,8210,1,2,0:0:0:0:
80,268,8369,1,2,0:0:0:0:
124,176,8529,1,8,0:0:0:0:
132,152,8609,1,8,0:0:0:0:
132,124,8689,1,8,0:0:0:0:
124,100,8768,1,8,0:0:0:0:
112,76,8848,6,0,P|216:96|288:72,1,180,6|8,0:0|0:0,0:0:0:0:
408,52,9327,1,0,0:0:0:0:
372,172,9486,2,0,P|364:216|376:260,1,90,2|2,0:0|0:0,0:0:0:0:
292,356,9806,2,0,L|208:320,1,90,8|0,0:0|0:0,0:0:0:0:
80,268,10125,6,0,L|164:232,1,90,2|2,0:0|0:0,0:0:0:0:
332,252,10444,2,0,P|372:172|340:92,1,180,8|2,0:0|0:0,0:0:0:0:
252,168,10923,1,2,0:0:0:0:
224,280,11082,2,0,P|272:344|365:354,1,180,8|2,0:0|0:0,0:0:0:0:
444,264,11561,5,0,0:0:0:0:
320,116,11720,2,0,P|308:160|320:204,1,90,8|0,0:0|0:0,0:0:0:0:
324,348,12040,2,0,L|232:356,1,90,2|2,0:0|0:0,0:0:0:0:
40,244,12359,2,0,L|129:236,1,90,8|0,0:0|0:0,0:0:0:0:
272,224,12678,5,2,0:0:0:0:
136,132,12837,1,0,0:0:0:0:
24,328,12997,2,0,L|113:320,1,90,8|0,0:0|0:0,0:0:0:0:
324,348,13316,1,2,0:0:0:0:
156,316,13476,1,2,0:0:0:0:
272,224,13635,2,0,P|283:180|272:135,1,90,8|0,0:0|0:0,0:0:0:0:
196,72,13954,6,0,P|265:86|329:55,1,144,6|8,0:0|0:0,0:0:0:0:
456,136,14433,1,0,0:0:0:0:
364,216,14593,2,0,L|368:136,1,72
272,224,14912,2,0,L|268:300,1,72,8|0,0:0|0:0,0:0:0:0:
200,144,15231,2,0,P|134:117|65:138,1,144,0|8,0:0|0:0,0:0:0:0:
128,232,15710,1,0,0:0:0:0:
63,322,15869,2,0,P|129:344|195:319,1,144,0|8,0:0|0:0,0:0:0:0:
0,212,16348,1,2,0:0:0:0:
128,232,16508,6,0,P|140:156|124:88,1,144,2|8,0:0|0:0,0:0:0:0:
208,36,16986,1,0,0:0:0:0:
292,92,17146,2,0,P|277:162|289:232,1,144,0|8,0:0|0:0,0:0:0:0:
408,172,17625,1,0,0:0:0:0:
372,292,17784,2,0,B|340:308|324:348|324:348|284:328|252:336,1,144,0|8,0:0|0:0,0:0:0:0:
124,360,18263,1,0,0:0:0:0:
160,236,18423,2,0,L|148:160,1,72
248,40,18742,2,0,L|259:111,1,72,8|0,0:0|0:0,0:0:0:0:
312,256,19061,6,0,P|368:292|440:276,1,144,2|8,0:0|0:0,0:0:0:0:
384,172,19540,1,0,0:0:0:0:
256,184,19699,2,0,P|222:241|242:312,1,144,0|8,0:0|0:0,0:0:0:0:
384,172,20178,1,0,0:0:0:0:
312,76,20337,2,0,P|236:68|172:108,1,144,0|8,0:0|0:0,0:0:0:0:
104,196,20816,1,0,0:0:0:0:
48,88,20976,1,0,0:0:0:0:
292,184,21295,5,8,0:0:0:0:
252,68,21454,1,2,0:0:0:0:
172,160,21614,2,0,P|168:232|212:284,1,144,2|8,0:0|0:0,0:0:0:0:
336,296,22093,1,0,0:0:0:0:
292,184,22252,2,0,P|293:111|340:62,1,144,0|8,0:0|0:0,0:0:0:0:
436,156,22731,1,0,0:0:0:0:
388,280,22891,2,0,P|332:312|252:296,1,144,0|8,0:0|0:0,0:0:0:0:
172,200,23369,2,0,P|160:160|164:128,2,72,0|0|8,0:0|0:0|0:0,0:0:0:0:
180,228,23768,1,8,0:0:0:0:
188,256,23848,1,8,0:0:0:0:
184,284,23928,1,8,0:0:0:0:
172,312,24008,1,8,0:0:0:0:
148,328,24087,1,8,0:0:0:0:
120,348,24167,6,0,L|216:352,1,90,6|0,0:0|0:0,0:0:0:0:
396,300,24486,2,0,L|300:296,1,90,8|0,0:0|0:0,0:0:0:0:
444,168,24806,2,0,L|356:204,1,90,2|2,0:0|0:0,0:0:0:0:
280,80,25125,2,0,L|256:172,1,90,8|0,0:0|0:0,0:0:0:0:
152,336,25444,6,0,L|176:244,1,90,2|0,0:0|0:0,0:0:0:0:
196,116,25763,1,8,0:0:0:0:
284,216,25923,1,0,0:0:0:0:
72,268,26082,2,0,L|96:176,1,90,2|2,0:0|0:0,0:0:0:0:
112,36,26401,1,8,0:0:0:0:
12,144,26561,1,0,0:0:0:0:
160,236,26720,6,0,P|204:248|248:236,1,90,2|0,0:0|0:0,0:0:0:0:
432,132,27040,2,0,P|388:120|344:132,1,90,8|0,0:0|0:0,0:0:0:0:
344,323,27359,2,0,P|355:281|345:237,1,90,2|2,0:0|0:0,0:0:0:0:
239,52,27679,2,0,P|228:94|238:138,1,90,8|0,0:0|0:0,0:0:0:0:
248,248,27997,6,0,L|152:236,1,90,2|0,0:0|0:0,0:0:0:0:
64,140,28316,1,8,0:0:0:0:
32,272,28476,1,0,0:0:0:0:
208,124,28635,2,0,P|220:80|204:32,1,90,2|2,0:0|0:0,0:0:0:0:
76,148,28954,2,0,L|116:172,1,45,8|8,0:0|0:0,0:0:0:0:
248,248,29114,2,0,L|200:256,1,45,8|8,0:0|0:0,0:0:0:0:
104,272,29274,6,0,P|115:318|148:349,1,90,2|0,0:0|0:0,0:0:0:0:
332,252,29593,2,0,P|320:205|287:174,1,90,8|0,0:0|0:0,0:0:0:0:
168,120,29912,2,0,P|216:108|260:92,1,90,2|2,0:0|0:0,0:0:0:0:
436,100,30231,1,8,0:0:0:0:
332,252,30391,1,0,0:0:0:0:
476,280,30550,6,0,L|384:264,1,90,2|0,0:0|0:0,0:0:0:0:
204,212,30869,1,8,0:0:0:0:
411,144,31029,1,0,0:0:0:0:
204,76,31189,1,2,0:0:0:0:
332,253,31348,1,2,0:0:0:0:
332,35,31508,1,8,0:0:0:0:
204,212,31667,1,0,0:0:0:0:
116,56,31827,6,0,L|216:80,1,90,2|0,0:0|0:0,0:0:0:0:
368,196,32146,2,0,L|268:172,1,90,8|0,0:0|0:0,0:0:0:0:
104,132,32465,1,2,0:0:0:0:
244,40,32625,1,2,0:0:0:0:
204,212,32784,6,0,L|152:368,1,161.999995056153,8|2,0:0|0:0,0:0:0:0:
288,328,33263,1,0,0:0:0:0:
64,252,33423,6,0,L|104:132,1,125.999996154785,8|8,0:0|0:0,0:0:0:0:
288,112,33901,1,0,0:0:0:0:
288,112,34061,6,0,P|300:160|292:200,1,90,0|6,0:0|0:0,0:0:0:0:
220,252,34540,2,0,P|294:224|368:252,1,161.999995056153,2|2,0:0|0:0,0:0:0:0:
508,128,35018,2,0,P|433:155|359:124,1,161.999995056153,8|0,0:0|0:0,0:0:0:0:
272,28,35497,1,2,0:0:0:0:
132,212,35816,1,8,0:0:0:0:
132,212,35976,2,0,P|208:240|284:212,1,161.999995056153,0|8,0:0|0:0,0:0:0:0:
208,124,36454,1,0,0:0:0:0:
344,272,36614,2,0,P|372:192|352:120,1,161.999995056153,0|2,0:0|0:0,0:0:0:0:
272,28,37093,5,2,0:0:0:0:
124,268,37412,1,2,0:0:0:0:
124,268,37571,2,0,P|104:190|131:115,1,161.999995056153,8|0,0:0|0:0,0:0:0:0:
240,196,38050,1,2,0:0:0:0:
412,88,38369,1,2,0:0:0:0:
412,88,38529,2,0,P|332:108|260:68,1,161.999995056153,0|8,0:0|0:0,0:0:0:0:
240,196,39008,1,2,0:0:0:0:
148,120,39167,1,2,0:0:0:0:
348,156,39327,2,0,P|356:200|344:244,1,80.9999975280763,8|4,0:0|0:0,0:0:0:0:
284,352,39646,5,2,0:0:0:0:
60,272,39965,1,2,0:0:0:0:
60,272,40125,2,0,P|34:197|65:124,1,161.999995056153,8|0,0:0|0:0,0:0:0:0:
156,200,40603,1,2,0:0:0:0:
260,84,40923,1,8,0:0:0:0:
260,84,41082,2,0,P|324:120|356:204,1,161.999995056153,2|8,0:0|0:0,0:0:0:0:
296,284,41561,1,2,0:0:0:0:
377,373,41720,2,0,P|402:343|412:304,1,80.9999975280763,2|8,0:0|0:0,0:0:0:0:
488,212,42040,6,0,P|400:220|352:168,1,161.999995056153,6|8,0:0|0:0,0:0:0:0:
64,188,42678,1,2,0:0:0:0:
224,176,42837,1,2,0:0:0:0:
132,60,42997,2,0,L|140:152,1,80.9999975280763,8|0,0:0|0:0,0:0:0:0:
84,312,43316,2,0,P|152:276|228:304,1,161.999995056153,2|8,0:0|0:0,0:0:0:0:
336,360,43795,1,0,0:0:0:0:
328,240,43954,2,0,P|300:166|336:96,1,161.999995056153,8|8,0:0|0:0,0:0:0:0:
364,64,44354,1,8,0:0:0:0:
324,68,44433,1,8,0:0:0:0:
284,72,44513,1,8,0:0:0:0:
236,76,44593,6,0,L|128:84,1,99.0000030212403,6|0,0:0|0:0,0:0:0:0:
68,244,44912,2,0,L|152:180,1,99.0000030212403,8|0,0:0|0:0,0:0:0:0:
276,156,45231,2,0,L|260:256,1,99.0000030212403,2|2,0:0|0:0,0:0:0:0:
148,360,45550,1,8,0:0:0:0:
180,124,45710,2,0,P|245:61|344:82,1,198.000006042481,0|2,0:0|0:0,0:0:0:0:
372,196,46189,2,0,P|306:258|207:237,1,198.000006042481,8|2,0:0|0:0,0:0:0:0:
208,52,46667,1,2,0:0:0:0:
388,96,46827,6,0,P|459:151|454:252,1,198.000006042481,12|0,0:0|0:0,0:0:0:0:
340,360,47306,1,0,0:0:0:0:
280,216,47465,2,0,P|176:196|104:248,1,198.000006042481,8|2,0:0|0:0,0:0:0:0:
208,316,47944,1,2,0:0:0:0:
340,360,48103,2,0,P|398:283|385:187,1,198.000006042481,8|2,0:0|0:0,0:0:0:0:
300,116,48582,1,2,0:0:0:0:
280,216,48742,2,0,P|220:216|184:189,1,99.0000030212403,8|0,0:0|0:0,0:0:0:0:
80,192,49061,2,0,P|68:144|86:97,1,99.0000030212403,2|2,0:0|0:0,0:0:0:0:
200,44,49380,2,0,L|256:52,1,49.5000015106202,8|8,0:0|0:0,0:0:0:0:
348,108,49540,2,0,L|296:116,1,49.5000015106202,8|8,0:0|0:0,0:0:0:0:
200,140,49699,6,0,P|164:220|220:308,1,198.000006042481,6|8,0:0|0:0,0:0:0:0:
320,244,50178,1,0,0:0:0:0:
436,220,50337,2,0,P|438:271|411:317,1,99.0000030212403,2|2,0:0|0:0,0:0:0:0:
304,352,50657,1,8,0:0:0:0:
212,280,50816,1,0,0:0:0:0:
320,244,50976,2,0,P|324:192|300:148,1,99.0000030212403,2|0,0:0|0:0,0:0:0:0:
192,148,51295,2,0,P|292:132|336:48,1,198.000006042481,8|2,0:0|0:0,0:0:0:0:
228,44,51774,1,2,0:0:0:0:
120,64,51933,6,0,P|80:144|124:244,1,198.000006042481,8|2,0:0|0:0,0:0:0:0:
220,304,52412,1,0,0:0:0:0:
16,356,52571,2,0,L|128:352,1,99.0000030212403,8|0,0:0|0:0,0:0:0:0:
324,256,52891,1,2,0:0:0:0:
120,308,53050,2,0,L|232:304,1,99.0000030212403,2|8,0:0|0:0,0:0:0:0:
316,364,53369,6,0,L|376:356,2,49.5000015106202,0|0|0,0:0|0:0|0:0,0:0:0:0:
324,256,53689,2,0,P|336:204|324:160,1,99.0000030212403,0|12,0:0|0:0,0:0:0:0:
188,200,54008,2,0,L|136:200,2,49.5000015106202,0|0|0,0:0|0:0|0:0,0:0:0:0:
56,144,54327,2,0,P|44:92|56:48,1,99.0000030212403,0|12,0:0|0:0,0:0:0:0:
232,36,54646,1,0,0:0:0:0:
324,256,54806,6,0,P|336:196|324:156,1,99.0000030212403,4|0,0:0|0:0,0:0:0:0:
188,200,55125,1,8,0:0:0:0:
200,332,55284,1,0,0:0:0:0:
356,348,55444,2,0,P|396:316|416:268,1,99.0000030212403,2|2,0:0|0:0,0:0:0:0:
364,112,55763,1,8,0:0:0:0:
252,240,55923,1,0,0:0:0:0:
464,136,56082,2,0,P|464:80|440:40,1,99.0000030212403,2|2,0:0|0:0,0:0:0:0:
232,148,56401,2,0,P|232:204|256:244,1,99.0000030212403,8|0,0:0|0:0,0:0:0:0:
308,76,56720,6,0,P|212:44|136:100,1,198.000006042481,2|12,0:0|0:0,0:0:0:0:
136,208,57199,1,0,0:0:0:0:
336,292,57359,2,0,P|348:244|335:196,1,99.0000030212403
136,208,57678,2,0,B|144:256|128:296|128:296|148:320|180:319,1,148.50000453186,8|0,0:0|0:0,0:0:0:0:
176,364,57997,2,0,P|232:364|272:340,1,99.0000030212403,0|0,0:0|0:0,0:0:0:0:
508,296,58316,2,0,P|464:260|408:256,1,99.0000030212403,8|0,0:0|0:0,0:0:0:0:
240,92,58635,2,0,P|244:148|276:188,1,99.0000030212403,2|0,0:0|0:0,0:0:0:0:
120,28,58954,2,0,P|100:72|104:128,1,99.0000030212403,8|0,0:0|0:0,0:0:0:0:
96,340,59274,2,0,P|116:296|112:240,1,99.0000030212403,2|2,0:0|0:0,0:0:0:0:
216,180,59593,2,0,L|264:172,1,49.5000015106202,8|8,0:0|0:0,0:0:0:0:
296,212,59752,2,0,L|352:204,1,49.5000015106202,8|8,0:0|0:0,0:0:0:0:
396,196,59912,6,0,P|428:236|428:288,1,99.0000030212403,6|2,0:0|0:0,0:0:0:0:
440,124,60231,2,0,P|408:84|408:32,1,99.0000030212403,2|2,0:0|0:0,0:0:0:0:
296,132,60550,2,0,P|216:180|120:144,1,198.000006042481,8|0,0:0|0:0,0:0:0:0:
216,180,61029,2,0,P|236:276|176:348,1,198.000006042481,8|2,0:0|0:0,0:0:0:0:
240,268,61508,2,0,P|328:228|416:268,1,198.000006042481,2|8,0:0|0:0,0:0:0:0:
328,352,61986,1,0,0:0:0:0:
240,268,62146,5,0,0:0:0:0:
416,220,62306,2,0,P|328:180|240:220,1,198.000006042481,8|2,0:0|0:0,0:0:0:0:
160,344,62784,2,0,P|100:260|112:168,1,198.000006042481,2|8,0:0|0:0,0:0:0:0:
184,44,63263,1,0,0:0:0:0:
228,184,63423,1,0,0:0:0:0:
48,100,63582,1,8,0:0:0:0:
224,224,63742,2,0,L|320:260,1,99.0000030212403,0|8,0:0|0:0,0:0:0:0:
140,136,64061,1,0,0:0:0:0:
140,136,64220,1,0,0:0:0:0:
128,272,64380,2,0,L|228:312,1,99.0000030212403,8|2,0:0|0:0,0:0:0:0:
268,328,64619,1,2,0:0:0:0:
316,344,64699,6,0,B|376:264|376:264|331:170,1,198.000006042481,8|6,0:0|0:0,0:0:0:0:
220,104,65178,1,0,0:0:0:0:
224,224,65337,2,0,P|176:240|131:226,1,99.0000030212403,8|0,0:0|0:0,0:0:0:0:
336,164,65657,2,0,P|380:148|432:164,1,99.0000030212403,2|2,0:0|0:0,0:0:0:0:
472,336,65976,1,8,0:0:0:0:
312,340,66135,1,0,0:0:0:0:
376,80,66295,5,8,0:0:0:0:
392,336,66454,1,8,0:0:0:0:
264,84,66614,1,8,0:0:0:0:
492,76,66774,1,8,0:0:0:0:
44,296,67093,5,2,0:0:0:0:
80,292,67173,1,2,0:0:0:0:
116,288,67253,1,12,0:0:0:0:
464,72,67571,6,0,L|368:80,1,90,6|0,0:0|0:0,0:0:0:0:
208,176,67891,2,0,L|308:168,1,90,8|0,0:0|0:0,0:0:0:0:
468,212,68210,2,0,P|479:255|464:304,1,90,2|2,0:0|0:0,0:0:0:0:
304,252,68529,1,8,0:0:0:0:
336,88,68689,1,0,0:0:0:0:
400,192,68848,6,0,L|312:169,1,90,2|2,0:0|0:0,0:0:0:0:
172,72,69167,2,0,P|112:128|120:220,1,180,8|2,0:0|0:0,0:0:0:0:
68,308,69646,1,2,0:0:0:0:
67,308,69806,2,0,P|139:258|224:280,1,180,8|2,0:0|0:0,0:0:0:0:
328,356,70284,5,0,0:0:0:0:
344,236,70444,2,0,P|338:191|314:153,1,90,8|0,0:0|0:0,0:0:0:0:
208,72,70763,1,2,0:0:0:0:
200,204,70923,1,2,0:0:0:0:
340,76,71082,2,0,P|382:88|416:118,1,90,8|0,0:0|0:0,0:0:0:0:
448,240,71401,5,2,0:0:0:0:
448,240,71561,1,0,0:0:0:0:
332,196,71720,2,0,L|308:282,1,90,8|0,0:0|0:0,0:0:0:0:
208,360,72040,2,0,L|180:272,1,90,2|2,0:0|0:0,0:0:0:0:
152,144,72359,1,8,0:0:0:0:
188,156,72439,1,8,0:0:0:0:
224,152,72518,1,8,0:0:0:0:
256,136,72598,1,8,0:0:0:0:
280,107,72678,6,0,P|259:194|292:276,1,180,6|8,0:0|0:0,0:0:0:0:
404,320,73157,1,0,0:0:0:0:
295,359,73316,2,0,P|252:348|208:361,1,90,2|2,0:0|0:0,0:0:0:0:
40,284,73635,2,0,P|84:296|128:284,1,90,8|0,0:0|0:0,0:0:0:0:
204,196,73954,5,2,0:0:0:0:
88,180,74114,1,2,0:0:0:0:
128,284,74274,2,0,P|210:313|290:275,1,180,8|2,0:0|0:0,0:0:0:0:
352,160,74752,1,2,0:0:0:0:
352,160,74912,2,0,P|414:221|415:309,1,180,8|2,0:0|0:0,0:0:0:0:
304,272,75391,5,0,0:0:0:0:
240,172,75550,2,0,P|244:120|268:84,1,90,8|0,0:0|0:0,0:0:0:0:
464,144,75869,2,0,P|460:196|436:232,1,90,2|2,0:0|0:0,0:0:0:0:
331,331,76189,2,0,P|294:308|249:307,1,90,8|0,0:0|0:0,0:0:0:0:
104,348,76508,6,0,P|140:268|112:183,1,180,2|8,0:0|0:0,0:0:0:0:
40,76,76986,1,0,0:0:0:0:
184,84,77146,2,0,L|280:92,1,90,2|2,0:0|0:0,0:0:0:0:
473,175,77465,1,8,0:2:0:0:
460,140,77545,1,8,0:0:0:0:
450,106,77624,1,8,0:0:0:0:
464,71,77704,1,8,0:0:0:0:
478,37,77784,1,4,0:0:0:0:
256,192,77864,12,0,80337,0:0:0:0:
140,288,82571,5,8,0:0:0:0:
156,256,82651,1,8,0:0:0:0:
160,220,82731,1,8,0:0:0:0:
148,184,82811,1,8,0:0:0:0:
128,152,82891,6,0,L|224:152,1,90,6|0,0:0|0:0,0:0:0:0:
340,80,83210,2,0,L|444:84,1,90,8|0,0:0|0:0,0:0:0:0:
428,236,83529,2,0,L|324:232,1,90,2|2,0:0|0:0,0:0:0:0:
200,196,83848,1,8,0:0:0:0:
248,292,84008,1,0,0:0:0:0:
316,191,84167,6,0,P|324:148|315:104,1,90,2|0,0:0|0:0,0:0:0:0:
428,236,84486,2,0,P|419:279|428:323,1,90,8|0,0:0|0:0,0:0:0:0:
488,168,84806,2,0,P|449:146|404:147,1,90,2|2,0:0|0:0,0:0:0:0:
260,228,85125,1,8,0:0:0:0:
332,304,85284,1,0,0:0:0:0:
376,216,85444,5,2,0:0:0:0:
308,132,85603,1,0,0:0:0:0:
224,316,85763,1,8,0:0:0:0:
444,300,85923,1,0,0:0:0:0:
308,132,86082,2,0,L|212:136,1,90,2|2,0:0|0:0,0:0:0:0:
48,192,86401,1,8,0:0:0:0:
76,48,86561,1,0,0:0:0:0:
128,168,86720,6,0,P|147:253|104:330,1,180,2|12,0:0|0:0,0:0:0:0:
16,276,87199,1,0,0:0:0:0:
148,244,87359,2,0,P|191:236|234:248,1,90,2|2,0:0|0:0,0:0:0:0:
360,304,87678,1,12,0:0:0:0:
344,272,87758,1,8,0:0:0:0:
340,236,87837,1,8,0:0:0:0:
344,200,87917,1,8,0:0:0:0:
352,164,87997,5,6,0:0:0:0:
432,232,88157,2,0,P|343:243|264:204,1,180,2|0,0:0|0:0,0:0:0:0:
132,176,88635,2,0,P|220:187|300:144,1,180,8|0,0:0|0:0,0:0:0:0:
200,92,89114,2,0,L|240:276,1,180,2|8,0:0|0:0,0:0:0:0:
260,364,89593,1,0,0:0:0:0:
328,216,89752,1,0,0:0:0:0:
128,256,89912,1,8,0:0:0:0:
328,216,90231,1,0,0:0:0:0:
404,124,90391,1,8,0:0:0:0:
288,96,90550,6,0,P|199:84|120:128,1,180,2|2,0:0|0:0,0:0:0:0:
268,324,91029,2,0,P|356:335|436:292,1,180,8|0,0:0|0:0,0:0:0:0:
440,160,91508,1,2,0:0:0:0:
328,216,91667,1,2,0:0:0:0:
180,363,91986,6,0,P|141:283|156:196,1,180,8|0,0:0|0:0,0:0:0:0:
227,276,92465,2,0,P|185:287|141:277,1,90,8|0,0:0|0:0,0:0:0:0:
36,220,92784,1,8,0:0:0:0:
16,188,92864,1,8,0:0:0:0:
12,152,92944,1,8,0:0:0:0:
24,120,93024,1,8,0:0:0:0:
48,92,93103,6,0,P|90:80|134:90,1,90,6|0,0:0|0:0,0:0:0:0:
328,164,93423,2,0,P|285:175|241:165,1,90,8|0,0:0|0:0,0:0:0:0:
132,300,93742,2,0,P|121:257|131:213,1,90,2|2,0:0|0:0,0:0:0:0:
160,100,94061,1,8,0:0:0:0:
272,64,94220,1,0,0:0:0:0:
328,164,94380,6,0,P|339:207|329:251,1,90,2|0,0:0|0:0,0:0:0:0:
252,352,94699,2,0,P|295:361|339:351,1,90,8|0,0:0|0:0,0:0:0:0:
132,300,95018,2,0,P|88:290|44:300,1,90,2|2,0:0|0:0,0:0:0:0:
215,232,95337,2,0,P|225:188|215:144,1,90,8|0,0:0|0:0,0:0:0:0:
332,148,95657,6,0,P|322:191|332:235,1,90,2|0,0:0|0:0,0:0:0:0:
420,348,95976,1,8,0:0:0:0:
252,352,96135,1,0,0:0:0:0:
420,348,96295,2,0,P|429:304|419:260,1,90,2|2,0:0|0:0,0:0:0:0:
332,60,96614,2,0,P|322:103|332:147,1,90,8|0,0:0|0:0,0:0:0:0:
468,132,96933,1,0,0:0:0:0:
184,208,97093,1,0,0:0:0:0:
184,208,97173,1,0,0:0:0:0:
184,207,97252,2,0,P|167:268|184:332,1,125.999996154785,8|0,0:0|0:0,0:0:0:0:
416,264,97731,1,0,0:0:0:0:
296,224,97891,6,0,P|285:267|298:310,1,90,2|6,0:0|0:0,0:0:0:0:
395,107,98369,2,0,P|322:76|244:93,1,161.999995056153,2|2,0:0|0:0,0:0:0:0:
300,323,98848,2,0,P|335:253|315:176,1,161.999995056153,8|0,0:0|0:0,0:0:0:0:
244,92,99327,2,0,P|165:75|92:106,2,161.999995056153,2|8|2,0:0|0:0|0:0,0:0:0:0:
345,144,100125,2,0,B|392:156|440:124|440:124|408:220|440:262,1,242.999992584229,8|0,0:0|0:0,0:0:0:0:
348,328,100763,6,0,P|316:305|275:298,1,80.9999975280763,2|2,0:0|0:0,0:0:0:0:
116,328,101242,1,2,0:0:0:0:
116,328,101401,2,0,P|148:255|129:177,1,161.999995056153,8|2,0:0|0:0,2:0:0:0:
25,244,101880,1,2,0:0:0:0:
48,68,102199,1,8,0:0:0:0:
48,67,102359,6,0,P|119:34|200:60,1,161.999995056153,2|8,0:0|0:0,0:0:0:0:
316,180,102837,1,2,0:0:0:0:
312,52,102997,1,2,0:0:0:0:
196,184,103157,1,8,0:0:0:0:
424,248,103316,5,6,0:0:0:0:
424,248,103476,2,0,L|431:86,1,161.999995056153,2|2,0:0|0:0,0:0:0:0:
192,76,103954,2,0,L|184:237,1,161.999995056153,8|2,0:0|0:0,0:0:0:0:
251,316,104433,2,0,P|176:339|104:304,2,161.999995056153,2|8|0,0:0|0:0|0:0,0:0:0:0:
284,224,105231,2,0,P|322:236|350:264,1,80.9999975280763,8|0,0:0|0:0,0:0:0:0:
403,351,105550,2,0,P|430:322|439:283,1,80.9999975280763,0|0,0:0|0:0,0:0:0:0:
444,168,105869,2,0,P|434:129|407:99,1,80.9999975280763,6|2,0:0|0:0,0:0:0:0:
312,32,106189,1,8,0:0:0:0:
88,136,106508,6,0,L|168:124,1,80.9999975280763,2|2,0:0|0:0,0:0:0:0:
20,252,106827,2,0,L|100:240,1,80.9999975280763,8|0,0:0|0:0,0:0:0:0:
256,196,107146,2,0,P|282:121|252:48,1,161.999995056153,2|8,0:0|0:0,0:0:0:0:
180,124,107625,6,0,L|396:133,1,202.5
382,132,108423,6,0,P|321:207|326:304,1,198.000006042481,6|0,0:0|0:0,0:0:0:0:
438,248,108901,1,0,0:0:0:0:
294,104,109061,1,2,0:0:0:0:
122,148,109220,1,2,0:0:0:0:
64,312,109380,2,0,L|152:356,1,99.0000030212403,8|0,0:0|0:0,0:0:0:0:
292,288,109699,2,0,P|325:253|331:204,1,99.0000030212403,2|2,0:0|0:0,0:0:0:0:
330,22,110018,2,0,P|296:56|294:106,1,99.0000030212403,8|0,0:0|0:0,0:0:0:0:
412,252,110337,1,2,0:0:0:0:
424,132,110497,1,2,0:0:0:0:
284,235,110657,6,0,P|188:264|108:204,1,198.000006042481,12|0,0:0|0:0,0:0:0:0:
208,156,111135,1,0,0:0:0:0:
72,300,111295,2,0,P|23:212|63:121,1,198.000006042481,8|2,0:0|0:0,0:0:0:0:
152,44,111774,1,2,0:0:0:0:
208,156,111933,1,8,0:0:0:0:
56,128,112093,1,0,0:0:0:0:
152,44,112252,2,0,L|256:56,1,99.0000030212403,2|0,0:0|0:0,0:0:0:0:
452,180,112571,2,0,L|353:168,1,99.0000030212403,8|0,0:0|0:0,0:0:0:0:
124,212,112891,2,0,L|222:223,1,99.0000030212403,2|2,0:0|0:0,0:0:0:0:
432,256,113210,1,8,0:0:0:0:
444,220,113290,1,8,0:0:0:0:
452,180,113369,1,8,0:0:0:0:
432,144,113449,1,8,0:0:0:0:
416,107,113529,6,0,P|326:142|237:103,1,198.000006042481,6|8,0:0|0:0,0:0:0:0:
316,40,114008,1,0,0:0:0:0:
336,144,114167,2,0,P|330:203|302:243,1,99.0000030212403,2|2,0:0|0:0,0:0:0:0:
356,328,114486,2,0,P|302:354|254:351,1,99.0000030212403,8|0,0:0|0:0,0:0:0:0:
120,244,114806,2,0,P|126:185|154:144,1,99.0000030212403,2|0,0:0|0:0,0:0:0:0:
100,59,115125,2,0,P|153:32|201:35,1,99.0000030212403,8|0,0:0|0:0,0:0:0:0:
336,144,115444,1,2,0:0:0:0:
164,208,115603,1,2,0:0:0:0:
300,280,115763,6,0,L|216:100,1,198.000006042481,8|2,0:0|0:0,0:0:0:0:
44,160,116242,1,0,0:0:0:0:
147,300,116401,2,0,P|169:256|165:207,1,99.0000030212403,8|0,0:0|0:0,0:0:0:0:
124,76,116720,1,2,0:0:0:0:
44,160,116880,1,2,0:0:0:0:
244,124,117040,2,0,P|292:122|336:145,1,99.0000030212403,8|0,0:0|0:0,0:0:0:0:
448,252,117359,6,0,L|500:272,2,49.5000015106202,0|0|0,0:0|0:0|0:0,0:0:0:0:
312,276,117678,1,12,0:0:0:0:
180,312,117837,2,0,L|144:356,2,49.5000015106202,0|0|0,0:0|0:0|0:0,0:0:0:0:
244,124,118157,1,0,0:0:0:0:
312,276,118316,2,0,L|352:372,1,99.0000030212403,12|0,0:0|0:0,0:0:0:0:
240,227,118635,6,0,P|277:196|326:191,1,99.0000030212403,6|0,0:0|0:0,0:0:0:0:
116,188,118954,2,0,P|78:219|29:224,1,99.0000030212403,8|0,0:0|0:0,0:0:0:0:
244,252,119274,2,0,P|292:248|335:273,1,99.0000030212403,2|2,0:0|0:0,0:0:0:0:
124,156,119593,2,0,P|75:159|32:134,1,99.0000030212403,8|0,0:0|0:0,0:0:0:0:
100,56,119912,1,2,0:0:0:0:
220,84,120071,1,2,0:0:0:0:
220,84,120231,2,0,P|245:177|195:259,1,198.000006042481,8|2,0:0|0:0,0:0:0:0:
92,304,120710,1,2,0:0:0:0:
92,304,120869,6,0,P|186:287|268:343,1,198.000006042481,12|0,0:0|0:0,0:0:0:0:
20,348,121348,1,0,0:0:0:0:
64,216,121508,2,0,P|87:147|62:79,1,148.50000453186,8|0,0:0|0:0,0:0:0:0:
40,44,121827,2,0,P|86:59|136:52,1,99.0000030212403
352,112,122146,2,0,P|305:96|256:104,1,99.0000030212403,8|0,0:0|0:0,0:0:0:0:
152,160,122465,1,2,0:0:0:0:
208,328,122625,1,0,0:0:0:0:
64,216,122784,1,8,0:0:0:0:
252,228,122944,1,0,0:0:0:0:
72,352,123103,2,0,L|136:276,1,99.0000030212403,2|2,0:0|0:0,0:0:0:0:
220,168,123423,1,8,0:0:0:0:
236,148,123502,1,8,0:0:0:0:
252,128,123582,1,8,0:0:0:0:
268,108,123662,1,8,0:0:0:0:
280,88,123742,6,0,L|336:176,1,99.0000030212403,6|2,0:0|0:0,0:0:0:0:
504,272,124061,2,0,L|448:184,1,99.0000030212403,2|2,0:0|0:0,0:0:0:0:
368,276,124380,2,0,P|287:329|192:288,1,198.000006042481,8|0,0:0|0:0,0:0:0:0:
48,188,124859,2,0,P|130:137|219:170,1,198.000006042481,8|2,0:0|0:0,0:0:0:0:
224,296,125337,1,2,0:0:0:0:
132,208,125497,1,0,0:0:0:0:
207,103,125657,2,0,P|295:143|384:107,1,198.000006042481,8|0,0:0|0:0,0:0:0:0:
300,28,126135,1,8,0:0:0:0:
300,144,126295,6,0,L|300:243,1,99.0000030212403
347,347,126614,2,0,P|300:335|252:347,1,99.0000030212403,2|2,0:0|0:0,0:0:0:0:
108,356,126933,2,0,P|155:271|129:178,1,198.000006042481,8|0,0:0|0:0,0:0:0:0:
72,76,127412,2,0,L|176:100,1,99.0000030212403
328,152,127731,2,0,L|232:180,1,99.0000030212403,8|0,0:0|0:0,0:0:0:0:
220,300,128050,1,0,0:0:0:0:
348,348,128210,1,8,0:0:0:0:
420,244,128369,1,2,0:0:0:0:
440,216,128449,1,2,0:0:0:0:
460,188,128529,2,0,L|449:89,1,99.0000030212403,8|0,0:0|0:0,0:0:0:0:
328,151,128848,6,0,P|233:173|152:121,1,198.000006042481,6|8,0:0|0:0,0:0:0:0:
48,39,129327,2,0,P|28:84|34:133,1,99.0000030212403,0|2,0:0|0:0,0:0:0:0:
112,244,129646,1,2,0:0:0:0:
260,272,129806,2,0,P|269:223|256:176,1,99.0000030212403,8|0,0:0|0:0,0:0:0:0:
132,72,130125,5,8,0:0:0:0:
32,136,130284,1,8,0:0:0:0:
20,256,130444,1,8,0:0:0:0:
80,360,130603,1,8,0:0:0:0:
456,264,130923,6,0,L|404:256,2,49.5000015106202,0|0|12,0:0|0:0|0:0,0:0:0:0:
20,256,131401,6,0,L|120:244,1,90,2|0,0:0|0:0,0:0:0:0:
210,148,131720,2,0,L|124:124,1,90,8|0,0:0|0:0,0:0:0:0:
296,52,132040,2,0,L|368:120,1,90,2|2,0:0|0:0,0:0:0:0:
456,264,132359,1,8,0:0:0:0:
464,116,132518,1,0,0:0:0:0:
364,219,132678,6,0,P|355:263|366:307,1,90,2|0,0:0|0:0,0:0:0:0:
300,140,132997,2,0,P|308:96|297:52,1,90,8|0,0:0|0:0,0:0:0:0:
232,236,133316,1,2,0:0:0:0:
156,148,133476,1,2,0:0:0:0:
300,140,133635,1,8,0:0:0:0:
212,48,133795,1,0,0:0:0:0:
92,55,133954,6,0,P|48:132|72:216,1,180,2|8,0:0|0:0,0:0:0:0:
168,260,134433,1,0,0:0:0:0:
168,259,134593,2,0,P|99:314|12:302,1,180,2|8,0:0|0:0,0:0:0:0:
72,216,135071,1,0,0:0:0:0:
147,72,135231,6,0,P|160:114|153:158,1,90,2|0,0:0|0:0,0:0:0:0:
168,260,135550,2,0,P|210:272|253:261,1,90,8|0,0:0|0:0,0:0:0:0:
360,320,135869,2,0,B|392:292|440:288|440:288|420:240|434:197,1,180,2|8,0:0|0:0,0:0:0:0:
460,60,136348,1,0,0:0:0:0:
444,76,136428,1,0,0:0:0:0:
428,88,136508,6,0,P|340:103|262:62,1,180,2|8,0:0|0:0,0:0:0:0:
224,192,136986,1,0,0:0:0:0:
136,100,137146,1,2,0:0:0:0:
96,213,137306,2,0,B|124:276|88:336|88:336|168:380|244:336,1,270,2|2,0:0|0:0,0:0:0:0:
264,316,137891,2,0,P|293:316|319:329,1,60
376,352,138103,5,8,0:0:0:0:
412,360,138183,1,0,0:0:0:0:
448,364,138263,1,0,0:0:0:0:
480,348,138343,1,0,0:0:0:0:
496,316,138423,5,2,0:0:0:0:
500,280,138502,1,0,0:0:0:0:
488,248,138582,1,2,0:0:0:0:
468,220,138662,1,0,0:0:0:0:
444,192,138742,5,8,0:0:0:0:
432,156,138821,1,0,0:0:0:0:
440,120,138901,1,0,0:0:0:0:
452,84,138981,1,0,0:0:0:0:
460,48,139061,6,0,P|365:76|283:60,1,180,2|8,0:0|0:0,0:0:0:0:
208,136,139540,1,0,0:0:0:0:
292,292,139699,2,0,P|322:232|316:166,2,135,2|0|0,0:0|0:0|0:0,0:0:0:0:
175,339,140337,6,0,P|138:316|93:312,1,90,2|0,0:0|0:0,0:0:0:0:
12,212,140657,2,0,P|56:208|94:184,1,90,8|0,0:0|0:0,0:0:0:0:
164,76,140976,2,0,P|199:103|219:147,1,90,2|2,0:0|0:0,0:0:0:0:
160,280,141295,1,8,0:0:0:0:
192,260,141375,1,8,0:0:0:0:
224,248,141454,1,8,0:0:0:0:
256,264,141534,1,8,0:0:0:0:
288,284,141614,6,0,P|356:229|363:142,1,180,6|8,0:0|0:0,0:0:0:0:
272,36,142093,1,0,0:0:0:0:
204,156,142252,2,0,L|114:150,1,90,2|2,0:0|0:0,0:0:0:0:
56,44,142571,2,0,L|145:49,1,90,8|0,0:0|0:0,0:0:0:0:
324,156,142891,6,0,L|360:248,1,90,2|0,0:0|0:0,0:0:0:0:
236,240,143210,2,0,L|200:148,1,90,8|0,0:0|0:0,0:0:0:0:
272,36,143529,1,2,0:0:0:0:
272,36,143689,1,2,0:0:0:0:
404,56,143848,1,8,0:0:0:0:
404,56,144008,1,0,0:0:0:0:
431,191,144167,6,0,P|426:257|381:305,1,135,2|0,0:0|0:0,0:0:0:0:
424,340,144486,2,0,P|370:300|304:300,1,135,8|0,0:0|0:0,0:0:0:0:
256,324,144806,2,0,P|206:280|197:215,1,135,2|0,0:0|0:0,0:0:0:0:
228,172,145125,2,0,P|176:200|96:176,1,135,8|0,0:0|0:0,0:0:0:0:
68,144,145444,5,2,0:0:0:0:
20,264,145603,1,0,0:0:0:0:
104,360,145763,2,0,L|192:340,1,90,8|0,0:0|0:0,0:0:0:0:
392,216,146082,2,0,L|304:236,1,90,2|2,0:0|0:0,0:0:0:0:
156,99,146401,6,0,P|132:184|180:257,1,180,8|2,0:0|0:0,0:0:0:0:
216,268,146800,1,0,0:0:0:0:
248,256,146880,1,0,0:0:0:0:
260,224,146960,1,0,0:0:0:0:
252,188,147040,1,8,0:0:0:0:
224,164,147119,1,0,0:0:0:0:
188,164,147199,1,0,0:0:0:0:
152,172,147279,1,0,0:0:0:0:
116,204,147359,5,2,0:0:0:0:
92,232,147439,1,0,0:0:0:0:
88,268,147518,1,2,0:0:0:0:
96,304,147598,1,0,0:0:0:0:
116,332,147678,1,8,0:0:0:0:
144,352,147758,1,0,0:0:0:0:
180,360,147837,1,0,0:0:0:0:
216,356,147917,1,0,0:0:0:0:
248,336,147997,5,2,0:0:0:0:
284,328,148077,1,0,0:0:0:0:
320,328,148157,1,0,0:0:0:0:
356,336,148236,1,0,0:0:0:0:
388,352,148316,1,8,0:0:0:0:
424,360,148396,1,0,0:0:0:0:
424,324,148476,1,0,0:0:0:0:
416,288,148556,1,0,0:0:0:0:
416,252,148635,5,2,0:0:0:0:
416,216,148715,1,0,0:0:0:0:
424,180,148795,1,2,0:0:0:0:
436,144,148875,1,0,0:0:0:0:
416,116,148954,1,8,0:0:0:0:
388,92,149034,1,0,0:0:0:0:
352,92,149114,1,0,0:0:0:0:
320,108,149194,1,0,0:0:0:0:
288,124,149274,6,0,P|245:137|200:123,1,90,2|0,0:0|0:0,0:0:0:0:
92,40,149593,2,0,P|66:76|60:120,1,90,8|0,0:0|0:0,0:0:0:0:
40,256,149912,2,0,P|79:276|124:279,1,90,2|2,0:0|0:0,0:0:0:0:
264,232,150231,1,8,0:0:0:0:
160,156,150391,1,0,0:0:0:0:
216,344,150550,6,0,P|256:360|304:352,1,90,2|0,0:0|0:0,0:0:0:0:
392,276,150869,1,8,0:0:0:0:
344,160,151029,1,0,0:0:0:0:
432,68,151189,2,0,L|440:8,2,60,8|8|8,0:0|0:0|0:0,0:0:0:0:
488,192,151508,1,4,0:0:0:0:
176,236,151827,6,0,L|268:232,1,90,2|0,0:0|0:0,0:0:0:0:
160,156,152146,1,2,0:0:0:0:
80,336,152306,2,0,L|172:332,1,90,0|2,0:0|0:0,0:0:0:0:
160,156,152625,1,0,0:0:0:0:
32,108,152784,2,0,P|24:156|31:196,1,90,2|0,0:0|0:0,0:0:0:0:
160,156,153103,5,2,0:0:0:0:
288,112,153263,2,0,P|295:156|287:200,1,90,0|2,0:0|0:0,0:0:0:0:
188,280,153582,1,0,0:0:0:0:
344,307,153742,2,0,P|378:278|395:231,1,90,2|0,0:0|0:0,0:0:0:0:
480,204,154061,2,0,P|463:162|428:134,1,90,2|0,0:0|0:0,0:0:0:0:
320,168,154380,5,2,0:0:0:0:
216,216,154540,2,0,L|212:120,1,90,0|2,0:0|0:0,0:0:0:0:
320,168,154859,1,0,0:0:0:0:
124,272,155018,2,0,L|120:176,1,90,2|0,0:0|0:0,0:0:0:0:
204,68,155337,1,2,0:0:0:0:
359,75,155497,6,0,P|354:120|332:159,1,90,0|2,0:0|0:0,0:0:0:0:
204,68,155816,1,0,0:0:0:0:
67,24,155976,2,0,P|52:65|55:110,1,90,2|0,0:0|0:0,0:0:0:0:
32,252,156295,2,0,P|76:252|115:232,1,90,2|0,0:0|0:0,0:0:0:0:
305,171,156614,2,0,P|261:157|218:166,1,90,2|0,0:0|0:0,0:0:0:0:
152,308,156933,5,2,0:0:0:0:
276,284,157093,2,0,L|356:364,1,90,0|2,0:0|0:0,0:0:0:0:
152,308,157412,1,0,0:0:0:0:
320,168,157571,2,0,L|392:232,1,90,2|0,0:0|0:0,0:0:0:0:
216,136,157891,6,0,P|236:96|274:72,1,90,2|0,0:0|0:0,0:0:0:0:
216,136,158210,1,2,0:0:0:0:
228,248,158369,1,0,0:0:0:0:
132,204,158529,2,0,P|109:165|109:121,1,90,2|0,0:0|0:0,0:0:0:0:
228,248,158848,2,0,P|200:282|158:299,1,90,2|0,0:0|0:0,0:0:0:0:
216,136,159167,2,0,P|243:101|285:84,1,90,2|0,0:0|0:0,0:0:0:0:
408,120,159486,5,2,0:0:0:0:
384,244,159646,2,0,P|343:226|315:191,1,90,0|2,0:0|0:0,0:0:0:0:
408,120,159965,1,0,0:0:0:0:
492,304,160125,2,0,P|454:329|410:335,1,90,2|0,0:0|0:0,0:0:0:0:
260,292,160444,2,0,P|235:254|229:210,1,90,2|0,0:0|0:0,0:0:0:0:
144,80,160763,6,0,P|76:136|71:226,3,180,2|2|2|2,0:0|0:0|0:0|0:0,0:0:0:0:
348,120,162040,6,0,P|323:82|285:59,1,90,2|0,0:0|0:0,0:0:0:0:
160,184,162359,2,0,P|184:221|222:244,1,90,2|0,0:0|0:0,0:0:0:0:
344,248,162678,2,0,P|311:328|227:347,1,180,8|0,0:0|0:0,0:0:0:0:
92,332,163157,1,0,0:0:0:0:
152,223,163316,6,0,P|160:179|153:135,1,90,2|8,0:0|0:0,0:0:0:0:
276,140,163635,2,0,P|267:184|274:228,1,90,2|0,0:0|0:0,0:0:0:0:
368,128,163954,2,0,P|281:141|213:87,1,180,8|0,0:0|0:0,0:0:0:0:
308,36,164433,1,0,0:0:0:0:
419,35,164593,6,0,P|472:112|448:200,1,180,2|0,0:0|0:0,0:0:0:0:
384,296,165071,1,0,0:0:0:0:
312,196,165231,2,0,L|212:200,1,90,8|0,0:0|0:0,0:0:0:0:
128,116,165550,1,0,0:0:0:0:
128,116,165710,1,0,0:0:0:0:
119,295,165869,6,0,P|101:255|104:211,1,90,2|0,0:0|0:0,0:0:0:0:
256,188,166189,2,0,P|274:228|271:272,1,90,2|8,0:0|0:0,0:0:0:0:
112,344,166508,2,0,P|76:316|58:276,1,90,8|0,0:0|0:0,0:0:0:0:
256,128,166828,2,0,P|291:155|309:195,1,90
403,264,167146,6,0,P|360:336|268:355,1,180,6|0,0:0|0:0,0:0:0:0:
196,244,167625,1,0,0:0:0:0:
111,343,167784,2,0,P|80:312|67:269,1,90,8|0,0:0|0:0,0:0:0:0:
80,148,168103,2,0,P|111:116|154:104,1,90
312,192,168423,5,2,0:0:0:0:
280,72,168582,1,8,0:0:0:0:
196,244,168742,2,0,L|212:344,1,90,2|0,0:0|0:0,0:0:0:0:
328,280,169061,2,0,L|308:180,1,90,8|0,0:0|0:0,0:0:0:0:
372,112,169380,6,0,B|304:200|208:140,1,180,0|2,0:0|0:0,0:0:0:0:
140,44,169859,1,0,0:0:0:0:
84,224,170018,2,0,P|74:180|86:137,1,90,2|0,0:0|0:0,0:0:0:0:
184,236,170337,2,0,P|193:279|181:322,1,90,8|0,0:0|0:0,0:0:0:0:
100,348,170657,6,0,P|186:324|270:351,1,180,2|0,0:0|0:0,0:0:0:0:
348,268,171135,1,8,0:0:0:0:
376,136,171295,1,0,0:0:0:0:
272,180,171454,2,0,L|224:164,2,45,0|0|8,0:0|0:0|0:0,0:0:0:0:
460,240,171774,1,0,0:0:0:0:
384,112,171933,1,0,0:0:0:0:
340,288,172093,1,0,0:0:0:0:
392,92,172252,5,4,0:0:0:0:
256,192,172332,12,0,174806,0:0:0:0:
256,192,174885,12,0,176720,0:0:0:0:
256,192,177359,5,4,0:0:0:0:
256,192,179593,5,4,0:0:0:0:
256,192,182146,5,8,0:0:0:0:
264,184,182226,1,8,0:0:0:0:
272,176,182306,1,8,0:0:0:0:
280,168,182385,1,8,0:0:0:0:
287,159,182465,6,0,P|336:172|385:161,1,99.0000030212403,6|0,0:0|0:0,0:0:0:0:
248,48,182784,2,0,P|200:36|150:46,1,99.0000030212403,8|0,0:0|0:0,0:0:0:0:
32,176,183103,1,2,0:0:0:0:
120,296,183263,1,2,0:0:0:0:
248,224,183423,2,0,P|256:172|235:125,1,99.0000030212403,8|0,0:0|0:0,0:0:0:0:
120,28,183742,5,2,0:0:0:0:
96,224,183901,1,0,0:0:0:0:
304,319,184061,2,0,P|337:284|348:236,1,99.0000030212403,8|0,0:0|0:0,0:0:0:0:
163,95,184380,2,0,P|200:128|256:132,1,99.0000030212403
416,32,184699,1,8,0:0:0:0:
248,136,184859,1,0,0:0:0:0:
240,328,185018,6,0,P|330:300|349:207,1,198.000006042481,2|8,0:0|0:0,0:0:0:0:
244,36,185497,1,0,0:0:0:0:
232,228,185657,1,2,0:0:0:0:
354,81,185816,1,2,0:0:0:0:
168,128,185976,1,8,0:0:0:0:
346,200,186135,6,0,L|388:232,2,49.5000015106202,0|0|0,0:0|0:0|0:0,0:0:0:0:
167,128,186454,2,0,P|135:164|127:212,1,99.0000030212403,0|12,0:0|0:0,0:0:0:0:
355,80,186774,2,0,L|400:53,2,49.5000015106202,0|0|0,0:0|0:0|0:0,0:0:0:0:
232,228,187093,2,0,P|252:272|294:298,1,99.0000030212403,0|12,0:0|0:0,0:0:0:0:
264,120,187412,1,0,0:0:0:0:
144,140,187571,6,0,P|96:128|66:90,1,99.0000030212403,6|0,0:0|0:0,0:0:0:0:
180,24,187891,1,8,0:0:0:0:
263,119,188050,2,0,P|244:213|158:254,1,198.000006042481,0|2,0:0|0:0,0:0:0:0:
59,101,188529,2,0,P|107:106|143:139,1,99.0000030212403,8|0,0:0|0:0,0:0:0:0:
316,264,188848,2,0,P|267:258|231:226,1,99.0000030212403,2|2,0:0|0:0,0:0:0:0:
396,208,189167,2,0,P|415:252|410:301,1,99.0000030212403,8|0,0:0|0:0,0:0:0:0:
308,173,189486,2,0,P|335:132|379:111,1,99.0000030212403,2|2,0:0|0:0,0:0:0:0:
480,103,189806,6,0,P|382:102|309:39,1,198.000006042481,12|0,0:0|0:0,0:0:0:0:
200,104,190284,1,0,0:0:0:0:
118,202,190444,2,0,P|178:244|191:316,1,148.50000453186,8|0,0:0|0:0,0:0:0:0:
176,336,190763,2,0,P|216:311|272:316,1,99.0000030212403,2|0,0:0|0:0,0:0:0:0:
464,232,191082,2,0,P|423:256|368:252,1,99.0000030212403,8|0,0:0|0:0,0:0:0:0:
268,196,191401,5,2,0:0:0:0:
200,104,191561,1,2,0:0:0:0:
300,28,191720,1,8,0:0:0:0:
368,128,191880,1,0,0:0:0:0:
268,195,192040,2,0,P|222:213|168:204,1,99.0000030212403,2|2,0:0|0:0,0:0:0:0:
32,152,192359,1,8,0:0:0:0:
56,184,192439,1,8,0:0:0:0:
64,224,192518,1,8,0:0:0:0:
60,264,192598,1,8,0:0:0:0:
44,299,192678,6,0,P|91:288|139:299,1,99.0000030212403,4|0,0:0|0:0,0:0:0:0:
288,320,192997,2,0,P|335:331|383:319,1,99.0000030212403
308,204,193316,2,0,P|266:117|299:26,1,198.000006042481,8|0,0:0|0:0,0:0:0:0:
360,92,193795,2,0,P|273:134|182:101,1,198.000006042481
56,28,194274,1,0,0:0:0:0:
36,172,194433,1,0,0:0:0:0:
176,120,194593,2,0,P|186:168|171:229,1,99.0000030212403,8|2,0:0|0:0,0:0:0:0:
168,252,194832,1,2,0:0:0:0:
147,280,194912,6,0,P|243:258|338:282,1,198.000006042481,8|2,0:0|0:0,0:0:0:0:
440,160,195391,1,0,0:0:0:0:
296,96,195550,2,0,P|284:148|292:193,1,99.0000030212403,8|0,0:0|0:0,0:0:0:0:
219,344,195869,2,0,P|177:321|148:281,1,99.0000030212403,2|2,0:0|0:0,0:0:0:0:
20,152,196189,2,0,P|52:116|100:96,1,99.0000030212403,8|0,0:0|0:0,0:0:0:0:
316,128,196508,5,12,0:0:0:0:
192,264,196667,1,0,0:0:0:0:
152,96,196827,1,12,0:0:0:0:
300,248,196986,1,0,0:0:0:0:
132,128,197146,1,12,0:0:0:0:
112,160,197226,1,8,0:0:0:0:
88,192,197306,1,8,0:0:0:0:
68,224,197385,1,8,0:0:0:0:
43,256,197465,6,0,P|141:256|215:318,1,198.000006042481,12|6,0:0|0:0,0:0:0:0:
348,336,197944,1,0,0:0:0:0:
376,204,198103,2,0,P|327:199|280:214,1,99.0000030212403,8|0,0:0|0:0,0:0:0:0:
196,116,198423,2,0,P|159:148|138:193,1,99.0000030212403,2|2,0:0|0:0,0:0:0:0:
320,100,198742,2,0,P|301:54|263:24,1,99.0000030212403,8|0,0:0|0:0,0:0:0:0:
88,152,199061,2,0,P|106:197|144:227,1,99.0000030212403,2|2,0:0|0:0,0:0:0:0:
304,264,199380,2,0,P|346:239|395:237,1,99.0000030212403,8|0,0:0|0:0,0:0:0:0:
196,340,199699,1,2,0:0:0:0:
240,148,199859,1,2,0:0:0:0:
151,232,200018,6,0,P|63:261|0:192,1,198.000006042481,12|0,0:0|0:0,0:0:0:0:
76,72,200497,1,0,0:0:0:0:
200,148,200657,2,0,P|253:230|204:312,1,198.000006042481,8|2,0:0|0:0,0:0:0:0:
124,340,201135,1,2,0:0:0:0:
124,340,201295,2,0,P|216:308|312:344,1,198.000006042481,8|2,0:0|0:0,0:0:0:0:
492,196,201774,1,0,0:0:0:0:
492,196,201934,2,0,P|400:228|304:192,1,198.000006042481,8|2,0:0|0:0,0:0:0:0:
240,64,202412,1,2,0:0:0:0:
101,207,202571,1,8,0:0:0:0:
120,196,202651,1,8,0:0:0:0:
138,188,202731,1,8,0:0:0:0:
157,180,202811,1,8,0:0:0:0:
176,171,202891,6,0,P|172:269|230:347,1,198.000006042481,6|8,0:0|0:0,0:0:0:0:
304,228,203369,1,0,0:0:0:0:
280,100,203529,2,0,P|245:65|197:55,1,99.0000030212403,2|2,0:0|0:0,0:0:0:0:
100,208,203848,2,0,P|134:242|182:252,1,99.0000030212403,8|0,0:0|0:0,0:0:0:0:
397,228,204167,2,0,P|350:214|304:228,1,99.0000030212403,2|0,0:0|0:0,0:0:0:0:
212,144,204486,2,0,B|184:52|184:52|288:56,1,198.000006042481,8|2,0:0|0:0,0:0:0:0:
284,268,204965,1,2,0:0:0:0:
284,268,205125,6,0,B|386:272|386:272|358:180,1,198.000006042481,8|2,0:0|0:0,0:0:0:0:
204,232,205603,1,0,0:0:0:0:
136,336,205763,2,0,L|244:340,1,99.0000030212403,8|0,0:0|0:0,0:0:0:0:
144,168,206082,1,2,0:0:0:0:
144,168,206242,1,2,0:0:0:0:
64,304,206401,2,0,L|172:308,1,99.0000030212403,8|0,0:0|0:0,0:0:0:0:
320,328,206720,6,0,L|340:376,2,49.5000015106202,0|0|0,0:0|0:0|0:0,0:0:0:0:
252,200,207040,1,12,0:0:0:0:
216,68,207199,2,0,L|168:40,2,49.5000015106202,0|0|0,0:0|0:0|0:0,0:0:0:0:
344,112,207518,1,0,0:0:0:0:
468,227,207678,2,0,P|476:179|465:131,1,99.0000030212403,12|0,0:0|0:0,0:0:0:0:
252,200,207997,6,0,P|243:248|254:296,1,99.0000030212403,6|0,0:0|0:0,0:0:0:0:
92,300,208316,2,0,P|100:251|89:203,1,99.0000030212403,8|0,0:0|0:0,0:0:0:0:
20,96,208635,2,0,P|68:98|113:70,1,99.0000030212403,2|2,0:0|0:0,0:0:0:0:
277,42,208954,2,0,P|318:70|344:112,1,99.0000030212403,8|0,0:0|0:0,0:0:0:0:
464,168,209274,2,0,P|459:216|434:259,1,99.0000030212403,2|2,0:0|0:0,0:0:0:0:
292,356,209593,1,8,0:0:0:0:
224,192,209752,1,0,0:0:0:0:
364,232,209912,1,2,0:0:0:0:
137,304,210071,1,2,0:0:0:0:
136,304,210231,6,0,P|215:251|208:157,1,198.000006042481,12|0,0:0|0:0,0:0:0:0:
97,157,210710,1,0,0:0:0:0:
96,156,210869,2,0,P|164:136|192:60,1,148.50000453186,8|0,0:0|0:0,0:0:0:0:
175,27,211189,2,0,P|221:47|269:40,1,99.0000030212403
432,168,211508,2,0,P|386:148|338:154,1,99.0000030212403,8|0,0:0|0:0,0:0:0:0:
72,184,211827,2,0,P|117:203|165:197,1,99.0000030212403,2|0,0:0|0:0,0:0:0:0:
340,304,212146,2,0,P|294:284|246:290,1,99.0000030212403,8|0,0:0|0:0,0:0:0:0:
120,316,212465,1,2,0:0:0:0:
120,316,212625,1,2,0:0:0:0:
200,144,212784,1,8,0:0:0:0:
200,144,212944,1,0,0:0:0:0:
368,212,213103,6,0,P|362:260|339:304,1,99.0000030212403,6|2,0:0|0:0,0:0:0:0:
160,248,213423,2,0,P|165:199|188:155,1,99.0000030212403,2|2,0:0|0:0,0:0:0:0:
132,88,213742,2,0,P|212:144|310:134,1,198.000006042481,8|0,0:0|0:0,0:0:0:0:
340,76,214220,2,0,P|304:166|340:260,1,198.000006042481,8|2,0:0|0:0,0:0:0:0:
428,164,214699,1,2,0:0:0:0:
452,28,214859,1,0,0:0:0:0:
308,76,215018,2,0,P|272:166|308:260,1,198.000006042481,8|0,0:0|0:0,0:0:0:0:
396,344,215497,1,8,0:0:0:0:
272,352,215657,6,0,L|164:344,1,99.0000030212403,0|0,0:0|0:0,0:0:0:0:
28,240,215976,2,0,L|136:248,1,99.0000030212403,2|2,0:0|0:0,0:0:0:0:
271,236,216295,2,0,P|304:145|262:58,1,198.000006042481,8|0,0:0|0:0,0:0:0:0:
132,204,216774,2,0,P|180:199|217:168,1,99.0000030212403
36,164,217093,2,0,P|15:208|24:256,1,99.0000030212403,8|0,0:0|0:0,0:0:0:0:
120,104,217412,2,0,P|91:64|46:47,1,99.0000030212403,0|8,0:0|0:0,0:0:0:0:
132,204,217731,1,2,0:0:0:0:
152,196,217811,1,2,0:0:0:0:
172,188,217891,1,8,0:0:0:0:
72,336,218050,1,0,0:0:0:0:
72,336,218210,6,0,L|163:299,1,99.0000030212403,6|0,0:0|0:0,0:0:0:0:
340,276,218529,2,0,P|304:241|289:195,1,99.0000030212403,8|0,0:0|0:0,0:0:0:0:
228,60,218848,2,0,P|179:50|132:63,1,99.0000030212403,2|2,0:0|0:0,0:0:0:0:
128,248,219167,2,0,P|153:206|150:157,1,99.0000030212403,8|0,0:0|0:0,0:0:0:0:
40,28,219486,5,8,0:0:0:0:
188,52,219646,1,8,0:0:0:0:
336,76,219806,1,8,0:0:0:0:
480,104,219965,1,8,0:0:0:0:
356,304,220284,5,2,0:0:0:0:
364,272,220364,1,2,0:0:0:0:
372,240,220444,1,12,0:0:0:0:
336,76,220763,6,0,B|296:112|252:102,1,90,6|0,0:0|0:0,0:0:0:0:
83,79,221082,2,0,P|96:122|87:166,1,90,8|0,0:0|0:0,0:0:0:0:
0,312,221401,2,0,P|43:304|84:321,1,90,2|2,0:0|0:0,0:0:0:0:
296,296,221720,2,0,P|252:303|211:286,1,90,8|0,0:0|0:0,0:0:0:0:
148,152,222040,5,2,0:0:0:0:
96,256,222199,1,2,0:0:0:0:
268,184,222359,2,0,B|312:168|356:192|356:192|344:144|363:105,1,180,8|2,0:0|0:0,0:0:0:0:
456,28,222837,1,2,0:0:0:0:
455,153,222997,2,0,B|452:192|476:228|476:228|460:288|410:297,1,180,8|2,0:0|0:0,0:0:0:0:
280,236,223476,5,0,0:0:0:0:
128,310,223635,2,0,P|170:327|200:360,1,90,8|0,0:0|0:0,0:0:0:0:
279,235,223954,2,0,P|232:224|203:193,1,90,2|2,0:0|0:0,0:0:0:0:
40,156,224274,2,0,P|49:200|36:244,1,90,8|0,0:0|0:0,0:0:0:0:
124,116,224593,6,0,P|112:73|128:28,1,90,2|2,0:0|0:0,0:0:0:0:
320,112,224912,1,8,0:0:0:0:
160,200,225071,1,0,0:0:0:0:
192,76,225231,1,2,0:0:0:0:
272,216,225391,1,2,0:0:0:0:
340,360,225550,1,8,0:0:0:0:
308,352,225630,1,8,0:0:0:0:
276,344,225710,1,8,0:0:0:0:
244,336,225790,1,8,0:0:0:0:
216,328,225869,6,0,B|136:308|136:308|97:218,1,180,6|8,0:0|0:0,0:0:0:0:
140,64,226348,1,0,0:0:0:0:
256,140,226508,2,0,P|231:177|191:194,1,90,2|2,0:0|0:0,0:0:0:0:
328,44,226827,2,0,P|367:64|392:101,1,90,8|0,0:0|0:0,0:0:0:0:
356,260,227146,5,2,0:0:0:0:
200,280,227306,1,2,0:0:0:0:
102,178,227465,2,0,P|170:123|256:140,1,180,8|2,0:0|0:0,0:0:0:0:
200,280,227944,1,2,0:0:0:0:
64,264,228103,2,0,P|4:200|15:113,1,180,8|2,0:0|0:0,0:0:0:0:
148,36,228582,5,0,0:0:0:0:
188,180,228742,2,0,P|144:190|102:176,1,90,8|0,0:0|0:0,0:0:0:0:
280,92,229061,2,0,P|314:119|328:161,1,90,2|2,0:0|0:0,0:0:0:0:
272,292,229380,2,0,P|314:279|357:289,1,90,8|0,0:0|0:0,0:0:0:0:
155,262,229699,6,0,P|153:307|171:347,1,90,2|0,0:0|0:0,0:0:0:0:
223,179,230018,2,0,P|185:158|140:155,1,90,8|0,0:0|0:0,0:0:0:0:
139,155,230258,1,0,0:0:0:0:
139,155,230337,1,8,0:0:0:0:
32,292,230497,1,8,0:0:0:0:
20,151,230657,2,0,P|36:108|70:80,1,90,2|0,0:0|0:0,0:0:0:0:
256,104,230976,5,4,0:0:0:0:
256,192,231056,12,0,234806,0:0:0:0:
