osu file format v14

[General]
AudioFilename: Marika - Soul Release.mp3
AudioLeadIn: 500
PreviewTime: 187571
Countdown: 0
SampleSet: Soft
StackLeniency: 0.7
Mode: 0
LetterboxInBreaks: 0
WidescreenStoryboard: 0

[Editor]
DistanceSpacing: 1.6
BeatDivisor: 4
GridSize: 4
TimelineZoom: 2

[Metadata]
Title:Soul Release
TitleUnicode:Soul Release
Artist:Marika
ArtistUnicode:真里歌
Creator:El SolarBeam
Version:Insane
Source:ハロー・レディ!
Tags:Hello Lady! Akatsuki Works Meis Clauson Angel Note eroge visual novel ts8zs UnitedWeSin
BeatmapID:520698
BeatmapSetID:222790

[Difficulty]
HPDrainRate:6
CircleSize:4
OverallDifficulty:7.2
ApproachRate:9
SliderMultiplier:1.7
SliderTickRate:1

[Events]
//Background and Video events
0,0,"bg.jpg",0,0
//Break Periods
2,80537,81971
2,152027,161120
//Storyboard Layer 0 (Background)
//Storyboard Layer 1 (Fail)
//Storyboard Layer 2 (Pass)
//Storyboard Layer 3 (Foreground)
//Storyboard Sound Samples

[TimingPoints]
1189,319.148936170213,4,2,1,85,1,0
2465,-200,4,2,1,60,0,0
3742,-100,4,2,1,85,0,0
13954,-125,4,2,1,60,0,0
24167,-100,4,2,1,85,0,0
32784,-125,4,2,1,85,0,0
33103,-100,4,2,1,85,0,0
34061,-125,4,2,1,60,0,0
34380,-111.111111111111,4,2,1,85,0,0
44593,-90.9090909090909,4,2,1,90,0,1
67571,-100,4,2,1,85,0,0
77784,-100,4,2,1,60,0,0
82891,-100,4,2,1,85,0,0
97891,-111.111111111111,4,2,1,60,0,0
98210,-111.111111111111,4,2,1,85,0,0
108263,-111.111111111111,4,2,1,30,0,0
108423,-90.9090909090909,4,2,1,90,0,1
131401,-100,4,2,1,85,0,0
172252,-100,4,2,1,60,0,0
176720,-100,4,2,1,10,0,0
177359,-100,4,2,1,75,0,0
182146,-100,4,2,1,85,0,0
182465,-90.9090909090909,4,2,1,85,0,1
197465,-125,4,2,1,85,0,0
197784,-90.9090909090909,4,2,1,90,0,1
220763,-100,4,2,1,85,0,0
230976,-100,4,2,1,70,0,0
231614,-100,4,2,1,60,0,0
232252,-100,4,2,1,50,0,0
232891,-100,4,2,1,40,0,0
233529,-100,4,2,1,30,0,0
234167,-100,4,2,1,20,0,0
234806,-100,4,2,1,10,0,0

[Colours]
Combo1 : 243,52,81
Combo2 : 0,0,136
Combo3 : 202,101,0

[HitObjects]
256,192,1189,12,8,3423,0:0:0:0:
136,240,3742,6,0,P|180:244|220:240,1,85,6|0,0:0|0:0,0:0:0:0:
328,156,4061,1,8,0:0:0:0:
344,292,4220,1,0,0:0:0:0:
228,196,4380,2,0,P|220:151|228:108,1,85,2|2,0:0|0:0,0:0:0:0:
340,36,4699,1,8,0:0:0:0:
340,36,4859,1,0,0:0:0:0:
412,155,5018,6,0,P|370:162|328:156,1,85,2|2,0:0|0:0,0:0:0:0:
160,100,5337,2,0,P|180:164|156:221,1,127.5,8|0,0:0|0:0,0:0:0:0:
124,276,5657,2,0,L|216:268,1,85,2|2,0:0|0:0,0:0:0:0:
336,220,5976,2,0,L|420:240,1,85,8|0,0:0|0:0,0:0:0:0:
444,104,6295,6,0,L|360:84,1,85,2|0,0:0|0:0,0:0:0:0:
232,44,6614,1,8,0:0:0:0:
204,176,6774,1,0,0:0:0:0:
335,220,6933,2,0,P|345:178|338:137,1,85,2|2,0:0|0:0,0:0:0:0:
204,176,7252,2,0,P|194:217|201:258,1,85,8|0,0:0|0:0,0:0:0:0:
168,368,7571,6,0,P|128:360|96:324,1,85,2|2,0:0|0:0,0:0:0:0:
76,148,7891,1,8,0:0:0:0:
76,148,8050,1,0,0:0:0:0:
168,288,8210,2,0,P|156:244|164:200,1,85,2|2,0:0|0:0,0:0:0:0:
239,56,8529,1,8,0:0:0:0:
282,59,8608,1,8,0:0:0:0:
320,76,8688,1,8,0:0:0:0:
352,105,8768,1,8,0:0:0:0:
371,143,8848,6,0,P|383:184|377:226,1,85,6|0,0:0|0:0,0:0:0:0:
320,340,9167,1,8,0:0:0:0:
252,232,9327,1,0,0:0:0:0:
176,336,9486,2,0,P|134:342|93:332,1,85,2|2,0:0|0:0,0:0:0:0:
40,204,9806,1,8,0:0:0:0:
156,116,9965,1,0,0:0:0:0:
252,231,10125,6,0,P|210:241|168:232,1,85,2|2,0:0|0:0,0:0:0:0:
272,132,10444,2,0,P|333:119|395:135,1,127.5,8|0,0:0|0:0,0:0:0:0:
448,132,10763,2,0,P|432:171|436:213,1,85,2|2,0:0|0:0,0:0:0:0:
368,352,11082,2,0,P|361:290|342:263,1,85,8|0,0:0|0:0,0:0:0:0:
272,131,11401,6,0,P|232:146|190:144,1,85,2|0,0:0|0:0,0:0:0:0:
40,132,11720,1,8,0:0:0:0:
124,28,11880,1,0,0:0:0:0:
144,172,12040,2,0,L|136:268,1,85,2|2,0:0|0:0,0:0:0:0:
40,132,12359,1,8,0:0:0:0:
40,132,12518,1,0,0:0:0:0:
180,224,12678,6,0,L|172:320,1,85,2|2,0:0|0:0,0:0:0:0:
48,212,12997,1,8,0:0:0:0:
188,144,13157,1,0,0:0:0:0:
319,219,13316,2,0,P|361:227|402:217,1,85,2|2,0:0|0:0,0:0:0:0:
392,64,13635,2,0,P|350:56|309:66,1,85,8|0,0:0|0:0,0:0:0:0:
240,160,13954,6,0,P|219:223|248:287,1,136,6|8,0:0|0:0,0:0:0:0:
352,320,14433,1,0,0:0:0:0:
388,212,14593,2,0,L|320:220,1,68
240,160,14912,2,0,L|172:151,1,68,8|0,0:0|0:0,0:0:0:0:
88,80,15231,6,0,P|98:145|67:204,1,136,0|8,0:0|0:0,0:0:0:0:
16,304,15710,1,0,0:0:0:0:
16,303,15869,2,0,P|83:295|152:308,1,136,0|8,0:0|0:0,0:0:0:0:
248,336,16348,1,2,0:0:0:0:
248,336,16508,6,0,B|260:304|248:272|248:272|232:236|242:204,1,136,2|8,0:0|0:0,0:0:0:0:
240,96,16986,1,0,0:0:0:0:
304,176,17146,2,0,P|240:200|175:178,1,136,0|8,0:0|0:0,0:0:0:0:
76,100,17625,1,0,0:0:0:0:
75,100,17784,6,0,P|55:163|73:228,1,136,0|8,0:0|0:0,0:0:0:0:
164,292,18263,2,0,L|172:216,1,68
248,148,18582,2,0,L|267:215,1,68,0|8,0:0|0:0,0:0:0:0:
292,320,18901,1,0,0:0:0:0:
292,320,19061,6,0,P|355:340|420:320,1,136,2|8,0:0|0:0,0:0:0:0:
460,192,19540,1,0,0:0:0:0:
348,160,19699,2,0,P|338:192|342:225,1,68
420,92,20018,2,0,P|394:69|360:60,1,68,8|0,0:0|0:0,0:0:0:0:
256,136,20337,6,0,P|190:152|126:132,1,136,0|8,0:0|0:0,0:0:0:0:
12,120,20816,1,0,0:0:0:0:
112,68,20976,2,0,P|123:135|94:196,1,136,0|8,0:0|0:0,0:0:0:0:
36,284,21454,1,2,0:0:0:0:
36,284,21614,6,0,L|104:300,1,68,2|0,0:0|0:0,0:0:0:0:
196,240,21933,2,0,L|264:224,1,68,8|0,0:0|0:0,0:0:0:0:
367,243,22252,2,0,P|319:198|311:132,1,136,0|8,0:0|0:0,0:0:0:0:
384,52,22731,1,0,0:0:0:0:
383,52,22891,6,0,P|317:67|255:44,1,136,0|8,0:0|0:0,0:0:0:0:
148,20,23369,2,0,L|144:88,1,68
132,196,23689,1,8,0:0:0:0:
132,196,23848,5,8,0:0:0:0:
165,192,23927,1,8,0:0:0:0:
199,188,24007,1,8,0:0:0:0:
233,184,24087,1,8,0:0:0:0:
276,180,24167,6,0,L|272:264,1,85,6|2,0:0|0:0,0:0:0:0:
384,188,24486,2,0,L|368:92,1,85,8|0,0:0|0:0,0:0:0:0:
492,40,24806,2,0,L|492:136,1,85,2|2,0:0|0:0,0:0:0:0:
492,260,25125,1,8,0:0:0:0:
492,260,25284,1,0,0:0:0:0:
371,328,25444,6,0,P|331:339|290:329,1,85,2|2,0:0|0:0,0:0:0:0:
116,312,25763,2,0,P|156:300|197:310,1,85,8|0,0:0|0:0,0:0:0:0:
256,236,26082,2,0,P|264:192|255:151,1,85,2|2,0:0|0:0,0:0:0:0:
196,28,26401,1,8,0:0:0:0:
136,152,26561,1,0,0:0:0:0:
272,132,26720,6,0,L|364:128,1,85,2|2,0:0|0:0,0:0:0:0:
504,220,27040,2,0,L|419:216,1,85,8|0,0:0|0:0,0:0:0:0:
256,236,27359,1,2,0:0:0:0:
256,236,27518,1,2,0:0:0:0:
371,328,27678,2,0,P|380:288|372:243,1,85,8|0,0:0|0:0,0:0:0:0:
328,100,27997,5,2,0:0:0:0:
456,184,28157,1,2,0:0:0:0:
284,164,28316,1,8,0:0:0:0:
396,136,28476,1,0,0:0:0:0:
256,235,28635,2,0,P|216:244|172:233,1,85,2|2,0:0|0:0,0:0:0:0:
72,128,28954,1,8,0:0:0:0:
204,44,29114,1,0,0:0:0:0:
204,44,29194,1,0,0:0:0:0:
204,44,29274,6,0,P|216:88|208:127,1,85,2|2,0:0|0:0,0:0:0:0:
128,236,29593,2,0,P|120:276|132:319,1,85,8|0,0:0|0:0,0:0:0:0:
256,236,29912,1,2,0:0:0:0:
256,236,30071,1,2,0:0:0:0:
156,124,30231,2,0,P|116:116|72:128,1,85,8|0,0:0|0:0,0:0:0:0:
204,44,30550,5,2,0:0:0:0:
204,44,30710,1,2,0:0:0:0:
312,168,30869,2,0,P|352:176|396:164,1,85,8|0,0:0|0:0,0:0:0:0:
468,48,31189,1,2,0:0:0:0:
332,40,31348,1,2,0:0:0:0:
312,176,31508,2,0,L|316:272,1,85,8|0,0:0|0:0,0:0:0:0:
416,352,31827,6,0,L|419:267,1,85,2|2,0:0|0:0,0:0:0:0:
428,128,32146,1,8,0:0:0:0:
428,128,32306,1,0,0:0:0:0:
312,184,32465,2,0,P|271:174|229:183,1,85,2|2,0:0|0:0,0:0:0:0:
172,232,32784,6,0,P|184:164|158:100,1,136,8|0,0:0|0:0,0:0:0:0:
48,24,33263,1,8,0:0:0:0:
64,152,33423,1,8,0:0:0:0:
176,60,33582,1,0,0:0:0:0:
44,88,33742,1,8,0:0:0:0:
120,184,33901,1,0,0:0:0:0:
176,59,34061,6,0,P|241:43|306:60,1,136,0|6,0:0|0:0,0:0:0:0:
306,60,34540,1,2,0:0:0:0:
244,288,34859,1,2,0:0:0:0:
244,288,35018,2,0,P|217:219|237:146,1,152.999995330811,8|2,0:0|0:0,0:0:0:0:
336,212,35497,1,2,0:0:0:0:
336,212,35816,5,8,0:0:0:0:
336,212,35975,2,0,P|363:143|343:70,1,152.999995330811,2|8,0:0|0:0,0:0:0:0:
100,108,36614,1,0,0:0:0:0:
124,352,36933,5,2,0:0:0:0:
124,352,37093,2,0,P|201:350|277:342,1,152.999995330811,2|2,0:0|0:0,0:0:0:0:
260,220,37571,2,0,P|333:239|406:264,1,152.999995330811,8|2,0:0|0:0,0:0:0:0:
500,340,38050,1,2,0:0:0:0:
432,104,38369,5,8,0:0:0:0:
432,104,38529,1,2,0:0:0:0:
260,220,38848,2,0,L|256:304,1,76.4999976654053,8|2,0:0|0:0,0:0:0:0:
160,184,39167,2,0,L|156:268,1,76.4999976654053,2|8,0:0|0:0,0:0:0:0:
60,136,39486,5,6,0:0:0:0:
60,136,39646,1,2,0:0:0:0:
284,40,39965,1,2,0:0:0:0:
284,40,40125,2,0,P|308:111|284:182,1,152.999995330811,8|2,0:0|0:0,0:0:0:0:
216,232,40603,2,0,P|288:212|364:248,1,152.999995330811,2|8,0:0|0:0,0:0:0:0:
280,324,41082,1,2,0:0:0:0:
104,344,41401,2,0,P|106:303|104:268,1,76.4999976654053,8|2,0:0|0:0,0:0:0:0:
216,212,41720,2,0,P|213:171|216:136,1,76.4999976654053,2|8,0:0|0:0,0:0:0:0:
140,36,42040,6,0,P|211:59|283:38,1,152.999995330811,6|8,0:0|0:0,0:0:0:0:
480,124,42678,2,0,P|442:115|405:123,1,76.4999976654053,2|2,0:0|0:0,0:0:0:0:
288,212,42997,2,0,P|250:219|213:211,1,76.4999976654053,8|0,0:0|0:0,0:0:0:0:
148,140,43316,6,0,P|159:219|134:288,1,152.999995330811,2|8,0:0|0:0,0:0:0:0:
16,228,43795,1,0,0:0:0:0:
32,96,43954,1,8,0:0:0:0:
152,32,44114,1,0,0:0:0:0:
260,116,44274,1,8,0:0:0:0:
260,116,44353,1,8,0:0:0:0:
260,116,44433,1,8,0:0:0:0:
260,116,44513,1,8,0:0:0:0:
260,116,44593,6,0,P|357:120|452:116,1,187.000005706787,6|8,0:0|0:0,0:0:0:0:
336,32,45071,1,0,0:0:0:0:
200,216,45231,2,0,P|268:220|308:212,1,93.5000028533936,2|2,0:0|0:0,0:0:0:0:
448,196,45550,1,8,0:0:0:0:
347,128,45710,2,0,P|328:217|376:296,1,187.000005706787,0|2,0:0|0:0,0:0:0:0:
468,336,46189,2,0,P|371:332|276:336,1,187.000005706787,8|2,0:0|0:0,0:0:0:0:
152,364,46667,1,2,0:0:0:0:
152,364,46827,6,0,B|136:316|164:276|164:276|192:234|176:184,1,187.000005706787,12|0,0:0|0:0,0:0:0:0:
48,128,47306,1,0,0:0:0:0:
160,44,47465,2,0,P|226:23|292:43,1,140.25000428009,8|0,0:0|0:0,0:0:0:0:
284,80,47784,2,0,P|272:129|287:172,1,93.5000028533936
415,292,48103,2,0,P|424:248|412:200,1,93.5000028533936,8|0,0:0|0:0,0:0:0:0:
408,59,48423,2,0,P|324:96|240:61,1,187.000005706787,2|8,0:0|0:0,0:0:0:0:
152,136,48901,2,0,B|180:188|244:204|244:204|244:288,1,187.000005706787,0|2,0:0|0:0,0:0:0:0:
328,328,49380,2,0,P|241:373|160:328,1,187.000005706787,8|6,0:0|0:0,0:0:0:0:
356,128,50018,5,8,0:0:0:0:
416,324,50337,2,0,P|372:339|324:324,1,93.5000028533936,2|2,0:0|0:0,0:0:0:0:
132,252,50657,2,0,P|175:236|224:252,1,93.5000028533936,8|0,0:0|0:0,0:0:0:0:
79,343,50976,2,0,P|25:272|47:184,1,187.000005706787,2|8,0:0|0:0,0:0:0:0:
312,276,51614,2,0,L|219:263,1,93.5000028533936,2|2,0:0|0:0,0:0:0:0:
188,128,51933,2,0,L|95:115,1,93.5000028533936,8|0,0:0|0:0,0:0:0:0:
268,60,52252,6,0,P|290:147|235:219,1,187.000005706787,2|8,0:0|0:0,0:0:0:0:
123,212,52731,2,0,P|154:297|239:329,1,187.000005706787,0|0,0:0|0:0,0:0:0:0:
312,244,53210,2,0,P|377:224|442:247,1,140.25000428009,8|0,0:0|0:0,0:0:0:0:
484,284,53529,2,0,L|484:184,1,93.5000028533936
484,68,53848,2,0,P|418:87|353:64,1,140.25000428009,12|0,0:0|0:0,0:0:0:0:
312,27,54167,2,0,L|312:120,1,93.5000028533936
312,244,54486,1,12,0:0:0:0:
312,244,54806,6,0,P|266:235|220:244,1,93.5000028533936,6|0,0:0|0:0,0:0:0:0:
60,332,55125,2,0,P|106:341|152:332,1,93.5000028533936,8|0,0:0|0:0,0:0:0:0:
100,140,55444,2,0,P|91:186|100:232,1,93.5000028533936,2|2,0:0|0:0,0:0:0:0:
208,116,55763,2,0,P|217:69|208:23,1,93.5000028533936,8|0,0:0|0:0,0:0:0:0:
100,140,56082,1,2,0:0:0:0:
216,248,56242,1,2,0:0:0:0:
207,115,56401,2,0,P|156:41|66:33,1,187.000005706787,8|2,0:0|0:0,0:0:0:0:
76,184,56880,1,2,0:0:0:0:
216,248,57040,6,0,P|302:222|337:138,1,187.000005706787,12|0,0:0|0:0,0:0:0:0:
248,32,57518,1,0,0:0:0:0:
256,168,57678,2,0,L|360:268,1,140.25000428009,8|0,0:0|0:0,0:0:0:0:
448,272,57997,2,0,L|383:204,1,93.5000028533936
444,96,58316,2,0,L|379:28,1,93.5000028533936,8|0,0:0|0:0,0:0:0:0:
255,168,58635,2,0,P|174:208|90:174,1,187.000005706787,2|8,0:0|0:0,0:0:0:0:
172,96,59114,2,0,L|176:288,1,187.000005706787,0|2,0:0|0:0,0:0:0:0:
272,372,59593,2,0,L|288:272,1,93.5000028533936,8|0,0:0|0:0,0:0:0:0:
267,114,59912,5,6,0:0:0:0:
187,260,60071,1,2,0:0:0:0:
337,190,60232,1,2,0:0:0:0:
174,158,60390,1,2,0:0:0:0:
288,280,60550,2,0,P|378:286|439:220,1,187.000005706787,8|0,0:0|0:0,0:0:0:0:
338,189,61029,2,0,P|247:182|186:248,1,187.000005706787,8|2,0:0|0:0,0:0:0:0:
320,348,61508,1,2,0:0:0:0:
320,348,61667,1,2,0:0:0:0:
468,267,61827,2,0,P|487:178|450:94,1,187.000005706787,8|0,0:0|0:0,0:0:0:0:
236,232,62306,6,0,P|325:250|404:192,1,187.000005706787,8|0,0:0|0:0,0:0:0:0:
148,220,62784,2,0,P|151:266|178:303,1,93.5000028533936,2|2,0:0|0:0,0:0:0:0:
300,112,63103,2,0,P|211:94|136:148,1,187.000005706787,8|2,0:0|0:0,0:0:0:0:
136,146,63582,1,8,0:0:0:0:
416,296,63901,2,0,L|392:188,1,93.5000028533936,8|0,0:0|0:0,0:0:0:0:
436,68,64220,1,0,0:0:0:0:
300,112,64380,2,0,L|200:132,1,93.5000028533936,8|2,0:0|0:0,0:0:0:0:
172,136,64619,1,2,0:0:0:0:
136,146,64699,1,8,0:0:0:0:
135,145,65018,6,0,P|168:236|128:320,1,187.000005706787,6|8,0:0|0:0,0:0:0:0:
44,232,65497,1,0,0:0:0:0:
16,107,65657,2,0,P|45:72|89:58,1,93.5000028533936,2|2,0:0|0:0,0:0:0:0:
220,72,65976,2,0,P|264:58|293:22,1,93.5000028533936,8|0,0:0|0:0,0:0:0:0:
148,162,66295,5,8,0:0:0:0:
148,188,66454,1,8,0:0:0:0:
148,216,66614,1,8,0:0:0:0:
148,244,66774,1,8,0:0:0:0:
152,352,67093,5,2,0:0:0:0:
152,352,67173,1,2,0:0:0:0:
152,352,67252,1,6,0:0:0:0:
348,288,67571,6,0,L|432:280,1,85,6|0,0:0|0:0,0:0:0:0:
316,192,67891,2,0,L|232:184,1,85,8|0,0:0|0:0,0:0:0:0:
96,100,68210,2,0,P|79:138|79:184,1,85,2|2,0:0|0:0,0:0:0:0:
144,312,68529,1,8,0:0:0:0:
144,312,68689,1,0,0:0:0:0:
268,192,68848,6,0,P|226:183|184:190,1,85,2|2,0:0|0:0,0:0:0:0:
304,320,69167,2,0,P|364:336|429:319,1,127.5,8|0,0:0|0:0,0:0:0:0:
472,336,69486,2,0,P|464:294|466:252,1,85,2|2,0:0|0:0,0:0:0:0:
360,128,69806,2,0,P|367:169|365:211,1,85,8|0,0:0|0:0,0:0:0:0:
304,319,70125,6,0,P|262:329|220:323,1,85,2|0,0:0|0:0,0:0:0:0:
104,252,70444,1,8,0:0:0:0:
176,136,70603,1,0,0:0:0:0:
352,216,70763,2,0,P|311:227|269:223,1,85,2|2,0:0|0:0,0:0:0:0:
92,144,71082,2,0,P|132:132|174:136,1,85,8|0,0:0|0:0,0:0:0:0:
312,128,71401,5,2,0:0:0:0:
448,132,71561,1,2,0:0:0:0:
356,296,71720,2,0,P|343:255|352:212,1,85,8|0,0:0|0:0,0:0:0:0:
444,52,72040,2,0,P|456:92|449:133,1,85,2|2,0:0|0:0,0:0:0:0:
356,296,72359,1,8,0:0:0:0:
314,285,72438,1,0,0:0:0:0:
279,264,72518,1,0,0:0:0:0:
242,286,72598,1,0,0:0:0:0:
201,295,72678,6,0,P|160:304|118:297,1,85,6|0,0:0|0:0,0:0:0:0:
36,188,72997,1,8,0:0:0:0:
168,160,73157,1,0,0:0:0:0:
112,291,73316,2,0,P|103:333|110:375,1,85,2|2,0:0|0:0,0:0:0:0:
204,224,73635,2,0,P|212:182|205:140,1,85,8|0,0:0|0:0,0:0:0:0:
132,28,73954,5,2,0:0:0:0:
64,144,74114,1,2,0:0:0:0:
203,131,74274,2,0,P|268:148|329:137,1,127.5,8|0,0:0|0:0,0:0:0:0:
364,120,74593,2,0,L|364:208,1,85,2|2,0:0|0:0,0:0:0:0:
288,368,74912,2,0,L|288:280,1,85,8|0,0:0|0:0,0:0:0:0:
204,132,75231,6,0,P|162:123|119:135,1,85,2|0,0:0|0:0,0:0:0:0:
168,240,75550,1,8,0:0:0:0:
168,240,75710,1,0,0:0:0:0:
316,64,75869,2,0,P|274:55|231:67,1,85,2|2,0:0|0:0,0:0:0:0:
64,144,76189,1,8,0:0:0:0:
216,248,76348,1,0,0:0:0:0:
64,143,76508,6,0,P|55:185|60:227,1,85,2|2,0:0|0:0,0:0:0:0:
164,324,76827,2,0,P|172:282|167:240,1,85,8|0,0:0|0:0,0:0:0:0:
184,116,77146,2,0,P|179:74|188:33,1,85,2|2,0:0|0:0,0:0:0:0:
291,130,77465,2,0,P|296:172|288:214,1,85,8|0,0:0|0:0,0:0:0:0:
140,232,77784,5,4,0:0:0:0:
256,192,77864,12,0,80337,0:0:0:0:
384,312,82571,5,8,0:0:0:0:
384,312,82651,1,8,0:0:0:0:
384,312,82731,1,8,0:0:0:0:
384,312,82811,1,8,0:0:0:0:
383,312,82891,6,0,P|392:270|380:224,1,85,6|0,0:0|0:0,0:0:0:0:
287,128,83210,1,8,0:0:0:0:
239,248,83369,1,0,0:0:0:0:
380,108,83529,2,0,P|364:68|328:44,1,85,2|2,0:0|0:0,0:0:0:0:
359,204,83848,2,0,P|401:201|438:180,1,85,8|0,0:0|0:0,0:0:0:0:
287,127,84167,6,0,P|260:160|255:204,1,85,2|2,0:0|0:0,0:0:0:0:
295,356,84486,1,8,0:0:0:0:
403,264,84646,1,0,0:0:0:0:
239,248,84806,2,0,P|197:250|162:275,1,85,2|2,0:0|0:0,0:0:0:0:
15,316,85125,2,0,P|46:288|56:247,1,85,8|0,0:0|0:0,0:0:0:0:
131,92,85444,6,0,P|115:130|124:171,1,85,2|0,0:0|0:0,0:0:0:0:
203,324,85763,1,8,0:0:0:0:
243,176,85923,1,0,0:0:0:0:
95,240,86082,1,2,0:0:0:0:
263,288,86242,1,2,0:0:0:0:
175,160,86401,1,8,0:0:0:0:
123,304,86561,1,0,0:0:0:0:
263,288,86720,6,0,B|311:276|347:292|347:292|391:312|435:292,1,170,2|12,0:0|0:0,0:0:0:0:
495,184,87199,1,0,0:0:0:0:
383,112,87359,1,2,0:0:0:0:
375,228,87518,1,2,0:0:0:0:
460,84,87678,6,0,P|397:31|316:64,1,170,12|6,0:0|0:0,0:0:0:0:
303,144,88157,2,0,P|224:122|192:36,1,170,2|2,0:0|0:0,0:0:0:0:
300,44,88635,2,0,L|176:160,1,170,8|0,0:0|0:0,0:0:0:0:
92,232,89114,5,2,0:0:0:0:
256,336,89433,1,8,0:0:0:0:
420,232,89752,1,2,0:0:0:0:
420,232,89912,2,0,B|396:188|412:148|412:148|432:108|412:68,1,170,8|0,0:0|0:0,0:0:0:0:
300,44,90391,1,2,0:0:0:0:
312,156,90550,6,0,B|264:164|228:136|228:136|200:168|155:164,1,170,2|2,0:0|0:0,0:0:0:0:
88,92,91029,2,0,P|124:160|88:248,1,170,8|0,0:0|0:0,0:0:0:0:
16,324,91508,1,2,0:0:0:0:
16,324,91667,1,2,0:0:0:0:
24,168,91986,6,0,L|208:168,1,170,8|2,0:0|0:0,0:0:0:0:
288,72,92465,2,0,P|315:103|328:144,1,85,8|0,0:0|0:0,0:0:0:0:
276,268,92784,1,0,0:0:0:0:
276,268,92864,1,0,0:0:0:0:
276,268,92944,1,0,0:0:0:0:
276,268,93024,1,0,0:0:0:0:
276,268,93103,6,0,L|176:268,1,85,6|0,0:0|0:0,0:0:0:0:
64,307,93423,2,0,P|75:267|64:224,1,85,8|0,0:0|0:0,0:0:0:0:
32,92,93742,1,2,0:0:0:0:
164,132,93901,1,2,0:0:0:0:
288,72,94061,2,0,P|329:63|370:71,1,85,8|0,0:0|0:0,0:0:0:0:
476,160,94380,5,2,0:0:0:0:
344,192,94540,1,0,0:0:0:0:
212,160,94699,2,0,P|204:100|216:72,1,85,8|0,0:0|0:0,0:0:0:0:
344,192,95018,1,2,0:0:0:0:
244,284,95178,1,2,0:0:0:0:
116,240,95337,2,0,P|89:208|80:167,1,85,8|0,0:0|0:0,0:0:0:0:
232,152,95657,6,0,P|259:184|268:225,1,85,2|0,0:0|0:0,0:0:0:0:
216,340,95976,2,0,B|264:320|300:336|300:336|340:356|384:340,1,170,8|2,0:0|0:0,0:0:0:0:
472,224,96454,1,2,0:0:0:0:
328,240,96614,1,8,0:0:0:0:
460,352,96774,1,0,0:0:0:0:
384,164,96933,6,0,P|303:150|240:204,1,170,2|8,0:0|0:0,0:0:0:0:
136,304,97412,2,0,P|120:260|128:216,1,85,0|8,0:0|0:0,0:0:0:0:
164,92,97731,1,0,0:0:0:0:
165,91,97891,2,0,B|200:80|240:96|240:96|280:112|314:98,1,152.999995330811,8|6,0:0|0:0,0:0:0:0:
328,80,98369,6,0,L|328:236,1,152.999995330811,2|2,0:0|0:0,0:0:0:0:
328,233,98848,1,8,0:0:0:0:
88,188,99167,1,2,0:0:0:0:
88,187,99327,2,0,P|159:163|229:189,1,152.999995330811,2|8,0:0|0:0,0:0:0:0:
240,292,99806,1,2,0:0:0:0:
240,292,100125,2,0,P|310:317|381:293,1,152.999995330811,8|0,0:0|0:0,0:0:0:0:
300,56,100763,5,2,0:0:0:0:
300,56,100923,2,0,P|274:126|296:200,1,152.999995330811,2|2,0:0|0:0,0:0:0:0:
384,132,101401,1,8,0:0:0:0:
348,300,101720,5,2,0:0:0:0:
348,300,101880,1,2,0:0:0:0:
228,180,102199,1,8,0:0:0:0:
228,180,102359,1,2,0:0:0:0:
52,300,102678,2,0,L|36:380,1,76.4999976654053,8|2,0:0|0:0,0:0:0:0:
152,288,102997,2,0,L|136:368,1,76.4999976654053,2|8,0:0|0:0,0:0:0:0:
248,272,103316,5,6,0:0:0:0:
248,272,103476,1,2,0:0:0:0:
408,88,103795,1,2,0:0:0:0:
407,87,103954,2,0,P|336:63|265:87,1,152.999995330811,8|2,0:0|0:0,0:0:0:0:
220,52,104433,2,0,P|240:124|216:196,1,152.999995330811,2|8,0:0|0:0,0:0:0:0:
124,276,104912,1,2,0:0:0:0:
368,308,105231,6,0,L|364:216,1,76.4999976654053,8|2,0:0|0:0,0:0:0:0:
244,212,105550,2,0,L|248:120,1,76.4999976654053,2|8,0:0|0:0,0:0:0:0:
328,56,105869,2,0,P|255:76|182:55,1,152.999995330811,6|8,0:0|0:0,0:0:0:0:
64,196,106508,6,0,L|64:288,1,76.4999976654053,2|2,0:0|0:0,0:0:0:0:
176,324,106827,2,0,L|176:232,1,76.4999976654053,8|0,0:0|0:0,0:0:0:0:
152,128,107146,2,0,P|222:151|291:123,1,152.999995330811,2|8,0:0|0:0,0:0:0:0:
256,192,107625,12,0,108263,0:0:0:0:
168,224,108423,5,6,0:0:0:0:
260,112,108582,1,0,0:0:0:0:
356,236,108742,2,0,L|356:336,1,93.5000028533936,8|0,0:0|0:0,0:0:0:0:
464,188,109061,1,2,0:0:0:0:
256,192,109220,1,2,0:0:0:0:
464,360,109380,2,0,L|464:267,1,93.5000028533936,8|0,0:0|0:0,0:0:0:0:
464,95,109699,2,0,P|419:107|373:98,1,93.5000028533936,2|2,0:0|0:0,0:0:0:0:
184,152,110018,2,0,P|263:112|333:167,1,187.000005706787,8|2,0:0|0:0,0:0:0:0:
268,304,110497,1,2,0:0:0:0:
120,252,110657,6,0,P|75:171|96:82,1,187.000005706787,12|0,0:0|0:0,0:0:0:0:
236,28,111135,1,0,0:0:0:0:
320,152,111295,2,0,P|248:168|180:148,1,140.25000428009,8|0,0:0|0:0,0:0:0:0:
212,208,111614,2,0,P|224:252|208:304,1,93.5000028533936
100,196,111933,2,0,P|88:152|104:100,1,93.5000028533936,8|0,0:0|0:0,0:0:0:0:
40,32,112252,2,0,P|124:67|212:42,1,187.000005706787,2|8,0:0|0:0,0:0:0:0:
328,80,112731,2,0,B|316:114|324:150|324:150|356:212|320:278,1,187.000005706787,0|2,0:0|0:0,0:0:0:0:
228,308,113210,2,0,P|297:366|388:354,1,187.000005706787,8|6,0:0|0:0,0:0:0:0:
216,212,113848,6,0,P|125:215|68:286,1,187.000005706787,8|2,0:0|0:0,0:0:0:0:
180,328,114327,1,2,0:0:0:0:
308,252,114486,2,0,P|315:206|301:162,1,93.5000028533936,8|0,0:0|0:0,0:0:0:0:
400,76,114806,2,0,P|371:39|329:20,1,93.5000028533936,2|2,0:0|0:0,0:0:0:0:
132,168,115125,2,0,P|217:199|301:163,1,187.000005706787,8|2,0:0|0:0,0:0:0:0:
252,64,115603,1,0,0:0:0:0:
391,204,115763,2,0,P|402:158|389:114,1,93.5000028533936,8|0,0:0|0:0,0:0:0:0:
308,288,116082,6,0,P|393:319|477:283,1,187.000005706787,2|8,0:0|0:0,0:0:0:0:
484,112,116561,1,0,0:0:0:0:
392,204,116720,2,0,L|298:210,1,93.5000028533936,2|2,0:0|0:0,0:0:0:0:
236,312,117040,2,0,L|96:292,1,140.25000428009,8|0,0:0|0:0,0:0:0:0:
43,312,117359,2,0,P|59:268|53:222,1,93.5000028533936,0|0,0:0|0:0,0:0:0:0:
40,72,117678,2,0,L|180:92,1,140.25000428009,12|0,0:0|0:0,0:0:0:0:
232,71,117997,2,0,P|216:114|222:160,1,93.5000028533936,0|0,0:0|0:0,0:0:0:0:
324,272,118316,1,12,0:0:0:0:
323,272,118635,6,0,P|279:283|233:276,1,93.5000028533936,6|0,0:0|0:0,0:0:0:0:
88,236,118954,1,8,0:0:0:0:
136,336,119114,2,0,P|192:264|176:168,1,187.000005706787,0|2,0:0|0:0,0:0:0:0:
116,60,119593,2,0,L|220:48,1,93.5000028533936,8|0,0:0|0:0,0:0:0:0:
304,140,119912,2,0,L|396:150,1,93.5000028533936,2|2,0:0|0:0,0:0:0:0:
464,84,120231,2,0,B|444:132|464:172|464:172|488:216|470:265,1,187.000005706787,8|2,0:0|0:0,0:0:0:0:
368,348,120710,1,2,0:0:0:0:
276,256,120869,6,0,P|358:216|444:244,1,187.000005706787,12|2,0:0|0:0,0:0:0:0:
368,348,121348,1,2,0:0:0:0:
207,352,121508,2,0,P|139:356|82:318,1,140.25000428009,8|0,0:0|0:0,0:0:0:0:
19,268,121827,2,0,P|32:223|25:177,1,93.5000028533936,2|2,0:0|0:0,0:0:0:0:
136,40,122146,2,0,P|123:84|130:130,1,93.5000028533936,8|0,0:0|0:0,0:0:0:0:
132,244,122465,2,0,P|218:207|300:247,1,187.000005706787,2|8,0:0|0:0,0:0:0:0:
380,324,122944,2,0,P|412:264|392:128,1,187.000005706787,0|2,0:0|0:0,0:0:0:0:
380,28,123423,2,0,L|476:44,1,93.5000028533936,8|0,0:0|0:0,0:0:0:0:
288,104,123742,6,0,L|195:114,1,93.5000028533936,6|2,0:0|0:0,0:0:0:0:
135,246,124061,2,0,L|228:236,1,93.5000028533936,2|2,0:0|0:0,0:0:0:0:
316,316,124380,2,0,P|275:234|299:146,1,187.000005706787,8|0,0:0|0:0,0:0:0:0:
432,136,124859,2,0,P|472:217|448:305,1,187.000005706787,8|0,0:0|0:0,0:0:0:0:
316,316,125337,2,0,L|208:312,1,93.5000028533936,2|2,0:0|0:0,0:0:0:0:
104,348,125657,2,0,B|84:304|108:260|108:260|132:216|110:166,1,187.000005706787,8|0,0:0|0:0,0:0:0:0:
24,112,126135,6,0,P|110:140|192:100,1,187.000005706787,8|0,0:0|0:0,0:0:0:0:
296,32,126614,2,0,P|316:76|314:121,1,93.5000028533936,2|2,0:0|0:0,0:0:0:0:
240,216,126933,2,0,B|287:236|331:212|331:212|375:188|419:208,1,187.000005706787,8|0,0:0|0:0,0:0:0:0:
419,208,127412,1,8,0:0:0:0:
176,304,127731,2,0,P|128:226|158:141,1,187.000005706787,8|0,0:0|0:0,0:0:0:0:
268,104,128210,1,8,0:0:0:0:
240,216,128369,1,2,0:0:0:0:
240,216,128449,1,2,0:0:0:0:
240,216,128529,6,0,P|328:236|420:208,1,187.000005706787,8|6,0:0|0:0,0:0:0:0:
372,76,129008,1,0,0:0:0:0:
236,48,129167,2,0,L|236:156,1,93.5000028533936,8|0,0:0|0:0,0:0:0:0:
136,248,129486,2,0,L|136:140,1,93.5000028533936,2|2,0:0|0:0,0:0:0:0:
36,48,129806,2,0,L|36:156,1,93.5000028533936,8|0,0:0|0:0,0:0:0:0:
36,264,130125,5,8,0:0:0:0:
36,292,130284,1,8,0:0:0:0:
36,320,130444,1,8,0:0:0:0:
36,348,130603,1,8,0:0:0:0:
240,216,130923,5,0,0:0:0:0:
240,216,131002,1,0,0:0:0:0:
240,216,131082,1,4,0:0:0:0:
376,68,131401,6,0,P|334:60|288:68,1,85,2|0,0:0|0:0,0:0:0:0:
168,124,131720,2,0,P|182:84|181:42,1,85,8|0,0:0|0:0,0:0:0:0:
280,192,132040,2,0,B|356:224|356:224|436:188,1,170,2|8,0:0|0:0,0:0:0:0:
512,80,132518,1,0,0:0:0:0:
376,68,132678,6,0,L|280:100,1,85,2|2,0:0|0:0,0:0:0:0:
200,220,132997,2,0,L|296:188,1,85,8|0,0:0|0:0,0:0:0:0:
415,172,133316,2,0,P|380:248|412:328,1,170,2|8,0:0|0:0,0:0:0:0:
488,252,133795,1,0,0:0:0:0:
280,193,133954,6,0,L|200:220,1,85,2|0,0:0|0:0,0:0:0:0:
112,324,134274,2,0,L|31:297,1,85,8|0,0:0|0:0,0:0:0:0:
76,168,134593,1,2,0:0:0:0:
144,52,134752,1,2,0:0:0:0:
220,164,134912,2,0,P|296:180|348:160,1,127.5,8|0,0:0|0:0,0:0:0:0:
356,152,135231,6,0,L|356:248,1,85,2|2,0:0|0:0,0:0:0:0:
248,312,135550,2,0,P|172:296|120:316,1,127.5,8|0,0:0|0:0,0:0:0:0:
112,324,135869,2,0,L|112:228,1,85,2|2,0:0|0:0,0:0:0:0:
68,108,136189,1,8,0:0:0:0:
200,136,136348,1,0,0:0:0:0:
200,136,136428,1,0,0:0:0:0:
199,136,136508,6,0,P|240:124|284:136,1,85,2|0,0:0|0:0,0:0:0:0:
312,244,136827,2,0,P|381:198|395:117,1,170,8|2,0:0|0:0,0:0:0:0:
288,32,137306,1,2,0:0:0:0:
199,136,137465,2,0,P|159:146|117:140,1,85,8|0,0:0|0:0,0:0:0:0:
36,280,137784,6,0,P|32:308|35:336,2,56.6666666666667,2|0|0,0:0|0:0|0:0,0:0:0:0:
236,264,138103,2,0,L|292:264,3,42.5,8|0|0|0,0:0|0:0|0:0|0:0,0:0:0:0:
192,264,138423,2,0,P|183:305|191:348,1,85,2|2,0:0|0:0,0:0:0:0:
416,240,138742,2,0,L|460:240,3,42.5,8|0|0|0,0:0|0:0|0:0|0:0,0:0:0:0:
367,207,139061,6,0,P|340:130|381:58,1,170,2|8,0:0|0:0,0:0:0:0:
448,140,139540,1,0,0:0:0:0:
336,244,139699,2,0,L|248:232,1,85,2|2,0:0|0:0,0:0:0:0:
160,132,140018,2,0,L|75:143,1,85,8|0,0:0|0:0,0:0:0:0:
248,208,140337,6,0,P|271:128|237:52,1,170,2|8,0:0|0:0,0:0:0:0:
48,88,140816,1,0,0:0:0:0:
168,236,140976,2,0,L|348:244,1,170,2|8,0:0|0:0,0:0:0:0:
360,248,141375,1,8,0:0:0:0:
380,249,141454,1,8,0:0:0:0:
400,251,141534,1,8,0:0:0:0:
420,252,141614,6,0,L|416:168,1,85,4|0,0:0|0:0,0:0:0:0:
308,40,141933,2,0,L|312:124,1,85,8|0,0:0|0:0,0:0:0:0:
228,272,142252,2,0,L|224:188,1,85,2|2,0:0|0:0,0:0:0:0:
116,60,142571,2,0,L|120:144,1,85,8|0,0:0|0:0,0:0:0:0:
68,275,142891,6,0,P|146:247|226:271,1,170,2|8,0:0|0:0,0:0:0:0:
324,176,143369,1,0,0:0:0:0:
324,176,143529,2,0,P|404:199|482:171,1,170,2|8,0:0|0:0,0:0:0:0:
400,56,144008,1,0,0:0:0:0:
256,72,144167,6,0,L|175:99,1,85,2|0,0:0|0:0,0:0:0:0:
44,116,144486,2,0,P|72:194|40:271,1,170,8|2,0:0|0:0,0:0:0:0:
152,348,144965,1,2,0:0:0:0:
152,348,145125,6,0,L|320:296,1,170,8|2,0:0|0:0,0:0:0:0:
448,332,145603,1,2,0:0:0:0:
448,332,145763,2,0,B|452:244|452:244|384:180,1,170,8|2,0:0|0:0,0:0:0:0:
256,176,146242,1,2,0:0:0:0:
256,176,146401,1,8,0:0:0:0:
328,68,146561,1,2,0:0:0:0:
328,68,146720,6,0,L|360:4,2,42.5,2|0|0,0:0|0:0|0:0,0:0:0:0:
200,88,147040,2,0,L|192:40,2,42.5,8|0|0,0:0|0:0|0:0,0:0:0:0:
116,184,147359,2,0,L|80:144,2,42.5,2|0|2,0:0|0:0|0:0,0:0:0:0:
120,312,147678,2,0,L|64:312,2,42.5,8|0|0,0:0|0:0|0:0,0:0:0:0:
232,252,147997,6,0,L|288:252,2,42.5,2|0|0,0:0|0:0|0:0,0:0:0:0:
336,328,148316,2,0,L|364:280,2,42.5,8|0|0,0:0|0:0|0:0,0:0:0:0:
460,292,148635,2,0,L|448:240,2,42.5,2|0|2,0:0|0:0|0:0,0:0:0:0:
496,168,148954,2,0,L|484:116,2,42.5,10|0|0,0:0|0:0|0:0,0:0:0:0:
419,64,149274,6,0,P|379:75|336:68,1,85,2|0,0:0|0:0,0:0:0:0:
248,148,149593,2,0,P|168:122|89:150,1,170,8|2,0:0|0:0,0:0:0:0:
208,268,150071,1,2,0:0:0:0:
352,184,150231,6,0,P|336:101|275:45,1,170,8|2,0:0|0:0,0:0:0:0:
208,268,150710,1,2,0:0:0:0:
376,304,150869,2,0,P|439:249|457:168,1,170,8|8,0:0|0:0,0:0:0:0:
456,76,151295,2,0,L|512:112,2,56.6666666666667,2|2|2,0:0|0:0|0:0,0:0:0:0:
256,192,151827,5,4,0:0:0:0:
396,120,161720,5,0,0:0:0:0:
216,228,162040,2,0,P|256:239|297:230,1,85,2|0,0:0|0:0,0:0:0:0:
260,116,162359,2,0,P|219:104|178:113,1,85,2|0,0:0|0:0,0:0:0:0:
108,64,162678,2,0,P|127:145|91:220,1,170,8|0,0:0|0:0,0:0:0:0:
28,308,163157,1,0,0:0:0:0:
28,308,163316,6,0,L|116:336,1,85,2|8,0:0|0:0,0:0:0:0:
200,256,163635,2,0,L|280:230,1,85,2|0,0:0|0:0,0:0:0:0:
396,264,163954,2,0,B|408:220|388:172|388:172|372:132|384:97,1,170,8|0,0:0|0:0,0:0:0:0:
488,36,164433,1,0,0:0:0:0:
379,83,164593,6,0,P|301:56|221:80,1,170,2|0,0:0|0:0,0:0:0:0:
188,196,165071,1,0,0:0:0:0:
300,240,165231,2,0,P|309:198|296:156,1,85,8|0,0:0|0:0,0:0:0:0:
208,292,165550,2,0,P|237:322|277:335,1,85
188,196,165869,6,0,P|150:214|124:252,1,85,2|0,0:0|0:0,0:0:0:0:
32,324,166189,2,0,P|16:284|21:242,1,85,2|8,0:0|0:0,0:0:0:0:
83,140,166508,2,0,P|112:104|152:88,1,85,8|0,0:0|0:0,0:0:0:0:
264,112,166827,1,0,0:0:0:0:
264,112,166986,1,0,0:0:0:0:
264,113,167146,6,0,B|288:156|264:196|264:196|240:240|260:280,1,170,6|0,0:0|0:0,0:0:0:0:
344,356,167625,1,0,0:0:0:0:
416,256,167784,2,0,P|376:241|334:243,1,85,8|0,0:0|0:0,0:0:0:0:
232,308,168103,2,0,P|189:310|150:295,1,85
64,200,168423,6,0,P|55:158|66:117,2,85,2|8|2,0:0|0:0|0:0,0:0:0:0:
40,312,168901,1,0,0:0:0:0:
148,362,169061,2,0,P|159:321|152:280,1,85,8|0,0:0|0:0,0:0:0:0:
168,160,169380,2,0,L|260:168,1,85
263,168,169699,6,0,P|239:247|271:324,1,170,2|0,0:0|0:0,0:0:0:0:
360,244,170178,1,0,0:0:0:0:
376,116,170337,2,0,L|364:24,1,85,8|0,0:0|0:0,0:0:0:0:
252,84,170657,2,0,L|264:176,1,85
359,244,170976,6,0,P|288:286|206:273,1,170,2|0,0:0|0:0,0:0:0:0:
86,203,171454,1,8,0:0:0:0:
141,330,171614,1,8,0:0:0:0:
172,196,171774,1,0,0:0:0:0:
68,286,171933,1,0,0:0:0:0:
205,275,172093,1,0,0:0:0:0:
86,203,172252,1,4,0:0:0:0:
256,192,172332,12,0,174806,0:0:0:0:
256,192,174885,12,0,176720,0:0:0:0:
256,192,177359,5,4,0:0:0:0:
256,192,179593,5,4,0:0:0:0:
256,192,182146,5,8,0:0:0:0:
256,192,182226,1,8,0:0:0:0:
256,192,182306,1,8,0:0:0:0:
256,192,182385,1,8,0:0:0:0:
256,192,182465,6,0,P|204:184|160:196,1,93.5000028533936,6|0,0:0|0:0,0:0:0:0:
16,216,182784,2,0,P|35:173|36:127,1,93.5000028533936,8|0,0:0|0:0,0:0:0:0:
164,44,183103,2,0,L|264:60,1,93.5000028533936,2|2,0:0|0:0,0:0:0:0:
348,208,183423,2,0,L|248:192,1,93.5000028533936,8|0,0:0|0:0,0:0:0:0:
108,172,183742,2,0,P|117:217|103:261,1,93.5000028533936,2|0,0:0|0:0,0:0:0:0:
20,359,184061,2,0,P|109:335|198:358,1,187.000005706787,8|2,0:0|0:0,0:0:0:0:
348,208,184540,1,2,0:0:0:0:
348,208,184699,6,0,P|258:231|169:209,1,187.000005706787,8|2,0:0|0:0,0:0:0:0:
116,68,185178,1,0,0:0:0:0:
260,24,185337,2,0,P|270:69|260:114,1,93.5000028533936,8|0,0:0|0:0,0:0:0:0:
171,209,185657,2,0,P|161:254|172:300,1,93.5000028533936,2|2,0:0|0:0,0:0:0:0:
248,172,185976,2,0,P|195:129|127:139,1,140.25000428009,8|0,0:0|0:0,0:0:0:0:
120,160,186295,2,0,L|116:56,1,93.5000028533936
96,252,186614,2,0,P|148:294|216:284,1,140.25000428009,12|0,0:0|0:0,0:0:0:0:
224,264,186933,2,0,L|228:368,1,93.5000028533936
328,244,187252,2,0,L|324:140,1,93.5000028533936,12|0,0:0|0:0,0:0:0:0:
324,136,187571,6,0,P|279:147|232:141,1,93.5000028533936,6|0,0:0|0:0,0:0:0:0:
124,48,187891,1,8,0:0:0:0:
124,48,188050,2,0,P|144:144|80:212,1,187.000005706787,0|2,0:0|0:0,0:0:0:0:
40,116,188529,1,8,0:0:0:0:
40,116,188689,2,0,L|224:168,1,187.000005706787,0|2,0:0|0:0,0:0:0:0:
344,104,189167,2,0,P|365:144|366:191,1,93.5000028533936,8|0,0:0|0:0,0:0:0:0:
264,284,189486,2,0,P|232:317|219:362,1,93.5000028533936,2|2,0:0|0:0,0:0:0:0:
360,320,189806,6,0,P|352:230|276:183,1,187.000005706787,12|0,0:0|0:0,0:0:0:0:
172,228,190284,1,0,0:0:0:0:
264,283,190444,2,0,P|284:216|256:151,1,140.25000428009,8|0,0:0|0:0,0:0:0:0:
240,124,190763,2,0,L|333:116,1,93.5000028533936
488,196,191082,2,0,L|394:188,1,93.5000028533936,8|0,0:0|0:0,0:0:0:0:
360,276,191401,2,0,P|392:190|359:105,1,187.000005706787,2|8,0:0|0:0,0:0:0:0:
440,40,191880,2,0,P|354:73|269:40,1,187.000005706787,0|2,0:0|0:0,0:0:0:0:
140,40,192359,2,0,L|146:133,1,93.5000028533936,8|0,0:0|0:0,0:0:0:0:
120,292,192678,5,6,0:0:0:0:
248,192,192837,1,2,0:0:0:0:
92,184,192997,1,2,0:0:0:0:
232,300,193157,1,2,0:0:0:0:
168,140,193316,2,0,P|90:96|14:143,1,187.000005706787,8|2,0:0|0:0,0:0:0:0:
120,292,193795,6,0,L|316:304,1,187.000005706787,8|2,0:0|0:0,0:0:0:0:
440,216,194274,1,2,0:0:0:0:
324,305,194434,1,2,0:0:0:0:
464,352,194593,1,8,0:0:0:0:
440,216,194752,1,2,0:0:0:0:
440,216,194832,1,2,0:0:0:0:
440,216,194912,2,0,P|428:171|437:125,1,93.5000028533936,8|0,0:0|0:0,0:0:0:0:
444,108,195231,6,0,P|353:127|267:94,1,187.000005706787,6|8,0:0|0:0,0:0:0:0:
140,28,195710,1,0,0:0:0:0:
188,148,195869,2,0,P|229:127|250:86,1,93.5000028533936,2|2,0:0|0:0,0:0:0:0:
79,128,196189,2,0,P|94:216|175:256,1,187.000005706787,8|12,0:0|0:0,0:0:0:0:
296,64,196827,5,12,0:0:0:0:
184,256,197146,5,12,0:0:0:0:
200,256,197226,1,8,0:0:0:0:
216,256,197306,1,8,0:0:0:0:
228,256,197385,1,8,0:0:0:0:
240,256,197465,1,4,0:0:0:0:
460,144,197784,6,0,P|464:100|460:50,1,93.5000028533936,6|0,0:0|0:0,0:0:0:0:
256,160,198103,2,0,P|305:172|352:156,1,93.5000028533936,8|0,0:0|0:0,0:0:0:0:
192,44,198423,2,0,P|142:31|96:44,1,93.5000028533936,2|2,0:0|0:0,0:0:0:0:
40,156,198742,1,8,0:0:0:0:
116,260,198901,1,0,0:0:0:0:
232,196,199061,2,0,P|202:154|158:134,1,93.5000028533936,2|2,0:0|0:0,0:0:0:0:
43,184,199380,1,8,0:0:0:0:
34,312,199539,1,0,0:0:0:0:
163,335,199699,2,0,P|209:346|253:333,1,93.5000028533936,2|2,0:0|0:0,0:0:0:0:
391,356,200018,6,0,P|336:282|338:191,1,187.000005706787,12|0,0:0|0:0,0:0:0:0:
408,68,200497,1,0,0:0:0:0:
408,68,200657,2,0,L|269:89,1,140.25000428009,0|2,0:0|0:0,0:0:0:0:
272,164,200976,2,0,L|176:184,1,93.5000028533936
216,320,201295,2,0,L|312:300,1,93.5000028533936,8|0,0:0|0:0,0:0:0:0:
391,356,201614,2,0,P|336:282|338:191,1,187.000005706787,2|8,0:0|0:0,0:0:0:0:
408,68,202093,2,0,B|360:48|320:72|320:72|277:92|228:72,1,187.000005706787,0|2,0:0|0:0,0:0:0:0:
244,192,202571,2,0,B|293:212|336:192|336:192|376:168|424:188,1,187.000005706787,8|6,0:0|0:0,0:0:0:0:
164,292,203210,6,0,P|120:211|145:123,1,187.000005706787,8|2,0:0|0:0,0:0:0:0:
280,88,203689,1,2,0:0:0:0:
308,223,203848,2,0,P|263:236|218:225,1,93.5000028533936,8|0,0:0|0:0,0:0:0:0:
360,144,204167,2,0,P|404:131|449:142,1,93.5000028533936,2|0,0:0|0:0,0:0:0:0:
452,320,204486,2,0,P|365:351|276:328,1,187.000005706787,8|2,0:0|0:0,0:0:0:0:
307,223,204965,1,2,0:0:0:0:
307,223,205125,6,0,P|218:200|132:232,1,187.000005706787,8|2,0:0|0:0,0:0:0:0:
80,360,205603,1,0,0:0:0:0:
220,372,205763,2,0,P|225:325|211:281,1,93.5000028533936,8|0,0:0|0:0,0:0:0:0:
84,220,206082,2,0,P|70:175|75:129,1,93.5000028533936,2|2,0:0|0:0,0:0:0:0:
24,48,206401,2,0,P|88:72|156:52,1,140.25000428009,8|0,0:0|0:0,0:0:0:0:
180,40,206720,2,0,L|180:136,1,93.5000028533936
180,304,207040,2,0,P|116:280|48:300,1,140.25000428009,12|0,0:0|0:0,0:0:0:0:
24,312,207359,2,0,L|24:216,1,93.5000028533936
180,192,207678,2,0,L|180:96,1,93.5000028533936,12|0,0:0|0:0,0:0:0:0:
179,39,207997,6,0,P|224:51|270:42,1,93.5000028533936,6|0,0:0|0:0,0:0:0:0:
428,120,208316,2,0,P|383:108|337:117,1,93.5000028533936,8|0,0:0|0:0,0:0:0:0:
180,192,208635,2,0,P|224:203|270:194,1,93.5000028533936,2|2,0:0|0:0,0:0:0:0:
432,268,208954,2,0,P|387:256|341:265,1,93.5000028533936,8|0,0:0|0:0,0:0:0:0:
200,320,209274,1,2,0:0:0:0:
200,320,209433,1,2,0:0:0:0:
200,320,209593,2,0,P|244:236|200:148,1,187.000005706787,8|2,0:0|0:0,0:0:0:0:
136,240,210071,1,2,0:0:0:0:
136,240,210231,6,0,L|324:240,1,187.000005706787,12|0,0:0|0:0,0:0:0:0:
432,268,210710,1,0,0:0:0:0:
431,267,210869,2,0,P|408:202|422:135,1,140.25000428009,8|0,0:0|0:0,0:0:0:0:
428,120,211189,2,0,L|334:120,1,93.5000028533936,0|0,0:0|0:0,0:0:0:0:
208,44,211508,2,0,P|166:65|140:103,1,93.5000028533936,8|0,0:0|0:0,0:0:0:0:
264,215,211827,6,0,P|256:168|227:133,1,93.5000028533936,2|0,0:0|0:0,0:0:0:0:
68,180,212146,2,0,P|109:204|156:204,1,93.5000028533936,8|0,0:0|0:0,0:0:0:0:
144,72,212465,1,2,0:0:0:0:
144,72,212625,1,2,0:0:0:0:
12,64,212784,1,8,0:0:0:0:
12,64,212944,1,0,0:0:0:0:
68,180,213103,6,0,P|78:226|69:273,1,93.5000028533936,6|0,0:0|0:0,0:0:0:0:
172,360,213423,2,0,P|162:314|171:267,1,93.5000028533936,2|2,0:0|0:0,0:0:0:0:
180,139,213742,2,0,P|259:183|344:144,1,187.000005706787,8|0,0:0|0:0,0:0:0:0:
264,76,214220,2,0,L|264:272,1,187.000005706787,8|0,0:0|0:0,0:0:0:0:
172,360,214699,1,2,0:0:0:0:
172,360,214859,1,2,0:0:0:0:
88,279,215018,2,0,P|170:241|253:277,1,187.000005706787,8|0,0:0|0:0,0:0:0:0:
364,351,215497,6,0,P|392:264|346:181,1,187.000005706787,8|0,0:0|0:0,0:0:0:0:
264,76,215976,2,0,L|364:52,1,93.5000028533936,2|2,0:0|0:0,0:0:0:0:
348,184,216295,2,0,L|164:232,1,187.000005706787,8|0,0:0|0:0,0:0:0:0:
40,264,216774,1,8,0:0:0:0:
40,264,217093,6,0,P|28:219|40:172,1,93.5000028533936,8|0,0:0|0:0,0:0:0:0:
168,72,217412,1,0,0:0:0:0:
135,192,217571,2,0,P|171:162|216:154,1,93.5000028533936,8|2,0:0|0:0,0:0:0:0:
216,154,217811,1,2,0:0:0:0:
216,154,217891,1,8,0:0:0:0:
348,184,218050,1,0,0:0:0:0:
260,268,218210,6,0,P|251:313|264:358,1,93.5000028533936,6|0,0:0|0:0,0:0:0:0:
348,184,218529,2,0,P|356:138|343:93,1,93.5000028533936,8|0,0:0|0:0,0:0:0:0:
232,24,218848,1,2,0:0:0:0:
216,156,219008,1,2,0:0:0:0:
347,183,219167,2,0,P|393:192|439:184,1,93.5000028533936,8|0,0:0|0:0,0:0:0:0:
384,56,219486,5,8,0:0:0:0:
244,80,219646,1,8,0:0:0:0:
200,216,219806,1,8,0:0:0:0:
296,320,219965,1,8,0:0:0:0:
348,184,220284,5,2,0:0:0:0:
348,184,220364,1,2,0:0:0:0:
348,184,220444,1,4,0:0:0:0:
348,184,220763,6,0,P|307:171|266:177,1,85,6|0,0:0|0:0,0:0:0:0:
148,244,221082,1,8,0:0:0:0:
268,308,221242,1,0,0:0:0:0:
256,172,221401,2,0,L|216:84,1,85,2|2,0:0|0:0,0:0:0:0:
112,168,221720,2,0,L|152:256,1,85,8|0,0:0|0:0,0:0:0:0:
267,308,222040,6,0,P|309:300|351:306,1,85,2|2,0:0|0:0,0:0:0:0:
476,360,222359,2,0,P|456:300|468:238,1,127.5,8|0,0:0|0:0,0:0:0:0:
480,212,222678,2,0,L|375:213,1,85,2|2,0:0|0:0,0:0:0:0:
256,172,222997,2,0,L|151:173,1,85,8|0,0:0|0:0,0:0:0:0:
35,176,223316,6,0,P|47:135|40:93,1,85,2|0,0:0|0:0,0:0:0:0:
104,256,223635,2,0,P|92:296|99:338,1,85,8|0,0:0|0:0,0:0:0:0:
228,308,223954,1,2,0:0:0:0:
228,308,224114,1,2,0:0:0:0:
196,176,224274,2,0,P|164:156|115:154,1,85,8|0,0:0|0:0,0:0:0:0:
228,308,224593,6,0,P|272:308|308:286,1,85,2|2,0:0|0:0,0:0:0:0:
376,196,224912,2,0,P|396:232|402:274,1,85,8|0,0:0|0:0,0:0:0:0:
472,364,225231,2,0,P|495:329|502:287,1,85,2|2,0:0|0:0,0:0:0:0:
504,144,225550,1,8,0:0:0:0:
499,102,225629,1,8,0:0:0:0:
476,66,225709,1,8,0:0:0:0:
440,44,225789,1,8,0:0:0:0:
400,32,225869,6,0,P|355:27|316:39,1,85,6|0,0:0|0:0,0:0:0:0:
212,128,226189,1,8,0:0:0:0:
336,184,226348,1,0,0:0:0:0:
220,256,226508,2,0,P|177:253|141:232,1,85,2|2,0:0|0:0,0:0:0:0:
76,112,226827,1,8,0:0:0:0:
212,128,226986,1,0,0:0:0:0:
236,264,227146,6,0,L|224:364,1,85,2|2,0:0|0:0,0:0:0:0:
328,268,227465,2,0,L|340:136,1,127.5,8|0,0:0|0:0,0:0:0:0:
344,119,227784,2,0,P|303:131|260:124,1,85,2|2,0:0|0:0,0:0:0:0:
76,112,228103,2,0,P|116:100|160:107,1,85,8|0,0:0|0:0,0:0:0:0:
228,212,228423,5,2,0:0:0:0:
228,212,228582,1,0,0:0:0:0:
120,276,228742,2,0,P|107:235|113:193,1,85,8|0,0:0|0:0,0:0:0:0:
180,76,229061,1,2,0:0:0:0:
180,76,229220,1,2,0:0:0:0:
260,188,229380,2,0,P|300:199|342:193,1,85,8|0,0:0|0:0,0:0:0:0:
400,120,229699,6,0,P|368:197|388:280,1,170,2|8,0:0|0:0,0:0:0:0:
500,208,230178,1,0,0:0:0:0:
500,208,230258,1,0,0:0:0:0:
500,208,230337,1,8,0:0:0:0:
480,32,230497,1,8,0:0:0:0:
372,116,230657,2,0,P|329:119|289:107,1,85,2|0,0:0|0:0,0:0:0:0:
172,40,230976,5,4,0:0:0:0:
256,192,231056,12,0,234806,0:0:0:0:
