osu file format v9

[General]
AudioFilename: song.mp3
AudioLeadIn: 2000
PreviewTime: 55694
Countdown: 0
SampleSet: Soft
StackLeniency: 0.7
Mode: 0
LetterboxInBreaks: 0

[Editor]
DistanceSpacing: 1.2
BeatDivisor: 4
GridSize: 4

[Metadata]
Title:Knowing (Short Ver.)
Artist:Marika
Creator:merchat7
Version:Normal
Source:Ore no Kanojo no Uraomote
Tags:Aries Nonoura Meis Clauson Angel Note hentai eroge game visual novel opening galgame KayeSara DarknessAngel KuronumaSawako

[Difficulty]
HPDrainRate:4
CircleSize:3
OverallDifficulty:3
ApproachRate:5
SliderMultiplier:1.4
SliderTickRate:2

[Events]
//Background and Video events
0,0,"background.jpg"
Video,0,"video.avi"
//Break Periods
//Storyboard Layer 0 (Background)
//Storyboard Layer 1 (Fail)
//Storyboard Layer 2 (Pass)
//Storyboard Layer 3 (Foreground)
//Storyboard Sound Samples
//Background Colour Transformations
3,100,163,162,255

[TimingPoints]
-770,428.571428571429,4,2,0,70,1,0
9944,-100,4,2,0,50,0,0
10158,-100,4,2,0,65,0,0
10372,-100,4,2,0,70,0,0
10587,-100,4,2,0,60,0,0
10658,-100,4,2,0,65,0,0
10730,-100,4,2,0,40,0,0
10944,-100,4,2,0,60,0,0
11230,-100,4,2,0,70,0,0
12944,-100,4,2,0,40,0,0
15301,-100,4,2,0,60,0,0
21515,-100,4,2,0,40,0,0
21569,-100,4,2,0,60,0,0
26230,-100,4,2,0,40,0,0
27944,-100,4,2,1,80,0,0
28372,-100,4,2,0,50,0,0
28426,-100,4,2,1,80,0,0
39944,-100,4,2,1,45,0,0
41658,-100,4,2,1,80,0,0
42087,-100,4,2,0,50,0,0
42140,-100,4,2,2,70,0,0
43372,-100,4,2,1,70,0,0
44230,-100,4,2,2,70,0,0
44444,-100,4,2,1,70,0,0
47658,-100,4,2,2,70,0,0
47872,-100,4,2,1,70,0,0
48944,-100,4,2,0,60,0,0
48997,-100,4,2,1,80,0,0
55801,-100,4,2,0,70,0,1
55855,-100,4,2,1,90,0,1
59230,-100,4,2,0,70,0,1
59283,-100,4,2,1,90,0,1
62658,-100,4,2,0,60,0,1
62712,-100,4,2,1,90,0,1
65872,-100,4,2,0,70,0,1
68230,-100,4,2,1,80,0,0
69515,-100,4,2,0,70,0,1
69569,-100,4,2,1,90,0,1
72944,-100,4,2,0,70,0,1
72997,-100,4,2,1,90,0,1
74658,-100,4,2,0,60,0,1
74712,-100,4,2,1,90,0,1
76372,-100,4,2,0,60,0,1
76426,-100,4,2,1,100,0,1
79587,-100,4,2,0,60,0,1
81944,-100,4,2,1,90,0,1
83230,-100,4,2,0,40,0,0
83283,-100,4,2,0,70,0,0
89926,-100,4,2,0,10,0,0
93462,-100,4,2,0,5,0,0

[Colours]
Combo1 : 110,100,145
Combo2 : 235,65,70
Combo3 : 255,255,100
Combo4 : 200,115,130

[HitObjects]
72,192,944,2,0,B|144:212|220:192,1,140,2|0
292,212,1587,2,0,B|328:144,1,70,2|0
260,96,2015,2,0,B|244:24,1,70,2|0
80,56,2658,6,0,B|0:84|8:168,1,140,2|0
0,244,3301,2,0,B|56:284,1,70,2|0
108,216,3730,2,0,B|184:204,1,70,2|0
344,176,4372,6,0,B|420:164,2,70,2|0|0
328,260,5015,2,0,B|396:288|460:244,1,140,2|2
208,216,6087,6,0,B|196:292,2,70,2|0|0
148,156,6730,2,0,B|120:88|164:24,1,140,2|2
416,40,7801,6,0,B|444:108|399:172,1,140,2|0
320,204,8444,2,0,B|352:272|440:256,1,140,2|2
212,364,9515,6,0,B|88:404|20:324,1,210,2|2
16,240,10372,2,0,B|16:144,2,93.3333333333333,2|2|2
128,232,11230,6,0,B|156:164|111:100,1,140,2|0
32,72,11873,2,0,B|64:4|152:20,1,140,2|2
256,192,12944,12,4,14658
324,64,15301,6,0,B|260:40|184:64,1,140,2|0
144,136,15944,1,0
180,212,16158,2,0,B|244:236|320:212,1,140,2|0
384,160,16801,1,0
452,208,17015,2,0,B|468:292|392:324,1,140,2|0
180,184,18087,6,0,B|120:332,1,140,2|0
72,248,18730,2,0,B|132:100,1,140,2|0
376,148,19801,6,0,B|436:296,1,140,2|0
484,212,20444,2,0,B|424:64,1,140,2|0
360,40,21087,6,0,B|284:40,1,70
208,40,21515,2,0,B|132:36|100:112,1,140,4|0
180,144,22158,2,0,B|168:224|80:224,1,140,2|0
0,212,22801,1,0
0,296,23015,2,0,B|56:336,1,70,0|2
224,348,23658,2,0,B|168:308,1,70,0|2
388,188,24515,6,0,B|428:132,1,70,0|0
344,116,24944,2,0,B|276:144|206:132,1,140,2|0
188,48,25587,2,0,B|256:20|325:31,1,140,2|0
256,192,26230,12,8,27944
96,172,28372,6,0,B|96:28,2,140,4|8|0
180,316,29658,2,0,B|320:316,1,140,8|2
408,172,30515,2,0,B|268:172,1,140,8|2
96,172,31372,1,8
220,56,31801,6,0,B|288:32|360:56,2,140,2|8|0
96,172,33087,1,8
228,276,33515,2,0,B|296:300|368:276,2,140,2|8|2
96,172,34801,1,8
96,172,35230,6,0,B|144:120|216:100,1,140,2|8
296,96,35872,2,0,B|292:60|264:32,2,70,0|0|2
264,172,36515,2,0,B|344:192|376:116,1,140,8|2
388,284,37372,2,0,B|408:212,1,70,8|0
488,236,37801,2,0,B|508:164,1,70,2|2
456,100,38230,1,8
324,204,38658,6,0,B|256:240|188:204,1,140,2|8
148,132,39301,2,0,B|80:96|12:132,1,140,0|2
256,192,39944,12,8,41658
396,188,42087,6,0,B|360:260|392:332,2,140,4|2|2
496,52,43372,2,0,B|464:28|424:32,1,70,8|0
348,56,43801,2,0,B|200:56,1,140,2|2
188,140,44444,2,0,B|336:140,1,140,2|0
396,188,45087,1,8
308,332,45515,6,0,B|252:288|208:328|164:364|108:324,1,210,2|2
28,88,46801,2,0,B|32:148|120:124|124:176,1,140,8|2
16,304,47658,2,0,B|72:248,1,70,2|2
224,200,48301,2,0,B|168:256,1,70,2|8
324,324,48944,6,0,B|464:324,2,140,4|8|2
160,360,50230,1,8
96,204,50658,2,0,B|81:128|15:88,1,140,2|8
180,36,51515,2,0,B|194:111|254:148,1,140,2|8
416,192,52372,6,0,B|484:192,2,70,2|0|8
300,68,53230,2,0,B|232:40|160:68,2,140,2|8|2
416,192,54515,1,8
276,284,54944,2,0,B|276:360,2,70,8|2|8
120,220,55801,6,0,B|88:212|48:220,2,70,4|0|8
148,140,56444,2,0,B|228:140|276:88,1,140,0|2
348,44,57087,2,0,B|384:40|420:64,1,70,8|0
472,124,57515,2,0,B|512:188|480:260,1,140,2|8
428,324,58158,1,0
260,300,58587,2,0,B|300:288|336:300,1,70,2|8
160,300,59230,6,0,B|184:332|172:368,2,70,4|0|8
84,263,59872,2,0,B|121:209|180:221|180:221|161:171|212:132,1,210,0|8
368,80,60944,2,0,B|316:24|236:28,1,140,2|8
160,32,61587,1,0
16,116,62015,2,0,B|52:128|92:108,1,70,0|8
80,280,62658,6,0,B|148:318|216:298,1,140,4|8
276,356,63301,2,0,B|344:339|387:268,1,140,0|2
424,196,63944,2,0,B|356:158|288:178,1,140,8|2
152,80,64801,2,0,B|52:184|112:344,1,280,8|8
256,192,65872,12,4,67801
324,192,68230,6,0,B|364:160|420:208|460:176,2,140,8|8|8
172,264,69515,6,0,B|172:344|252:368,2,140,4|8|2
256,120,70801,2,0,B|192:76|120:88,1,140,8|2
40,232,71658,2,0,B|104:276|176:264,1,140,8|2
256,280,72301,2,0,B|320:244,1,70,2|8
444,132,72944,6,0,B|444:52|364:28,2,140,4|8|2
432,300,74230,1,8
284,220,74658,2,0,B|271:172|229:182|229:182|224:160|224:160|216:117,1,140,4|8
376,60,75515,2,0,B|444:60,2,70,2|2|8
208,60,76372,6,0,B|204:159|204:159|92:176|92:280,1,280,4|2
256,308,77658,2,0,B|256:384,2,70,8|0|2
419,277,78515,2,0,B|420:176|308:159|308:159|304:60,1,280,8|8
256,192,79587,12,4,81515
188,192,81944,6,0,B|148:160|92:208|52:176,2,140,8|8|8
296,320,83230,6,0,B|379:299|392:220,1,140,4|0
444,164,83872,2,0,B|379:142,1,70,2|0
316,200,84301,2,0,B|251:178,1,70,2|0
364,52,84944,6,0,B|292:32|220:56,1,140,2|0
144,64,85587,2,0,B|68:80,1,70,2|0
68,164,86015,2,0,B|136:176,1,70,2|0
236,312,86658,6,0,B|352:336|432:248,2,210,2|2|0
68,296,88372,2,0,B|22:192|69:92,1,210,2|2
232,52,89444,2,0,B|348:28|428:116,1,210,2|0
256,192,90944,12,0,93462
