osu file format v9

[General]
AudioFilename: song.mp3
AudioLeadIn: 2000
PreviewTime: 55694
Countdown: 0
SampleSet: Soft
StackLeniency: 0.7
Mode: 0
LetterboxInBreaks: 0

[Editor]
DistanceSpacing: 1.6
BeatDivisor: 4
GridSize: 4

[Metadata]
Title:Knowing (Short Ver.)
Artist:Marika
Creator:merchat7
Version:Insane
Source:Ore no Kanojo no Uraomote
Tags:Aries Nonoura Meis Clauson Angel Note hentai eroge game visual novel opening galgame KayeSara DarknessAngel KuronumaSawako

[Difficulty]
HPDrainRate:7
CircleSize:4
OverallDifficulty:8
ApproachRate:8
SliderMultiplier:1.9
SliderTickRate:2

[Events]
//Background and Video events
0,0,"background.jpg"
Video,0,"video.avi"
//Break Periods
//Storyboard Layer 0 (Background)
//Storyboard Layer 1 (Fail)
//Storyboard Layer 2 (Pass)
//Storyboard Layer 3 (Foreground)
//Storyboard Sound Samples
//Background Colour Transformations
3,100,163,162,255

[TimingPoints]
-770,428.571428571429,4,2,0,70,1,0
10372,-100,4,2,0,78,0,0
10658,-100,4,2,0,76,0,0
10944,-100,4,2,0,74,0,0
11158,-100,4,2,0,40,0,0
11230,-100,4,2,0,72,0,0
11444,-100,4,2,0,70,0,0
14658,-133.333333333333,4,2,0,40,0,0
14712,-133.333333333333,4,2,0,60,0,0
21515,-133.333333333333,4,2,0,40,0,0
21569,-133.333333333333,4,2,0,60,0,0
27944,-133.333333333333,4,2,1,80,0,0
28372,-100,4,2,0,50,0,0
28426,-100,4,2,1,80,0,0
42087,-133.333333333333,4,2,0,50,0,0
42301,-133.333333333333,4,2,1,70,0,0
42944,-133.333333333333,4,2,2,70,0,0
43372,-133.333333333333,4,2,1,70,0,0
44230,-133.333333333333,4,2,2,70,0,0
44444,-133.333333333333,4,2,1,70,0,0
44658,-133.333333333333,4,2,2,70,0,0
45087,-133.333333333333,4,2,1,70,0,0
45944,-133.333333333333,4,2,2,70,0,0
46158,-133.333333333333,4,2,1,70,0,0
47658,-133.333333333333,4,2,2,70,0,0
47872,-133.333333333333,4,2,1,70,0,0
48087,-133.333333333333,4,2,2,70,0,0
48301,-133.333333333333,4,2,1,70,0,0
48944,-100,4,2,0,60,0,0
48997,-100,4,2,1,90,0,0
55801,-100,4,2,0,70,0,1
55855,-100,4,2,1,90,0,1
59230,-100,4,2,0,70,0,1
59283,-100,4,2,1,90,0,1
62658,-100,4,2,0,60,0,1
62712,-100,4,2,1,90,0,1
66087,-100,4,2,0,60,0,1
66140,-100,4,2,1,90,0,1
67801,-100,4,2,0,60,0,1
67855,-100,4,2,1,90,0,1
68230,-133.333333333333,4,2,1,80,0,0
69515,-100,4,2,0,70,0,1
69569,-100,4,2,1,90,0,1
72944,-100,4,2,0,70,0,1
72997,-100,4,2,1,90,0,1
74444,-100,4,2,0,70,0,1
74497,-100,4,2,1,90,0,1
76372,-100,4,2,0,60,0,1
76426,-100,4,2,1,90,0,1
81515,-100,4,2,0,60,0,1
81569,-100,4,2,1,90,0,1
83230,-100,4,2,0,40,0,0
83283,-100,4,2,0,70,0,0
89926,-100,4,2,0,10,0,0
93462,-100,4,2,0,5,0,0

[Colours]
Combo1 : 110,100,145
Combo2 : 235,65,70
Combo3 : 255,255,100
Combo4 : 200,115,130

[HitObjects]
64,192,944,2,0,B|160:192,1,95,2|2
272,192,1372,1,0
420,228,1587,2,0,B|472:240|488:288,1,95,2|0
420,152,2015,2,0,B|472:139|488:91,1,95,2|0
384,20,2444,1,2
312,120,2658,6,0,B|256:128|224:92,1,95,2|2
136,24,3087,1,0
120,172,3301,2,0,B|20:152,1,95,2|0
80,296,3730,2,0,B|180:316,1,95,2|0
320,168,4158,6,0,B|312:116,2,47.5,2|0|2
392,280,4587,2,0,B|425:242|412:184,1,95,2|0
264,268,5015,2,0,B|230:306|244:364,1,95,2|0
156,208,5444,2,0,B|189:170|176:112,1,95,2|0
84,40,5872,1,2
208,36,6087,6,0,B|220:84|280:96,1,95,2|2
380,52,6515,1,0
372,168,6730,2,0,B|348:220|288:224,1,95,2|0
372,356,7158,2,0,B|316:370|274:326,1,95,2|0
176,272,7587,1,2
56,104,7801,6,0,B|96:76|156:84,1,95,2|2
260,104,8230,1,0
164,220,8444,2,0,B|104:292,1,95,2|0
256,288,8872,2,0,B|316:216,1,95,2|0
260,104,9301,1,2
112,144,9515,6,0,B|112:48,1,95,2|2
260,104,9944,2,0,B|264:204,1,95,0|2
452,108,10372,5,2
512,248,10658,1,2
380,324,10944,2,0,B|236:328,1,126.666666666667,2|2
140,316,11444,6,0,B|84:316|56:268,1,95,2|0
204,228,11872,2,0,B|252:248|304:228,1,95,2|0
176,140,12301,2,0,B|128:120|76:140,1,95,2|0
12,228,12730,1,2
84,316,12944,6,0,B|132:336|184:316,1,95,2|2
288,288,13372,1,0
420,364,13587,2,0,B|474:380|508:348,1,95,2|0
412,232,14015,2,0,B|467:219|480:174,1,95,2|0
412,60,14444,1,0
272,116,14658,6,0,B|148:192,1,142.499995753169,4|0
204,272,15301,2,0,B|328:196,1,142.499995753169,2|0
368,108,15944,1,0
208,64,16158,2,0,B|128:72|80:136,1,142.499995753169,2|0
128,288,16801,1,0
288,328,17015,2,0,B|368:320|416:256,1,142.499995753169,2|0
440,168,17658,5,0
344,192,17872,1,0
280,68,18087,2,0,B|316:52|360:56,1,71.2499978765846,2|0
448,80,18515,1,0
512,232,18730,2,0,B|496:312|408:328,1,142.499995753169,2|0
320,348,19372,5,0
220,352,19587,1,0
72,272,19801,2,0,B|116:332,1,71.2499978765846,2|0
92,168,20230,2,0,B|48:108,2,71.2499978765846,2|2|0
168,232,20872,5,0
264,260,21087,2,0,B|280:224|260:184,1,71.2499978765846
144,80,21515,2,0,B|176:112|208:108,1,71.2499978765846,4|0
308,112,21944,1,0
448,208,22158,2,0,B|380:240|304:212,1,142.499995753169,2|0
228,152,22801,1,0
152,368,23015,2,0,B|128:292|168:232,1,142.499995753169,2|0
228,152,23658,1,0
272,288,23872,2,0,B|344:288,2,71.2499978765846,2|0|0
168,232,24515,5,0
152,88,24730,1,0
228,152,24944,2,0,B|376:152,1,142.499995753169,2|0
464,288,25587,2,0,B|312:292,1,142.499995753169,2|0
252,364,26230,1,0
172,304,26444,2,0,B|96:276|76:196,1,142.499995753169,0|0
92,60,27087,2,0,B|64:92|68:132,1,71.2499978765846,0|2
224,148,27515,2,0,B|181:147|158:170,1,71.2499978765846,0|2
336,144,27944,5,8
272,344,28372,6,0,B|176:344,1,95,4|0
60,300,28801,1,8
192,200,29015,2,0,B|288:200,1,95
388,272,29444,1,2
492,204,29658,5,8
364,64,29872,2,0,B|396:104|383:153,1,95,0|2
383,153,30301,1,0
180,188,30515,2,0,B|130:200|90:168,1,95,8|0
196,32,30944,2,0,B|245:19|285:51,1,95,2|2
292,220,31372,5,8
364,64,31587,1,0
332,300,31801,2,0,B|232:288,1,95,2|0
440,312,32230,1,8
452,160,32444,6,0,B|352:148,1,95
256,236,32872,2,0,B|156:224,1,95,2|8
60,100,33301,2,0,B|160:112,1,95,0|2
272,48,33730,2,0,B|372:60,1,95,0|8
420,184,34158,2,0,B|320:172,1,95,0|2
160,208,34587,5,2
160,208,34801,2,0,B|260:220,1,95,8|0
408,348,35230,2,0,B|360:368|308:344,1,95,2|0
220,284,35658,1,8
428,216,35873,2,0,B|380:200|332:212,1,95,0|0
220,284,36301,1,2
332,336,36515,5,8
416,256,36730,2,0,B|440:352,1,95,0|2
308,268,37158,2,0,B|284:172,1,95,0|8
172,276,37587,2,0,B|196:372,1,95,0|2
68,280,38015,2,0,B|44:184,1,95,2|8
108,48,38444,6,0,B|100:104|132:140,1,95,0|2
232,188,38872,1,0
304,32,39087,2,0,B|333:65|325:121,2,95,8|0|0
216,108,39730,1,2
196,268,39944,2,0,B|147:287|99:259,1,95,8|0
28,156,40372,5,2
116,80,40587,1,0
228,56,40801,1,8
228,56,41015,1,0
152,192,41230,1,8
308,192,41444,1,8
228,56,41658,1,8
344,76,41872,1,0
436,24,42087,5,4
384,144,42301,2,0,B|400:208|480:156|496:220,1,142.499995753169,0|2
484,316,42944,1,2
316,352,43372,1,8
216,360,43587,2,0,B|164:308,1,71.2499978765846,0|2
92,124,44230,2,0,B|144:176,1,71.2499978765846,2|0
216,128,44658,1,2
280,316,45087,5,8
380,236,45301,2,0,B|416:252|452:236,2,71.2499978765846,0|2|0
380,236,45944,1,2
216,184,46158,2,0,B|268:140|356:140,1,142.499995753169,2|0
433,154,46801,1,8
432,284,47015,2,0,B|496:320,1,71.2499978765846,0|2
500,216,47444,1,0
372,228,47658,6,0,B|308:264,2,71.2499978765846,2|2|2
372,228,48301,1,2
232,308,48515,1,8
104,280,48944,6,0,B|120:336|80:380,2,95,4|0|8
12,212,49587,2,0,B|80:156|192:176,1,190,0|2
192,176,50230,1,8
328,68,50444,2,0,B|352:116|332:160,1,95,0|2
296,268,50872,1,0
104,280,51087,2,0,B|64:176|104:92,1,190,8|2
216,84,51730,1,2
104,280,51944,2,0,B|52:272|30:226,1,95,8|0
113,96,52372,6,0,B|91:49|39:41,2,95,2|0|8
192,264,53015,2,0,B|300:236|316:136,1,190,0|2
448,108,53658,1,8
444,280,53872,2,0,B|440:332|492:360,1,95,0|2
336,356,54301,1,2
192,264,54515,2,0,B|148:248|100:268,1,95,8|2
168,112,54944,5,8
208,84,55051,1,8
256,76,55158,1,2
304,88,55265,1,2
340,120,55372,1,8
244,296,55801,6,0,B|292:316|340:296,1,95,4|0
428,200,56230,1,8
404,368,56444,2,0,B|452:360|476:304,1,95,0|2
448,120,56872,2,0,B|400:100|352:120,1,95,2|8
204,200,57301,2,0,B|232:248|284:236,1,95,0|2
428,200,57730,5,2
292,132,57944,1,8
396,332,58158,2,0,B|292:360|204:320,1,190,0|2
292,132,58801,1,8
100,64,59230,6,0,B|146:39|200:48,1,95,4|0
324,44,59658,1,8
168,120,59872,2,0,B|224:112|264:132,1,95,0|2
344,260,60301,2,0,B|288:268|248:248,1,95,2|8
412,316,60730,6,0,B|366:341|320:333,2,95,0|2|2
464,192,61372,1,8
250,250,61587,2,0,B|219:148|281:68,1,190,0|2
464,192,62230,1,8
212,332,62658,6,0,B|165:316|148:260,1,95,4|0
232,160,63087,1,8
116,48,63301,2,0,B|16:48,2,95,0|2|2
116,48,63944,1,8
348,48,64158,2,0,B|444:48,2,95,0|2|2
232,160,64801,5,8
128,272,65015,2,0,B|72:264|56:200,1,95,0|2
144,84,65444,1,2
320,84,65658,1,8
240,276,65872,6,0,B|232:336|172:360,2,95,0|4|0
248,48,66515,2,0,B|332:20|440:44,1,190,8|2
508,156,67158,1,2
368,216,67372,2,0,B|292:124,1,95,8|0
476,272,67801,2,0,B|403:334,1,95,4|2
224,336,68230,5,8
224,336,68444,2,0,B|224:256,1,71.2499978765846,2|8
224,180,68872,1,0
88,101,69087,1,8
104,69,69194,1,8
134,50,69301,1,2
168,40,69408,1,2
203,41,69515,6,0,B|391:41,1,190,4|8
424,200,70158,2,0,B|456:164|440:104,1,95,0|2
392,312,70587,2,0,B|431:335|488:324,2,95,2|8|0
324,120,71230,2,0,B|292:156|308:216,1,95,2|2
392,312,71658,5,8
160,336,71872,2,0,B|88:280|96:160,1,190,0|2
324,120,72515,1,8
324,120,72944,6,0,B|324:216,1,95,4|0
264,332,73372,1,8
176,232,73587,2,0,B|136:200|80:200,2,95,0|2|2
300,276,74230,1,8
128,32,74444,6,0,B|120:84|152:124|207:113|207:113|240:160,1,190,4|2
300,276,75087,1,8
428,312,75301,2,0,B|456:273|444:221,1,95,0|2
436,88,75730,1,2
300,276,75944,1,8
224,60,76372,22,0,B|212:112|156:136,1,95,4|0
36,156,76801,2,0,B|48:104|104:80,1,95,8|0
224,60,77230,1,2
104,208,77444,1,2
276,216,77658,2,0,B|320:236|376:216,1,95,8|0
460,120,78087,1,2
272,128,78301,1,2
440,220,78515,38,0,B|478:254|472:304,1,95,8|0
348,356,78944,1,2
276,180,79158,2,0,B|328:172|366:203,1,95,2|8
272,296,79587,2,0,B|164:307|100:224,1,190
220,92,80230,2,0,B|272:88|312:124,1,95,8|0
272,296,80658,21,2
220,92,80872,1,2
272,296,81087,2,0,B|359:264,1,95,8|0
216,204,81515,2,0,B|128:235,1,95,4|2
216,204,81944,5,8
324,172,82158,2,0,B|380:176|416:140,1,95,0|8
220,92,82587,2,0,B|189:59|108:56,2,95,0|2|0
256,280,83230,22,0,B|287:313|368:316,2,95,4|2|0
272,128,83872,2,0,B|372:140|456:80,1,190,2|2
452,196,84515,2,0,B|396:192|360:228,1,95,0|2
380,336,84944,38,0,B|348:368|292:364,1,95,2|2
184,328,85372,1,0
52,248,85587,2,0,B|132:190|232:202,1,190,2|2
332,256,86230,1,0
492,156,86444,37,2
492,156,86551,1,0
492,156,86658,2,0,B|444:184|396:160,1,95,2|2
292,128,87087,1,0
152,72,87301,2,0,B|184:172|104:244,1,190,2|2
216,232,87944,2,0,B|224:284|192:320,1,95,0|2
288,204,88372,38,0,B|320:248|367:249,1,95,2|2
444,164,88801,1,0
312,84,89015,2,0,B|224:24|112:52,1,190,2|2
32,108,89658,2,0,B|120:168|232:140,1,190,0|0
256,192,90944,12,0,93462
