osu file format v9

[General]
AudioFilename: song.mp3
AudioLeadIn: 2000
PreviewTime: 55694
Countdown: 0
SampleSet: Soft
StackLeniency: 0.7
Mode: 0
LetterboxInBreaks: 0

[Editor]
DistanceSpacing: 1.2
BeatDivisor: 4
GridSize: 4

[Metadata]
Title:Knowing (Short Ver.)
Artist:Marika
Creator:merchat7
Version:Easy
Source:Ore no Kanojo no Uraomote
Tags:Aries Nonoura Meis Clauson Angel Note hentai eroge game visual novel opening galgame KayeSara DarknessAngel KuronumaSawako

[Difficulty]
HPDrainRate:2
CircleSize:3
OverallDifficulty:1
ApproachRate:3
SliderMultiplier:1.1
SliderTickRate:2

[Events]
//Background and Video events
0,0,"background.jpg"
Video,0,"video.avi"
//Break Periods
//Storyboard Layer 0 (Background)
//Storyboard Layer 1 (Fail)
//Storyboard Layer 2 (Pass)
//Storyboard Layer 3 (Foreground)
//Storyboard Sound Samples
//Background Colour Transformations
3,100,163,162,255

[TimingPoints]
-770,428.571428571429,4,2,0,70,1,0
8658,-100,4,2,0,40,0,0
8712,-100,4,2,0,70,0,0
9890,-100,4,2,0,40,0,0
9944,-100,4,2,0,70,0,0
10372,-100,4,2,0,60,0,0
10587,-100,4,2,0,40,0,0
11069,-100,4,2,0,70,0,0
11658,-100,4,2,0,40,0,0
15301,-100,4,2,0,60,0,0
21515,-100,4,2,0,40,0,0
21569,-100,4,2,0,60,0,0
25372,-100,4,2,0,40,0,0
27944,-100,4,2,1,80,0,0
38230,-100,4,2,1,45,0,0
41230,-100,4,2,1,80,0,0
42087,-100,4,2,0,50,0,0
42140,-100,4,2,2,70,0,0
42730,-100,4,2,1,70,0,0
44230,-100,4,2,2,70,0,0
44444,-100,4,2,1,70,0,0
48944,-100,4,2,0,60,0,0
49372,-100,4,2,1,80,0,0
55801,-100,4,2,0,70,0,1
55855,-100,4,2,1,90,0,1
59230,-100,4,2,0,70,0,1
59283,-100,4,2,1,90,0,1
62658,-100,4,2,0,60,0,1
62712,-100,4,2,1,90,0,1
64801,-100,4,2,0,60,0,1
68230,-100,4,2,1,80,0,0
69515,-100,4,2,0,70,0,1
69569,-100,4,2,1,90,0,1
72944,-100,4,2,0,70,0,1
72997,-100,4,2,1,90,0,1
74658,-100,4,2,0,60,0,1
74712,-100,4,2,1,90,0,1
76372,-100,4,2,0,60,0,1
76426,-100,4,2,1,90,0,1
78515,-100,4,2,0,60,0,1
82372,-100,4,2,1,90,0,1
83230,-100,4,2,0,40,0,0
83283,-100,4,2,0,70,0,0
89926,-100,4,2,0,10,0,0
93462,-100,4,2,0,5,0,0

[Colours]
Combo1 : 110,100,145
Combo2 : 235,65,70
Combo3 : 255,255,100
Combo4 : 200,115,130

[HitObjects]
208,80,944,2,0,B|44:80,2,165,2|2|0
304,172,2658,2,0,B|468:172,2,165,2|2|0
176,196,4372,6,0,B|165:284|230:346,1,165,2|2
360,356,5444,1,2
504,220,6087,2,0,B|514:131|449:69,1,165,2|2
320,40,7159,1,2
196,192,7801,6,0,B|140:192,1,55,2|0
8,192,8444,2,0,B|4:132|60:96,1,110,2|2
252,76,9515,6,0,B|312:16|400:96|460:36,2,220,2|2|2
256,192,11658,12,4,14658
408,80,15301,6,0,B|328:48|248:80,1,165,2|0
136,152,16372,2,0,B|216:184|296:152,1,165,2|2
464,256,17658,6,0,B|508:296,2,55,0|0|2
264,256,18730,2,0,B|152:256,1,110,2|0
68,76,19801,6,0,B|112:116,1,55,2|0
236,76,20444,2,0,B|352:76,1,110,2|0
376,272,21515,6,0,B|296:304|204:272,1,165,4|0
32,352,22801,1,0
80,228,23230,2,0,B|104:148|56:64,1,165,2|2
200,208,24515,6,0,B|216:272,2,55,0|0|2
256,192,25372,12,8,27944
44,124,28801,6,0,B|152:144|152:144|264:120,1,220,8|8
388,92,30087,1,2
456,204,30515,2,0,B|348:184|348:184|236:208,1,220,8|8
160,100,31801,6,0,B|104:100|104:100|60:68,2,110,2|8|0
288,60,33087,2,0,B|344:60|344:60|388:92,2,110,8|2|8
88,60,34587,6,0,B|144:60,1,55,2|8
220,168,35230,1,2
92,204,35658,2,0,B|96:268|144:296,1,110,8|0
272,268,36515,2,0,B|320:310|373:296,1,110,8|2
380,164,37372,2,0,B|443:160|471:111,1,110,8|2
256,192,38230,12,8,41230
416,316,42087,6,0,B|472:248|428:152,1,165,4|2
288,292,43372,2,0,B|272:252|220:284|200:236,1,110,8|2
196,104,44230,2,0,B|196:164,1,55,2|2
200,356,45087,1,8
104,268,45515,6,0,B|136:224|224:296|256:244,1,165,2|2
88,136,46801,1,8
196,60,47230,2,0,B|228:104|316:32|348:84,1,165,2|2
480,100,48301,2,0,B|480:160,1,55,2|8
360,208,48944,5,4
228,184,49372,2,0,B|168:192|128:152,1,110,8|2
200,40,50230,2,0,B|260:32|300:72,2,110,8|2|8
128,152,51515,1,2
48,48,51944,1,8
0,172,52372,6,0,B|-8:240|36:272,1,110,2|8
160,316,53230,1,2
244,216,53658,2,0,B|296:196|360:216,2,110,8|2|8
128,152,54944,2,0,B|144:136|144:136|160:140|160:140|180:120|180:120|196:124|196:124|216:104,1,110,8|8
348,100,55801,6,0,B|460:100,2,110,4|8|2
308,228,57087,2,0,B|196:228,1,110,8|2
176,96,57944,2,0,B|88:128|32:96|32:96|16:84|16:84|16:140,1,220,8|8
48,264,59230,6,0,B|68:332|40:376,2,110,4|8|2
176,296,60515,2,0,B|151:257|171:189,1,110,8|2
268,100,61372,2,0,B|356:132|412:100|412:100|428:88|428:88|428:144,1,220,8|8
412,268,62658,6,0,B|380:320|322:323,1,110,4|8
192,324,63515,2,0,B|134:320|102:268,2,110,2|8|2
256,192,64801,12,4,67801
256,176,68658,6,8,B|256:288,1,110,8|8
136,228,69515,6,0,B|80:248|24:220,1,110,4|8
20,92,70372,1,2
136,32,70801,1,8
264,68,71230,2,0,B|307:39|369:58,2,110,2|8|2
264,200,72515,1,8
136,228,72944,6,0,B|132:288|196:320,1,110,4|8
320,316,73801,1,2
416,224,74230,1,8
416,224,74658,2,0,B|473:195|469:135,2,110,4|8|2
284,224,75944,1,8
328,100,76372,6,0,B|272:120|220:84,1,110,4|8
136,184,77230,2,0,B|87:150|31:170,2,110,2|8|2
256,192,78515,12,4,81515
256,140,82372,6,0,B|256:28,1,110,8|8
172,132,83230,6,0,B|0:132,2,165,4|2|0
232,248,84944,2,0,B|404:248,2,165,2|2|0
100,264,86658,6,0,B|128:348|232:360,1,165,2|2
356,360,87730,1,2
452,184,88372,2,0,B|424:100|320:88,1,165,2|2
196,80,89444,2,0,B|224:164|328:176,1,165,2|0
256,192,90944,12,0,93462
