osu file format v9

[General]
AudioFilename: song.mp3
AudioLeadIn: 2000
PreviewTime: 55694
Countdown: 0
SampleSet: Soft
StackLeniency: 0.7
Mode: 0
LetterboxInBreaks: 0

[Editor]
DistanceSpacing: 1
BeatDivisor: 4
GridSize: 4

[Metadata]
Title:Knowing (Short Ver.)
Artist:Marika
Creator:merchat7
Version:D.N.Angel
Source:Ore no Kanojo no Uraomote
Tags:Aries Nonoura Meis Clauson Angel Note hentai eroge game visual novel opening galgame KayeSara DarknessAngel KuronumaSawako

[Difficulty]
HPDrainRate:7
CircleSize:4
OverallDifficulty:6
ApproachRate:8
SliderMultiplier:1.8
SliderTickRate:2

[Events]
//Background and Video events
0,0,"background.jpg"
Video,0,"video.avi"
//Break Periods
//Storyboard Layer 0 (Background)
//Storyboard Layer 1 (Fail)
//Storyboard Layer 2 (Pass)
//Storyboard Layer 3 (Foreground)
//Storyboard Sound Samples
//Background Colour Transformations
3,100,163,162,255

[TimingPoints]
-770,428.571428571429,4,2,2,60,1,0
14658,-100,4,2,0,67,0,0
27944,-100,4,1,0,60,0,0
28372,-100,4,2,1,75,0,0
41337,-100,4,2,1,90,0,0
42087,-133.333333333333,4,2,1,60,0,0
48944,-100,4,2,1,75,0,0
54944,-100,4,1,0,40,0,0
55051,-100,4,1,0,30,0,0
55372,-100,4,1,0,50,0,0
55801,-100,4,2,1,80,0,1
56015,-100,4,2,2,80,0,1
56230,-100,4,2,1,80,0,1
56444,-100,4,2,2,80,0,1
57087,-100,4,2,1,80,0,1
57301,-100,4,2,2,80,0,1
57944,-100,4,2,1,80,0,1
58158,-100,4,2,2,80,0,1
58587,-100,4,2,1,80,0,1
59444,-100,4,2,2,80,0,1
59658,-100,4,2,1,80,0,1
59872,-100,4,2,2,80,0,1
60515,-100,4,2,1,80,0,1
60730,-100,4,2,2,80,0,1
61372,-100,4,2,1,80,0,1
61587,-100,4,2,2,80,0,1
62015,-100,4,2,1,80,0,1
64158,-100,4,2,2,80,0,1
64801,-100,4,2,1,80,0,1
65872,-100,4,2,2,80,0,1
68230,-100,4,2,1,70,0,0
69087,-100,4,1,1,50,0,0
69515,-100,4,2,1,80,0,1
69730,-100,4,2,2,80,0,1
69944,-100,4,2,1,80,0,1
70158,-100,4,2,2,80,0,1
70801,-100,4,2,1,80,0,1
71015,-100,4,2,2,80,0,1
71658,-100,4,2,1,80,0,1
71872,-100,4,2,2,80,0,1
72301,-100,4,2,1,80,0,1
73158,-100,4,2,2,80,0,1
73372,-100,4,2,1,80,0,1
73587,-100,4,2,2,80,0,1
74230,-100,4,2,1,80,0,1
74444,-100,4,2,2,80,0,1
75087,-100,4,2,1,80,0,1
75301,-100,4,2,2,80,0,1
75730,-100,4,2,1,80,0,1
77872,-100,4,2,2,80,0,1
78515,-100,4,2,1,80,0,1
79587,-100,4,2,2,80,0,1
80230,-100,4,2,1,80,0,1
83230,-100,4,2,1,65,0,0
83337,-100,4,2,2,65,0,0
90087,-100,4,2,0,10,0,0
93408,-100,4,2,0,5,0,0

[Colours]
Combo1 : 110,100,145
Combo2 : 235,65,70
Combo3 : 255,255,100
Combo4 : 200,115,130

[HitObjects]
440,80,944,2,0,B|356:48|264:76,1,180,4|0
72,304,1801,2,0,B|156:336|248:308,1,180,8|0
184,60,2658,6,0,B|107:106|72:196,1,180,4|0
328,324,3515,2,0,B|404:277|439:187,1,180,8|0
416,80,4158,5,0
416,80,4265,1,0
416,80,4372,2,0,B|380:52|332:48,2,90,4|0|0
328,144,5015,2,0,B|304:184|260:204,1,90,8|0
156,220,5444,2,0,B|112:240|96:284,2,90,8|0|0
240,288,6087,6,0,B|268:328|312:336,2,90,4|0|0
252,180,6730,1,8
252,180,7158,1,8
168,108,7372,2,0,B|128:84|80:88,1,90
100,196,7801,6,0,B|92:244|64:276,1,90,4|0
156,332,8230,1,0
252,284,8444,1,8
252,284,8872,1,8
360,272,9087,1,0
464,304,9301,5,0
464,304,9408,1,0
464,304,9515,2,0,B|488:264|484:216,1,90,4|0
436,120,9944,1,0
344,68,10158,2,0,B|256:44|164:64,1,180,8|8
88,136,10801,1,0
168,208,11015,1,0
100,292,11230,5,4
168,208,11444,2,0,B|212:192|256:200,1,90
360,232,11872,2,0,B|396:264|440:268,2,90,8|0|8
336,124,12515,1,0
240,72,12730,5,0
240,72,12837,1,0
240,72,12944,2,0,B|200:52|152:60,1,90,4|0
92,148,13372,2,0,B|132:168|180:160,1,90,0|8
272,216,13801,1,0
188,284,14015,2,0,B|156:320|108:324,2,90,8|0|0
292,320,14658,6,0,B|380:344|464:288,1,180,4|2
264,116,15301,2,0,B|176:92|92:148,1,180,2|0
312,224,15944,2,0,B|356:204|376:164,1,90,0|2
356,56,16372,2,0,B|404:52|440:80,1,90
224,240,16801,2,0,B|196:276|148:292,2,90,2|0|2
168,148,17444,1,0
88,76,17658,6,0,B|52:104|56:156,1,90,0|2
356,100,18087,2,0,B|288:40|188:44,1,180,2|0
368,204,18730,2,0,B|416:200|444:160,2,90,2|0|0
264,172,19372,2,0,B|220:156|176:172,1,90,2|0
68,172,19801,2,0,B|40:136|48:84,2,90,2|0|0
116,268,20444,1,2
116,268,20872,5,2
216,308,21087,2,0,B|260:328|304:312,1,90,2|0
392,192,21515,2,0,B|348:172|304:188,1,90,2|0
428,296,21944,1,0
428,296,22158,2,0,B|472:280|500:240|504:192|488:144,1,180,2|0
392,192,22801,1,0
296,240,23015,2,0,B|280:192|284:144|312:104|356:88,1,180,2|0
252,52,23658,2,0,B|208:36|164:44,1,90,2|0
64,88,24087,1,2
64,88,24515,6,0,B|44:128|52:180,1,90,0|2
216,264,24944,2,0,B|136:308|40:292,1,180,2|0
212,124,25587,2,0,B|256:104|304:128,2,90,2|0|0
328,296,26230,2,0,B|372:312|416:296,1,90,2|0
452,192,26658,1,2
416,88,26872,2,0,B|372:72|328:88,1,90,2|0
256,168,27301,2,0,B|224:200|176:208,1,90,2|0
180,100,27730,1,0
356,168,27944,1,0
88,300,28372,5,4
88,300,28801,2,0,B|64:260|72:208,1,90,8|0
84,104,29230,2,0,B|60:64|16:48,2,90,2|2|8
184,148,29872,2,0,B|272:176|360:140,1,180
220,56,30515,5,8
184,248,30730,2,0,B|200:292|236:320,1,90,0|2
344,336,31158,1,2
452,316,31372,2,0,B|488:288|504:244,2,90,8|0|0
380,236,32015,5,0
440,144,32230,1,8
352,80,32444,2,0,B|308:64|264:72,1,90,0|2
88,184,32872,2,0,B|132:200|176:192,1,90,2|8
48,76,33301,5,0
220,132,33515,1,2
120,284,33730,2,0,B|84:312|36:304,2,90,2|8|0
228,288,34372,2,0,B|224:240|192:208,1,90,2|2
48,76,34801,2,0,B|52:124|84:156,1,90,8|0
212,84,35230,6,0,B|296:48|388:68,1,180,6|8
476,272,35872,1,0
476,272,36087,2,0,B|392:308|300:288,1,180,2|8
72,276,36730,6,0,B|92:320|136:336,1,90,0|2
160,232,37158,1,2
140,128,37372,2,0,B|112:92|60:84,1,90,8|0
60,192,37801,1,2
160,232,38015,1,2
244,160,38230,1,8
244,160,38658,6,0,B|320:112|420:128,1,180,0|8
488,288,39301,1,0
488,288,39515,2,0,B|412:336|312:320,1,180,2|8
84,176,40158,6,0,B|92:264|168:332,1,180
152,104,40801,2,0,B|116:72|68:76,1,90,8|0
184,200,41230,1,8
184,200,41337,1,2
184,200,41444,2,0,B|224:228|272:216,1,90,0|8
269,216,42087,5,4
452,84,42515,1,0
452,84,42730,2,0,B|384:60|320:80,1,134.999995976687
244,108,43372,2,0,B|180:128|112:104,1,134.999995976687,8|2
111,103,44230,6,0,B|79:163,1,67.4999979883433,2|0
392,312,45087,1,8
392,312,45515,6,0,B|432:256|424:180,1,134.999995976687,2|0
388,112,46158,2,0,B|336:68|260:76,1,134.999995976687,2|0
72,136,46801,1,8
72,136,47015,2,0,B|124:180|200:172,1,134.999995976687,2|0
276,156,47658,6,0,B|312:154|339:174,1,67.4999979883433,0|2
208,304,48087,2,0,B|171:305|144:285,1,67.4999979883433,0|2
328,288,48515,1,8
328,288,48944,5,4
392,120,49158,1,0
416,224,49372,1,8
252,148,49587,2,0,B|172:104|76:120,1,180,2|0
196,216,50230,5,8
328,288,50444,2,0,B|408:332|504:304,1,180,2|0
504,80,51087,2,0,B|408:52|328:96,1,180,8|2
232,140,51730,2,0,B|188:152|144:136,1,90,2|8
72,56,52158,1,2
176,244,52372,6,0,B|156:288|112:304,1,90,0|2
80,200,52801,1,8
232,140,53015,2,0,B|312:100|408:112,1,180,2|0
456,284,53658,2,0,B|488:248|492:204,1,90,8|0
352,328,54087,2,0,B|388:360|440:364,1,90,0|2
160,328,54515,2,0,B|124:360|72:364,1,90,8|2
180,224,54944,5,0
216,204,55051,1,0
256,192,55158,1,0
296,204,55265,1,0
332,224,55372,1,0
80,148,55801,5,4
200,88,56015,2,0,B|184:44|136:28,1,90,8|8
117,283,56444,2,0,B|165:267|181:223,1,90,4|0
80,148,56872,2,0,B|32:164|16:208,1,90,0|8
252,320,57301,6,0,B|340:344|424:284,1,180,8|8
312,192,57944,1,8
252,64,58158,2,0,B|340:40|424:100,1,180,4|2
312,192,58801,2,0,B|132:192,1,180,8|0
120,320,59444,6,0,B|196:268,1,90,8|8
120,64,59872,2,0,B|196:116,1,90,4|0
92,192,60301,2,0,B|0:192,1,90,0|8
256,192,60730,1,8
372,112,60944,6,0,B|344:72|300:60,1,90,0|8
256,192,61372,1,8
300,324,61587,2,0,B|344:312|372:272,1,90,4|0
256,192,62015,1,2
80,276,62230,2,0,B|108:312|156:324,1,90,8|0
176,76,62658,6,0,B|92:40|0:72,1,180,4|8
256,192,63301,2,0,B|348:220|432:180,1,180
332,88,63944,1,8
160,172,64158,2,0,B|88:228|104:336,1,180,4|0
240,316,64801,6,0,B|280:332|328:316,1,90,8|0
480,152,65230,2,0,B|472:200|440:232,1,90
332,88,65658,1,8
152,72,65872,2,0,B|64:104|40:204,1,180,4|0
256,192,66515,12,0,67801
168,80,68230,5,8
76,136,68444,1,2
76,244,68658,1,8
168,304,68872,1,2
328,196,69087,1,0
360,168,69194,1,0
364,124,69301,1,0
332,92,69408,1,0
288,88,69515,6,0,B|244:104|228:152,1,90,4|8
392,300,69944,2,8,B|428:272|444:228,1,90,8|4
116,232,70372,2,0,B|132:276|168:304,1,90
284,224,70801,1,8
176,80,71015,2,0,B|132:68|88:84,1,90,8|0
336,80,71444,6,0,B|380:68|424:84,1,90,8|8
196,196,71872,1,4
196,196,72301,1,2
320,180,72515,2,0,B|415:195|468:272,1,180,8|0
216,312,73158,6,0,B|260:296|288:260,1,90,8|8
96,108,73587,2,0,B|44:184|92:280,1,180,4|0
208,92,74230,2,0,B|192:44|156:20,2,90,8|8|0
300,148,74872,5,8
200,192,75087,1,8
440,88,75301,2,0,B|440:136|412:176,1,90,4|0
288,336,75730,1,2
440,308,75944,2,0,B|372:248|272:252,1,180,8|4
273,251,76801,5,8
168,280,77015,1,0
128,180,77230,1,0
172,80,77444,2,0,B|128:68|80:80,1,90,0|8
128,180,77872,2,0,B|220:180|288:108,1,180,4|0
172,80,78515,5,8
284,228,78730,2,0,B|344:300|440:308,1,180
360,152,79372,1,8
188,216,79587,2,0,B|100:248|72:344,1,180,4|0
284,228,80230,6,0,B|284:176|252:144,1,90,8|0
120,52,80658,2,0,B|120:104|152:136,1,90
392,52,81087,2,0,B|392:104|360:136,1,90,8|0
180,292,81515,5,2
332,292,81730,1,2
256,192,81944,1,8
120,112,82158,1,8
120,112,82265,1,0
120,112,82372,2,0,B|112:160|140:200,1,90,2|0
373,197,82801,2,0,B|400:160|392:112,1,90,8|0
256,192,83230,6,0,B|256:240|288:276,1,90,4|0
392,304,83658,1,0
476,236,83872,2,0,B|504:148|464:60,1,180,8|8
356,76,84515,2,0,B|312:88|268:76,1,90
160,52,84944,5,4
68,108,85158,1,0
100,212,85372,1,0
204,236,85587,2,0,B|196:280|156:312|112:324|60:312,1,180,8|8
100,212,86230,1,0
184,144,86444,5,0
184,144,86551,1,0
184,144,86658,2,0,B|228:120|272:124,1,90,4|0
364,176,87087,1,0
448,108,87301,2,0,B|420:72|368:68,1,90,8|0
364,176,87730,1,8
340,280,87944,1,0
424,348,88158,2,0,B|452:308|448:264,1,90,0|4
340,280,88587,5,0
260,352,88801,1,0
340,280,89015,2,0,B|260:236|164:252,1,180,8|8
60,276,89658,2,0,B|72:324|116:348,2,90
256,192,90944,12,0,93462
