osu file format v9

[General]
AudioFilename: Triptych.mp3
AudioLeadIn: 0
PreviewTime: 63990
Countdown: 0
SampleSet: Soft
StackLeniency: 0.7
Mode: 0
LetterboxInBreaks: 0

[Editor]
Bookmarks: 98254
DistanceSpacing: 1.1
BeatDivisor: 4
GridSize: 4

[Metadata]
Title:Triptych (Short Ver.)
Artist:Marie
Creator:Melophobia
Version:Insane
Source:Triptych
Tags:Alcot milu ryafuka Shimotsuki Haruka hentai eroge game visual novel opening

[Difficulty]
HPDrainRate:7
CircleSize:4
OverallDifficulty:7
ApproachRate:8
SliderMultiplier:1.8
SliderTickRate:1

[Events]
//Background and Video events
0,0,"BG.jpg"
Video,800,"video.avi"
//Break Periods
//Storyboard Layer 0 (Background)
//Storyboard Layer 1 (Fail)
//Storyboard Layer 2 (Pass)
//Storyboard Layer 3 (Foreground)
//Storyboard Sound Samples
//Background Colour Transformations
3,100,163,162,255

[TimingPoints]
1360,372.670807453416,4,2,1,50,1,0
24931,-133.333333333333,4,2,1,40,0,0
48968,-133.333333333333,4,2,1,50,0,0
63968,-100,4,2,1,60,0,1
93596,-133.333333333333,4,2,1,60,0,1
93782,-133.333333333333,4,2,1,60,0,0
94341,-133.333333333333,4,2,1,50,0,0
94434,-133.333333333333,4,2,1,60,0,0
95086,-100,4,2,1,30,0,0

[Colours]
Combo1 : 0,255,64
Combo2 : 128,128,255
Combo3 : 255,128,64

[HitObjects]
72,256,13285,2,0,B|124:180|232:180,1,180,4|8
348,56,14030,1,2
324,152,14217,1,0
228,180,14403,1,8
296,252,14589,2,0,B|376:304|472:296,1,180,0|0
504,204,15148,1,8
184,104,15521,5,2
280,124,15707,1,0
184,104,15894,1,8
136,192,16080,1,0
136,192,16173,1,0
136,192,16266,2,0,B|184:280|304:264,1,180,2|8
289,265,17012,5,2
372,212,17198,1,0
388,116,17384,1,8
292,88,17571,2,0,B|196:140|112:132,1,180
48,68,18130,1,8
368,296,18502,1,2
368,296,18689,1,0
368,296,18875,1,8
276,120,19248,6,0,B|180:160|88:120,1,180,4|8
36,48,19807,1,0
100,124,19993,1,2
80,220,20179,1,0
136,304,20366,5,8
232,332,20552,2,0,B|308:292|424:308,1,180,4|0
476,236,21111,1,8
405,167,21297,1,0
405,121,21391,1,0
423,79,21484,1,2
112,96,21856,5,8
112,96,22043,1,0
112,96,22229,2,0,B|44:156|40:264,1,180,2|8
120,316,22788,1,0
208,272,22974,2,0,B|292:244|388:284,1,180,2|8
448,208,23533,6,0,B|428:108|324:60,1,180,4|0
244,80,24092,1,8
244,80,24465,1,0
168,144,24652,1,0
188,240,24838,1,8
268,292,25024,5,2
356,256,25210,1,0
440,296,25397,2,0,B|468:312|492:340,2,67.4999979883433,0|2|0
472,208,25956,1,0
448,116,26142,2,0,B|420:100|396:72,1,67.4999979883433,0|2
308,40,26515,6,0,B|240:76|224:144,1,134.999995976687
296,204,27074,1,2
220,260,27260,2,0,B|204:324|136:360,1,134.999995976687
64,300,27819,2,0,B|79:235|147:199,1,134.999995976687,2|0
236,168,28378,1,0
236,168,29682,6,0,B|268:184|308:176,2,67.4999979883433,2|0|2
168,100,30241,2,0,B|96:104|56:188,1,134.999995976687
116,256,30800,1,2
204,292,30987,1,0
288,248,31173,2,0,B|360:228|436:272,1,134.999995976687,2|0
480,192,31732,1,2
344,84,32478,5,0
272,148,32664,2,0,B|220:200|136:176,1,134.999995976687,2|2
64,220,33223,2,0,B|88:296|152:320,1,134.999995976687
236,280,33782,2,0,B|264:256|304:256,1,67.4999979883433,2|0
348,336,34155,2,0,B|424:336|460:264,2,134.999995976687,2|2|0
260,300,35086,5,0
168,324,35273,1,2
100,260,35459,2,0,B|48:212|44:128,1,134.999995976687,2|0
156,88,36018,2,0,B|208:136|212:220,2,134.999995976687,2|0|2
296,100,36950,6,0,B|264:80|244:40,2,67.4999979883433,0|2|0
380,148,37509,2,0,B|408:172|412:208,1,67.4999979883433,2|0
368,296,37881,1,0
280,264,38068,2,0,B|244:248|184:256,1,67.4999979883433,0|2
188,136,38440,6,0,B|112:140|64:196,1,134.999995976687
48,284,38999,1,2
124,340,39186,2,0,B|200:336|248:280,1,134.999995976687
300,208,39745,2,0,B|280:164|320:120|300:68,2,134.999995976687,2|2|0
300,208,40676,1,2
192,160,41981,6,0,B|212:196|212:240,1,67.4999979883433,2|0
188,316,42353,1,0
284,316,42540,2,0,B|320:296|368:300,1,67.4999979883433,0|2
428,348,42912,1,0
444,256,43099,2,0,B|428:188|364:132,1,134.999995976687,2|0
300,84,43658,1,2
120,260,44403,5,0
120,260,44589,2,0,B|188:248|248:296,1,134.999995976687,2|0
332,336,45148,2,0,B|312:296|348:240|332:184,1,134.999995976687,2|0
332,108,45707,2,0,B|332:28,2,67.4999979883433,2|0|2
144,104,46453,5,2
104,288,46825,2,0,B|164:328|252:312,1,134.999995976687,2|2
268,228,47384,1,0
348,280,47571,6,0,B|372:312|364:364,1,67.4999979883433,8|0
384,176,47943,2,0,B|360:144|368:92,1,67.4999979883433,0|8
180,80,48502,1,0
180,80,48689,1,8
392,308,49061,5,4
460,216,49248,1,4
348,204,49434,1,2
232,248,49620,6,0,B|216:284|184:296,1,67.4999979883433,8|0
44,252,49993,2,0,B|60:216|92:196,1,67.4999979883433,8|2
172,184,50366,2,0,B|240:144|260:64,1,134.999995976687,4|0
416,84,50925,2,0,B|348:124|328:204,1,134.999995976687,2|0
328,276,51484,1,8
244,256,51670,5,2
160,284,51856,1,0
160,284,51950,1,0
160,284,52043,2,0,B|132:220|152:140,1,134.999995976687,4|2
284,68,52602,1,8
285,68,52788,2,0,B|348:96|419:75,1,134.999995976687,0|2
424,172,53347,5,0
356,236,53533,1,2
264,220,53720,1,0
424,172,53906,5,2
264,220,54092,2,0,B|200:176|112:220,1,134.999995976687,2|2
92,296,54651,1,8
336,88,55024,6,0,B|304:104|260:100,2,67.4999979883433,4|0|8
392,164,55583,2,0,B|452:118|444:46,1,134.999995976687,4|0
476,208,56142,2,0,B|448:232|440:272,1,67.4999979883433,4|0
348,272,56515,2,0,B|322:255|282:263,2,67.4999979883433,0|8|0
120,264,57260,5,0
120,264,57633,1,8
120,264,58005,2,0,B|152:276|204:280,1,67.4999979883433,4|0
280,268,58378,1,8
372,292,58564,1,4
448,120,58937,5,0
384,48,59123,1,8
288,52,59310,1,0
212,108,59496,2,0,B|156:160|64:164,1,134.999995976687,4|8
28,232,60055,6,0,B|24:272|48:316,1,67.4999979883433,2|0
193,336,60428,2,0,B|164:319|128:324,2,67.4999979883433,2|8|0
288,336,60987,2,0,B|356:304|360:208,1,134.999995976687,4|8
358,228,61546,1,2
236,60,61919,5,0
188,140,62105,1,8
248,212,62291,1,0
188,288,62478,2,0,B|116:272|52:320,1,134.999995976687,4|8
8,232,63037,1,4
280,312,63409,1,8
280,312,63596,1,8
48,208,63968,6,0,B|108:128|212:152,1,180,4|8
276,208,64527,1,0
340,272,64714,2,0,B|439:294|499:214,1,180,2|8
472,128,65273,1,0
388,96,65459,2,0,B|344:80|296:96,1,90,2|0
228,152,65832,1,8
280,228,66018,6,0,B|326:301|438:289,1,180,0|0
228,152,66577,2,0,B|181:78|69:90,2,180,8|2|8
248,332,67695,1,2
336,328,67881,1,0
404,268,68068,1,8
462,87,68254,6,0,B|464:136|444:176,1,90,0|2
344,180,68627,1,0
252,216,68813,1,8
172,160,68999,2,0,B|64:160|4:240,1,180,2|0
44,324,69558,1,8
456,60,69932,5,4
444,256,70304,1,8
364,316,70491,1,0
300,240,70676,1,2
216,292,70863,2,0,B|168:280|124:300,1,90,0|8
68,216,71236,6,0,B|64:124|116:40,1,180,4|0
208,80,71795,1,8
304,60,71981,1,0
388,108,72167,2,0,B|424:144|420:220,1,90,2|0
272,296,72540,6,0,B|236:260|240:184,1,90,8|0
104,92,72913,2,0,B|156:164|140:268,1,180,4|8
64,328,73472,1,0
140,263,73658,1,0
220,324,73844,1,0
220,324,73937,1,0
220,324,74030,1,8
240,228,74217,6,0,B|332:196|412:256,1,180,4|0
460,112,74776,1,8
368,148,74963,1,0
292,84,75149,1,2
252,63,75241,1,0
208,51,75335,1,0
164,60,75428,1,0
125,83,75521,1,8
40,224,75707,5,4
132,232,75894,2,0,B|172:228|212:264,1,90,0|0
132,324,76267,1,8
212,264,76454,1,0
292,324,76640,2,0,B|405:328|449:228,1,180,2|8
416,148,77199,1,0
229,175,77385,6,0,B|272:152|316:152,2,90,2|0|8
136,212,77944,2,0,B|94:119|150:39,1,180,2|0
328,60,78503,2,0,B|369:152|313:232,1,180,8|2
56,64,79249,1,8
68,296,79621,1,2
156,344,79808,1,0
256,348,79994,1,8
344,308,80180,1,0
440,292,80367,6,0,B|476:200|404:88,1,180,4|8
332,164,80926,2,0,B|264:100|152:112,1,180,4|0
100,184,81485,1,8
72,88,81671,1,0
72,88,81764,1,0
72,88,81857,1,4
260,300,82230,5,8
357,323,82416,2,0,B|396:352|444:339,2,90,0|2|0
328,228,82975,2,0,B|300:128|352:52,1,180,8|2
448,40,83534,1,0
412,132,83721,2,0,B|312:160|236:108,1,180,8|2
308,40,84279,5,0
400,76,84466,1,8
404,176,84652,1,0
332,248,84839,2,0,B|276:336|184:340,2,180,4|8|2
352,152,85770,5,0
372,332,85957,1,8
208,260,86143,2,0,B|156:184|36:204,1,180,4|0
47,202,86702,1,8
316,80,87075,5,2
396,116,87261,1,2
440,204,87447,1,2
440,312,87634,1,2
184,311,87820,6,0,B|247:243|348:256,1,180,4|8
255,145,88379,1,4
255,145,88472,1,0
255,145,88565,2,0,B|227:185|155:185,1,90,0|0
98,85,88937,6,0,B|160:17|261:29,1,180,4|2
332,99,89496,1,0
416,48,89682,1,8
401,245,90055,1,0
203,230,90429,5,8
124,100,90615,1,0
265,160,90801,1,4
116,193,90988,1,0
216,79,91174,1,8
416,213,91360,6,0,B|399:118|316:71,1,180,4|0
144,196,91919,2,0,B|161:291|244:338,2,180,8|0|8
320,228,93037,1,2
412,296,93223,1,0
428,180,93409,1,8
356,88,93596,6,0,B|380:56|420:52,2,67.4999979883433,0|4|0
276,172,94155,1,2
176,100,94341,2,0,B|88:100|56:192,1,134.999995976687,4|0
92,284,94900,1,2
256,192,95086,12,4,98254
