osu file format v12

[General]
AudioFilename: SHINE RING.mp3
AudioLeadIn: 0
PreviewTime: 64922
Countdown: 0
SampleSet: Soft
StackLeniency: 0.7
Mode: 0
LetterboxInBreaks: 0

[Editor]
DistanceSpacing: 1.2
BeatDivisor: 4
GridSize: 4

[Metadata]
Title:SHINE RING (Short Ver.)
TitleUnicode:SHINE RING (Short Ver.)
Artist:Marie
ArtistUnicode:Marie
Creator:Hysteresis
Version:Insane
Source:Naka no Hito nado Inai! Tokyo Hero Project
Tags:PCgame Wreath h-728 Alcot visual novel opening
BeatmapID:211415
BeatmapSetID:74439

[Difficulty]
HPDrainRate:6
CircleSize:4
OverallDifficulty:7
ApproachRate:9
SliderMultiplier:2
SliderTickRate:1

[Events]
//Background and Video events
0,0,"BG.jpg",0,0
//Break Periods
//Storyboard Layer 0 (Background)
//Storyboard Layer 1 (Fail)
//Storyboard Layer 2 (Pass)
//Storyboard Layer 3 (Foreground)
//Storyboard Sound Samples
//Background Colour Transformations
3,100,163,162,255

[TimingPoints]
18163,352.941176470588,4,2,0,50,1,0
20457,-100,4,2,2,60,0,0
20810,-100,4,2,2,70,0,1
20898,-100,4,2,2,70,0,0
25221,-100,4,2,2,60,0,0
25398,-100,4,2,2,60,0,0
25751,-100,4,2,2,60,0,0
25927,-100,4,1,0,40,0,0
26104,-100,4,1,0,50,0,0
26280,-100,4,1,0,60,0,0
26457,-100,4,2,2,70,0,0
29633,-100,4,1,0,50,0,0
30692,-100,4,2,2,60,0,0
31045,-100,4,2,2,70,0,1
31133,-100,4,2,2,70,0,0
31574,-100,4,3,0,30,0,0
32280,-100,4,2,3,40,0,0
37221,-100,4,1,0,30,0,0
37398,-100,4,1,0,40,0,0
37574,-100,4,1,0,50,0,0
37751,-100,4,2,2,60,0,0
54339,-100,4,2,2,50,0,0
54515,-100,4,2,2,40,0,0
54868,-133.333333333333,4,2,2,40,0,0
59457,-100,4,2,2,50,0,0
60515,-100,4,2,2,60,0,0
63692,-100,4,2,2,30,0,0
64045,-100,4,2,2,40,0,0
64398,-100,4,2,2,50,0,0
64927,-100,4,2,2,60,0,0
65280,-100,4,1,0,30,0,0
65457,-100,4,1,0,40,0,0
65633,-100,4,1,0,50,0,0
65810,-100,4,1,0,60,0,0
65986,-100,4,2,2,70,0,1
76398,-100,4,2,2,70,0,0
76751,-100,4,1,0,60,0,0
77280,-100,4,2,2,70,0,1
85221,-100,4,1,0,55,0,1
85751,-100,4,2,2,65,0,1
88751,-100,4,2,2,60,0,0
94398,-100,4,1,0,40,0,0
94751,-100,4,1,0,50,0,0
95104,-100,4,1,0,60,0,0
95810,-100,4,1,0,70,0,0
96162,-100,4,2,2,60,0,0
97045,-100,4,2,2,70,0,1
97133,-100,4,2,2,70,0,0
102162,-100,4,1,0,55,0,0
102339,-100,4,1,0,60,0,0
102515,-100,4,1,0,65,0,0
102692,-100,4,2,2,70,0,0
105868,-100,4,1,0,60,0,0
106927,-100,4,2,2,70,0,0
107280,-100,4,2,2,60,0,0
107810,-100,4,2,2,50,0,0
107986,-100,4,2,2,40,0,0
108339,-100,4,2,2,30,0,0
108868,-100,4,2,0,60,0,0
109574,-100,4,2,0,50,0,0
110280,-100,4,2,0,40,0,0
110986,-100,4,2,0,30,0,0
111339,-100,4,2,0,20,0,0
111692,-100,4,2,0,10,0,0
112045,-100,4,2,0,5,0,0

[Colours]
Combo1 : 255,128,64
Combo2 : 255,128,128
Combo3 : 255,255,128
Combo4 : 128,255,128
Combo5 : 128,255,255

[HitObjects]
216,156,19574,2,0,L|296:216,1,100,2|0,0:0|0:0,0:0:0:0:
392,184,19927,1,0,0:0:0:0:
488,212,20104,1,0,0:0:0:0:
408,272,20280,2,0,L|320:324,1,100,2|8,0:0|0:0,0:0:0:0:
284,348,20545,1,8,0:0:0:0:
284,348,20633,1,8,0:0:0:0:
104,236,20810,6,0,P|196:272|276:220,1,200,4|0,0:0|0:0,0:0:0:0:
320,120,21339,1,8,0:0:0:0:
320,120,21515,1,0,0:0:0:0:
188,176,21692,1,0,0:0:0:0:
244,44,21868,1,2,0:0:0:0:
244,44,22221,6,0,P|192:120|88:136,1,200,4|0,0:0|0:0,0:0:0:0:
128,40,22751,1,8,0:0:0:0:
52,220,22927,2,0,P|120:296|212:292,1,200,4|0,0:0|0:0,0:0:0:0:
296,236,23457,1,8,0:0:0:0:
344,344,23633,1,2,0:0:0:0:
244,48,23986,5,0,0:0:0:0:
164,116,24162,1,8,0:0:0:0:
264,152,24339,2,0,P|188:212|88:192,1,200,2|0,0:0|0:0,0:0:0:0:
148,272,24868,2,0,P|188:304|236:324,1,100,8|0,0:0|0:0,0:0:0:0:
52,172,25221,1,4,0:0:0:0:
164,116,25398,1,2,0:0:0:0:
64,256,25574,1,8,0:0:0:0:
264,200,25751,1,4,0:0:0:0:
240,284,25927,5,0,0:0:0:0:
272,300,26015,1,0,0:0:0:0:
304,308,26104,1,0,0:0:0:0:
340,308,26192,1,0,0:0:0:0:
372,300,26280,1,0,0:0:0:0:
404,284,26368,1,0,0:0:0:0:
424,256,26457,6,0,P|332:200|272:132,1,200,4|0,0:0|0:0,0:0:0:0:
56,116,26986,2,0,P|100:112|152:88,1,100,8|0,0:0|0:0,0:0:0:0:
236,40,27339,1,2,0:0:0:0:
272,132,27515,1,0,0:0:0:0:
240,228,27692,1,8,0:0:0:0:
140,212,27868,6,0,P|136:264|156:308,1,100,4|0,0:0|0:0,0:0:0:0:
340,248,28221,1,2,0:0:0:0:
268,336,28398,1,8,0:0:0:0:
248,104,28574,2,0,P|344:128|432:88,1,200,4|8,0:0|0:0,0:0:0:0:
432,87,29015,1,8,0:0:0:0:
432,88,29104,1,8,0:0:0:0:
460,204,29280,1,8,0:0:0:0:
396,312,29457,5,4,0:0:0:0:
284,244,29633,1,0,0:0:0:0:
284,244,29721,1,0,0:0:0:0:
284,244,29810,1,0,0:0:0:0:
160,160,29986,1,0,0:0:0:0:
160,160,30074,1,0,0:0:0:0:
160,160,30162,1,0,0:0:0:0:
60,268,30339,1,0,0:0:0:0:
60,268,30427,1,0,0:0:0:0:
60,268,30515,1,0,0:0:0:0:
372,192,30692,1,8,0:0:0:0:
256,88,30868,5,4,0:0:0:0:
256,292,31045,1,4,0:0:0:0:
372,192,31927,5,8,0:0:0:0:
148,112,32280,6,0,P|120:156|112:204,1,100,4|0,0:0|0:0,0:0:0:0:
220,268,32633,2,0,P|248:224|252:176,1,100,8|0,0:0|0:0,0:0:0:0:
324,104,32986,2,0,P|376:108|424:132,1,100,2|0,0:0|0:0,0:0:0:0:
364,212,33339,1,8,0:0:0:0:
424,292,33515,1,0,0:0:0:0:
348,360,33692,6,0,P|296:356|252:336,1,100,2|0,0:0|0:0,0:0:0:0:
76,276,34045,2,0,P|124:264|172:236,1,100,8|0,0:0|0:0,0:0:0:0:
152,56,34398,2,0,P|128:104|124:152,1,100,2|0,0:0|0:0,0:0:0:0:
224,140,34751,1,8,0:0:0:0:
320,168,34927,1,0,0:0:0:0:
272,256,35104,6,0,P|324:268|368:256,1,100,2|0,0:0|0:0,0:0:0:0:
368,76,35457,2,0,P|320:64|272:76,1,100,8|0,0:0|0:0,0:0:0:0:
144,156,35810,2,0,P|104:184|52:192,2,100,2|0|8,0:0|0:0|0:0,0:0:0:0:
216,84,36339,1,0,0:0:0:0:
332,212,36515,1,2,0:0:0:0:
168,248,36692,1,0,0:0:0:0:
308,120,36868,1,8,0:0:0:0:
144,156,37045,1,0,0:0:0:0:
260,272,37221,5,0,0:0:0:0:
284,288,37310,1,0,0:0:0:0:
312,296,37398,1,0,0:0:0:0:
344,300,37486,1,0,0:0:0:0:
372,292,37574,1,0,0:0:0:0:
400,280,37663,1,0,0:0:0:0:
424,256,37751,1,4,0:0:0:0:
308,72,38104,5,0,0:0:0:0:
308,72,38192,1,0,0:0:0:0:
308,72,38280,2,0,L|284:172,1,100,8|0,0:0|0:0,0:0:0:0:
148,276,38633,2,0,L|176:180,1,100,0|2,0:0|0:0,0:0:0:0:
204,84,38986,1,8,0:0:0:0:
260,272,39163,6,0,P|308:264|352:240,1,100,4|0,0:0|0:0,0:0:0:0:
136,168,39515,1,2,0:0:0:0:
308,72,39692,2,0,P|344:108|360:160,1,100,8|0,0:0|0:0,0:0:0:0:
176,244,40045,1,0,0:0:0:0:
296,184,40221,1,2,0:0:0:0:
188,96,40398,1,8,0:0:0:0:
68,160,40574,5,0,0:0:0:0:
68,160,40663,1,0,0:0:0:0:
68,160,40751,2,0,P|32:204|16:248,1,100,4|0,0:0|0:0,0:0:0:0:
84,320,41104,2,0,P|132:320|180:304,1,100,8|0,0:0|0:0,0:0:0:0:
280,284,41457,1,2,0:0:0:0:
208,96,41633,1,2,0:0:0:0:
208,96,41986,6,0,P|288:144|392:128,1,200,4|2,0:0|0:0,0:0:0:0:
304,64,42515,1,8,0:0:0:0:
148,212,42692,1,2,0:0:0:0:
376,172,42868,1,8,0:0:0:0:
296,344,43045,1,4,0:0:0:0:
208,96,43398,5,0,0:0:0:0:
208,96,43486,1,0,0:0:0:0:
208,96,43574,2,0,L|224:196,1,100,4|2,0:0|0:0,0:0:0:0:
188,284,43927,2,0,P|240:288|284:268,1,100,8|0,0:0|0:0,0:0:0:0:
364,88,44280,1,0,0:0:0:0:
276,132,44457,1,0,0:0:0:0:
360,188,44633,1,8,0:0:0:0:
272,236,44810,2,0,P|360:272|456:236,1,200,2|2,0:0|0:0,0:0:0:0:
364,88,45339,6,0,P|316:76|268:88,1,100,8|0,0:0|0:0,0:0:0:0:
180,136,45692,1,0,0:0:0:0:
144,32,45868,1,2,0:0:0:0:
180,136,46045,1,8,0:0:0:0:
256,60,46221,2,0,P|156:72|76:128,1,200,2|0,0:0|0:0,0:0:0:0:
92,236,46751,2,0,P|184:224|276:168,1,200,8|2,0:0|0:0,0:0:0:0:
352,104,47280,1,2,0:0:0:0:
352,104,47457,1,8,0:0:0:0:
448,136,47633,2,0,P|352:176|296:252,1,200,2|0,0:0|0:0,0:0:0:0:
264,348,48163,5,8,0:0:0:0:
156,324,48339,1,2,0:0:0:0:
200,224,48515,1,8,0:0:0:0:
32,236,48692,1,2,0:0:0:0:
108,100,48868,1,8,0:0:0:0:
200,224,49045,6,2,P|284:280|376:264,1,200,4|2,0:0|0:0,0:0:0:0:
400,144,49574,2,2,P|320:88|224:104,1,200,8|2,0:0|0:0,0:0:0:0:
152,164,50104,1,2,0:0:0:0:
112,72,50280,1,8,0:0:0:0:
56,208,50457,6,2,P|144:252|232:216,1,200,4|2,0:0|0:0,0:0:0:0:
272,100,50986,2,0,P|364:64|448:108,1,200,8|2,0:0|0:0,0:0:0:0:
360,152,51515,1,2,0:0:0:0:
272,200,51692,1,8,0:0:0:0:
352,260,51868,5,8,0:0:0:0:
352,260,51957,1,8,0:0:0:0:
352,260,52045,1,8,0:0:0:0:
160,260,52221,1,8,0:0:0:0:
256,360,52398,1,8,0:0:0:0:
256,104,52574,1,8,0:0:0:0:
256,104,52927,1,8,0:0:0:0:
164,176,53280,6,0,P|256:208|348:172,1,200,4|0,0:0|0:0,0:0:0:0:
424,104,53810,2,0,L|460:208,1,100,8|2,0:0|0:0,0:0:0:0:
384,292,54163,1,8,0:0:0:0:
268,324,54339,1,8,0:0:0:0:
148,300,54515,1,8,0:0:0:0:
256,68,54868,6,0,P|292:136|256:204,1,150.000005722046,4|8,0:0|0:0,0:0:0:0:
180,168,55398,1,2,0:0:0:0:
96,140,55574,2,0,P|76:176|60:232,2,75.0000028610231,8|2|0,0:0|0:0|0:0,0:0:0:0:
140,68,56104,2,0,P|208:88|288:72,1,150.000005722046,8|2,0:0|0:0,0:0:0:0:
368,60,56633,2,0,L|400:140,1,75.0000028610231,8|0,0:0|0:0,0:0:0:0:
428,212,56986,1,8,0:0:0:0:
348,252,57163,1,2,0:0:0:0:
260,228,57339,1,2,0:0:0:0:
228,144,57515,5,8,0:0:0:0:
224,136,57604,1,8,0:0:0:0:
220,128,57692,2,0,P|180:136|144:156,1,75.0000028610231,4|0,0:0|0:0,0:0:0:0:
72,216,58045,2,0,P|40:232|0:240,2,75.0000028610231,8|2|8,0:0|0:0|0:0,0:0:0:0:
156,184,58574,1,2,0:0:0:0:
156,184,58751,1,8,0:0:0:0:
156,276,58927,2,0,P|224:304|292:276,1,150.000005722046,8|2,0:0|0:0,0:0:0:0:
356,212,59457,1,8,0:0:0:0:
392,48,59633,1,2,0:0:0:0:
284,112,59810,5,8,0:0:0:0:
464,152,59986,1,2,0:0:0:0:
424,248,60163,1,8,0:0:0:0:
416,268,60251,1,8,0:0:0:0:
408,284,60339,1,8,0:0:0:0:
400,304,60427,1,8,0:0:0:0:
392,320,60515,6,0,P|344:336|296:328,1,100,4|0,0:0|0:0,0:0:0:0:
168,216,60868,2,0,P|216:200|268:208,1,100,8|0,0:0|0:0,0:0:0:0:
160,104,61221,1,2,0:0:0:0:
72,172,61398,1,2,0:0:0:0:
160,104,61574,1,8,0:0:0:0:
260,152,61751,6,0,P|344:192|440:160,1,200,2|2,0:0|0:0,0:0:0:0:
392,272,62280,1,8,0:0:0:0:
352,100,62457,2,0,P|300:188|208:216,1,200,2|2,0:0|0:0,0:0:0:0:
128,160,62986,1,8,0:0:0:0:
64,236,63163,2,0,P|112:316|208:356,1,200,2|2,0:0|0:0,0:0:0:0:
232,268,63692,5,8,0:0:0:0:
232,268,63868,1,8,0:0:0:0:
256,168,64045,1,8,0:0:0:0:
256,168,64221,1,8,0:0:0:0:
276,72,64398,1,8,0:0:0:0:
276,72,64574,1,8,0:0:0:0:
104,180,64751,5,8,0:0:0:0:
328,156,64927,1,8,0:0:0:0:
232,268,65104,1,8,0:0:0:0:
196,48,65280,6,0,L|168:92,1,50
104,180,65457,2,0,L|92:132,1,50
216,152,65633,2,0,L|228:204,1,50
132,288,65810,2,0,L|156:244,1,50
264,312,65986,2,0,P|360:344|436:284,1,200,4|0,0:0|0:0,0:0:0:0:
440,124,66515,6,0,P|392:152|364:192,1,100,8|2,0:0|0:0,0:0:0:0:
340,236,66780,1,0,0:0:0:0:
340,236,66868,1,8,0:0:0:0:
236,200,67045,1,2,0:0:0:0:
144,160,67221,1,8,0:0:0:0:
52,128,67398,2,0,P|36:176|40:224,1,100,2|0,0:0|0:0,0:0:0:0:
108,328,67751,6,0,P|160:332|208:316,1,100,0|8,0:0|0:0,0:0:0:0:
316,124,68104,2,0,P|264:120|216:136,1,100,0|2,0:0|0:0,0:0:0:0:
312,296,68457,1,2,0:0:0:0:
412,244,68633,1,0,0:0:0:0:
428,232,68721,1,0,0:0:0:0:
444,220,68810,2,0,P|384:144|284:124,1,200,6|2,0:0|0:0,0:0:0:0:
188,140,69339,5,8,0:0:0:0:
104,228,69515,1,2,0:0:0:0:
188,140,69692,1,8,0:0:0:0:
216,256,69868,1,10,0:0:0:0:
188,140,70045,1,8,0:0:0:0:
304,104,70221,6,0,P|332:144|340:196,1,100,4|0,0:0|0:0,0:0:0:0:
180,316,70574,1,2,0:0:0:0:
340,276,70751,1,10,0:0:0:0:
88,184,70927,2,0,P|68:236|76:284,1,100,4|0,0:0|0:0,0:0:0:0:
256,204,71280,1,2,0:0:0:0:
176,76,71457,1,8,0:0:0:0:
172,224,71633,6,0,P|244:276|348:252,1,200,4|2,0:0|0:0,0:0:0:0:
432,196,72163,1,10,0:0:0:0:
364,124,72339,2,0,P|300:204|260:296,1,200,2|2,0:0|0:0,0:0:0:0:
88,184,72868,1,8,0:0:0:0:
56,292,73045,6,0,L|148:332,1,100,2|0,0:0|0:0,0:0:0:0:
232,224,73398,1,2,0:0:0:0:
300,320,73574,1,8,0:0:0:0:
384,236,73751,2,0,L|476:276,1,100,2|0,0:0|0:0,0:0:0:0:
256,160,74104,1,2,0:0:0:0:
352,52,74280,5,0,0:0:0:0:
352,52,74368,1,0,0:0:0:0:
352,52,74457,2,0,P|268:100|172:80,1,200,4|2,0:0|0:0,0:0:0:0:
64,148,74986,2,0,L|156:196,1,100,8|2,0:0|0:0,0:0:0:0:
248,232,75339,1,8,0:0:0:0:
436,160,75515,1,2,0:0:0:0:
240,124,75692,1,8,0:0:0:0:
452,272,75868,1,2,0:0:0:0:
104,316,76221,5,8,0:0:0:0:
104,316,76398,1,8,0:0:0:0:
352,96,76751,6,0,L|368:148,1,50
452,208,76927,2,0,L|436:160,1,50
316,192,77104,2,0,L|332:244,1,50
408,296,77280,2,0,P|328:344|232:312,1,200,4|0,0:0|0:0,0:0:0:0:
168,236,77810,6,0,L|88:300,1,100,10|2,0:0|0:0,0:0:0:0:
48,328,78074,1,0,0:0:0:0:
48,328,78163,1,8,0:0:0:0:
16,224,78339,1,2,0:0:0:0:
64,124,78515,1,8,0:0:0:0:
160,72,78692,2,0,P|196:112|244:136,1,100,2|0,0:0|0:0,0:0:0:0:
404,148,79045,6,0,L|360:240,1,100,0|8,0:0|0:0,0:0:0:0:
216,324,79398,2,0,L|259:233,1,100,2|2,0:0|0:0,0:0:0:0:
268,72,79751,1,2,0:0:0:0:
168,228,79927,1,8,0:0:0:0:
220,152,80104,2,0,P|320:184|404:148,1,200,4|2,0:0|0:0,0:0:0:0:
484,208,80633,5,8,0:0:0:0:
388,264,80810,1,2,0:0:0:0:
388,264,80898,1,0,0:0:0:0:
388,264,80986,1,8,0:0:0:0:
312,108,81163,1,2,0:0:0:0:
256,232,81339,1,8,0:0:0:0:
176,64,81515,6,0,P|148:104|128:152,1,100,4|0,0:0|0:0,0:0:0:0:
96,280,81868,1,2,0:0:0:0:
256,232,82045,1,8,0:0:0:0:
312,108,82221,2,0,P|356:140|388:180,1,100,4|0,0:0|0:0,0:0:0:0:
256,288,82574,1,2,0:0:0:0:
408,328,82751,1,8,0:0:0:0:
428,132,82927,6,0,P|344:196|256:180,1,200,4|2,0:0|0:0,0:0:0:0:
164,140,83457,2,0,L|116:228,1,100,8|0,0:0|0:0,0:0:0:0:
64,312,83810,1,0,0:0:0:0:
272,284,83986,1,2,0:0:0:0:
196,360,84163,1,8,0:0:0:0:
296,180,84339,2,0,P|392:208|468:148,1,200,4|2,0:0|0:0,0:0:0:0:
368,80,84868,1,8,0:0:0:0:
152,80,85045,1,2,0:0:0:0:
256,140,85221,5,0,0:0:0:0:
256,160,85310,1,0,0:0:0:0:
256,180,85398,1,0,0:0:0:0:
256,200,85486,1,0,0:0:0:0:
256,220,85574,1,0,0:0:0:0:
256,240,85663,1,0,0:0:0:0:
256,260,85751,6,0,P|172:312|80:284,1,200,4|2,0:0|0:0,0:0:0:0:
80,172,86280,1,8,0:0:0:0:
436,212,86633,1,8,0:0:0:0:
80,248,86986,1,8,0:0:0:0:
216,80,87339,5,8,0:0:0:0:
364,120,87515,1,0,0:0:0:0:
364,120,87604,1,0,0:0:0:0:
364,120,87692,1,8,0:0:0:0:
320,220,87868,1,2,0:0:0:0:
268,316,88045,5,8,0:0:0:0:
228,140,88221,1,2,0:0:0:0:
152,228,88398,1,8,0:0:0:0:
112,52,88574,1,2,0:0:0:0:
80,156,88751,2,0,L|52:256,1,100,4|0,0:0|0:0,0:0:0:0:
120,368,89104,6,0,L|146:271,1,100,8|2,0:0|0:0,0:0:0:0:
176,164,89457,1,8,0:0:0:0:
276,208,89633,1,0,0:0:0:0:
384,180,89810,1,8,0:0:0:0:
284,100,89986,2,0,P|248:196|264:292,1,200,4|2,0:0|0:0,0:0:0:0:
304,372,90515,5,8,0:0:0:0:
436,308,90692,1,2,0:0:0:0:
276,236,90868,1,8,0:0:0:0:
468,160,91045,1,2,0:0:0:0:
244,96,91221,1,8,0:0:0:0:
380,64,91398,6,0,L|296:248,1,200,4|2,0:0|0:0,0:0:0:0:
168,308,91927,2,0,L|208:216,1,100,8|2,0:0|0:0,0:0:0:0:
248,104,92280,1,8,0:0:0:0:
128,124,92457,1,2,0:0:0:0:
248,104,92633,1,8,0:0:0:0:
208,216,92810,6,0,P|300:252|384:204,1,200,4|2,0:0|0:0,0:0:0:0:
368,84,93339,2,0,L|268:108,1,100,8|2,0:0|0:0,0:0:0:0:
128,124,93692,1,8,0:0:0:0:
268,36,93868,1,2,0:0:0:0:
72,228,94045,1,8,0:0:0:0:
244,188,94221,1,2,0:0:0:0:
156,288,94398,6,0,L|128:336,3,50
208,300,94751,2,0,L|204:356,3,50
260,288,95104,1,0,0:0:0:0:
308,272,95192,1,0,0:0:0:0:
356,264,95280,1,0,0:0:0:0:
408,272,95368,1,0,0:0:0:0:
456,292,95457,1,0,0:0:0:0:
412,164,95633,5,0,0:0:0:0:
100,164,95810,1,4,0:0:0:0:
412,164,95986,1,0,0:0:0:0:
256,104,96163,2,0,L|256:204,1,100,8|8,0:0|0:0,0:0:0:0:
256,244,96427,1,8,0:0:0:0:
256,244,96515,1,8,0:0:0:0:
160,80,96692,1,8,0:0:0:0:
352,80,96868,1,8,0:0:0:0:
160,224,97045,6,0,P|240:276|340:256,1,200,4|0,0:0|0:0,0:0:0:0:
424,204,97574,1,8,0:0:0:0:
288,144,97751,1,0,0:0:0:0:
424,204,97927,1,8,0:0:0:0:
416,64,98104,1,2,0:0:0:0:
416,64,98457,6,0,P|328:112|232:96,1,200,4|0,0:0|0:0,0:0:0:0:
264,276,98986,1,8,0:0:0:0:
168,148,99163,2,0,P|264:176|360:148,1,200,4|0,0:0|0:0,0:0:0:0:
448,100,99692,1,8,0:0:0:0:
500,208,99868,1,2,0:0:0:0:
220,344,100221,5,2,0:0:0:0:
220,344,100398,1,8,0:0:0:0:
212,224,100574,2,2,P|120:268|32:236,1,200,2|0,0:0|0:0,0:0:0:0:
108,84,101104,2,0,L|120:188,1,100,8|0,0:0|0:0,0:0:0:0:
232,140,101457,1,4,0:0:0:0:
344,100,101633,1,2,0:0:0:0:
336,220,101810,1,8,0:0:0:0:
448,180,101986,1,4,0:0:0:0:
396,288,102163,5,0,0:0:0:0:
360,316,102251,1,0,0:0:0:0:
316,320,102339,1,0,0:0:0:0:
272,308,102427,1,0,0:0:0:0:
232,288,102515,1,0,0:0:0:0:
192,304,102604,1,0,0:0:0:0:
152,324,102692,6,0,P|96:264|124:156,1,200,4|2,0:0|0:0,0:0:0:0:
192,88,103221,2,0,L|276:144,1,100,8|2,0:0|0:0,0:0:0:0:
364,192,103574,1,0,0:0:0:0:
440,100,103751,1,2,0:0:0:0:
364,192,103927,1,8,0:0:0:0:
352,72,104104,2,0,P|272:124|172:104,1,200,4|0,0:0|0:0,0:0:0:0:
96,280,104633,1,8,0:0:0:0:
136,192,104810,2,0,P|232:224|328:200,1,200,4|0,0:0|0:0,0:0:0:0:
416,156,105339,5,8,0:0:0:0:
416,156,105515,1,2,0:0:0:0:
364,48,105692,1,4,0:0:0:0:
240,92,105868,5,0,0:0:0:0:
204,116,105957,1,0,0:0:0:0:
176,152,106045,1,0,0:0:0:0:
80,132,106221,1,0,0:0:0:0:
68,176,106310,1,0,0:0:0:0:
76,220,106398,1,0,0:0:0:0:
0,272,106574,1,0,0:0:0:0:
24,312,106663,1,0,0:0:0:0:
60,340,106751,1,0,0:0:0:0:
256,364,106927,5,2,0:0:0:0:
400,224,107104,1,8,0:0:0:0:
256,88,107280,1,4,0:0:0:0:
256,88,107810,5,8,0:0:0:0:
184,172,107986,1,8,0:0:0:0:
208,280,108163,1,8,0:0:0:0:
124,348,108339,1,4,0:0:0:0:
256,192,108427,12,0,112045,0:0:0:0:
