osu file format v12

[General]
AudioFilename: SHINE RING.mp3
AudioLeadIn: 0
PreviewTime: 64922
Countdown: 0
SampleSet: Soft
StackLeniency: 0.7
Mode: 0
LetterboxInBreaks: 0

[Editor]
DistanceSpacing: 1
BeatDivisor: 4
GridSize: 4

[Metadata]
Title:SHINE RING (Short Ver.)
TitleUnicode:SHINE RING (Short Ver.)
Artist:Marie
ArtistUnicode:Marie
Creator:Hysteresis
Version:Easy
Source:Naka no Hito nado Inai! Tokyo Hero Project
Tags:PCgame Wreath h-728 Alcot visual novel opening
BeatmapID:211414
BeatmapSetID:74439

[Difficulty]
HPDrainRate:2
CircleSize:3
OverallDifficulty:2
ApproachRate:3
SliderMultiplier:0.8
SliderTickRate:1

[Events]
//Background and Video events
0,0,"BG.jpg",0,0
//Break Periods
//Storyboard Layer 0 (Background)
//Storyboard Layer 1 (Fail)
//Storyboard Layer 2 (Pass)
//Storyboard Layer 3 (Foreground)
//Storyboard Sound Samples
//Background Colour Transformations
3,100,163,162,255

[TimingPoints]
18163,352.941176470588,4,2,0,50,1,0
20810,-100,4,2,2,70,0,1
20898,-100,4,2,2,70,0,0
32280,-100,4,2,2,40,0,0
37221,-100,4,2,2,50,0,0
37751,-100,4,2,2,60,0,0
54339,-100,4,2,2,50,0,0
54515,-100,4,2,2,40,0,0
59457,-100,4,2,2,50,0,0
60515,-100,4,2,2,60,0,0
63692,-100,4,2,2,30,0,0
64045,-100,4,2,2,40,0,0
64398,-100,4,2,2,50,0,0
64751,-100,4,2,2,60,0,0
65986,-100,4,2,2,70,0,1
76398,-100,4,2,2,70,0,0
77280,-100,4,2,2,70,0,1
88751,-100,4,2,2,60,0,0
94751,-100,4,2,2,40,0,0
95457,-100,4,2,2,50,0,0
95633,-100,4,2,2,55,0,0
95810,-100,4,2,2,60,0,0
97045,-100,4,2,2,70,0,1
97133,-100,4,2,2,70,0,0
102162,-100,4,2,2,60,0,0
102692,-100,4,2,2,70,0,0
105692,-100,4,2,2,60,0,0
108868,-100,4,2,2,50,0,0
109574,-100,4,2,2,40,0,0
110280,-100,4,2,2,30,0,0
110986,-100,4,2,2,20,0,0
111692,-100,4,2,2,10,0,0
112045,-100,4,2,2,5,0,0

[Colours]
Combo1 : 255,128,64
Combo2 : 255,128,128
Combo3 : 255,255,128
Combo4 : 128,255,128
Combo5 : 128,255,255

[HitObjects]
256,192,19574,12,4,20810,0:0:0:0:
484,180,21692,6,0,L|352:156,1,120,2|4,0:0|0:0,0:0:0:0:
304,108,22574,2,0,L|300:64,2,40,2|8|4,0:0|0:0|0:0,0:0:0:0:
312,228,23457,1,8,0:0:0:0:
316,308,23810,6,0,L|228:288,1,80,2|8,0:0|0:0,0:0:0:0:
164,256,24515,2,0,P|164:216|180:180,1,80,2|8,0:0|0:0,0:0:0:0:
240,126,25221,5,4,0:0:0:0:
319,115,25574,1,8,0:0:0:0:
398,104,25927,1,2,0:0:0:0:
476,196,26457,6,0,P|424:220|360:216,1,120,4|8,0:0|0:0,0:0:0:0:
284,196,27339,2,0,L|180:256,1,120,0|4,0:0|0:0,0:0:0:0:
128,316,28221,2,0,L|136:360,2,40,8|2|4,0:0|0:0|0:0,0:0:0:0:
112,196,29104,1,8,0:0:0:0:
192,180,29457,6,0,L|356:148,2,160,4|2|4,0:0|0:0|0:0,0:0:0:0:
44,116,32280,5,4,0:0:0:0:
80,272,32986,6,0,P|148:308|224:288,1,160,2|2,0:0|0:0,0:0:0:0:
276,140,34398,2,0,P|352:124|424:160,1,160,2|2,0:0|0:0,0:0:0:0:
404,316,35810,6,0,P|324:332|256:296,1,160,2|2,0:0|0:0,0:0:0:0:
160,172,37221,2,0,L|280:140,1,120,2|4,0:0|0:0,0:0:0:0:
392,104,38280,6,0,P|404:140|404:184,1,80,8|2,0:0|0:0,0:0:0:0:
456,244,38986,2,0,P|420:260|376:256,1,80,8|2,0:0|0:0,0:0:0:0:
316,208,39692,2,0,P|276:208|240:224,2,80,8|2|8,0:0|0:0|0:0,0:0:0:0:
292,284,40751,6,0,P|300:328|292:368,1,80,2|8,0:0|0:0,0:0:0:0:
220,328,41457,2,0,P|180:332|140:320,1,80,2|8,0:0|0:0,0:0:0:0:
68,288,42163,1,2,0:0:0:0:
24,220,42515,1,8,0:0:0:0:
32,140,42868,2,0,L|68:112,1,40,2|4,0:0|0:0,0:0:0:0:
168,56,43574,6,0,P|224:108|308:116,1,160,4|2,0:0|0:0,0:0:0:0:
464,96,44986,2,0,P|496:168|476:248,1,160,2|2,0:0|0:0,0:0:0:0:
340,324,46398,6,0,P|268:348|188:320,1,160,2|2,0:0|0:0,0:0:0:0:
68,220,47810,1,2,0:0:0:0:
152,88,48515,2,0,L|260:140,1,120,2|4,0:0|0:0,0:0:0:0:
368,188,49574,6,0,P|360:232|340:264,1,80,8|2,0:0|0:0,0:0:0:0:
300,332,50280,2,0,P|260:328|224:308,1,80,8|2,0:0|0:0,0:0:0:0:
152,276,50986,2,0,P|120:304|96:344,2,80,8|2|8,0:0|0:0|0:0,0:0:0:0:
216,232,52045,6,0,P|272:244|336:232,1,120,8|8,0:0|0:0,0:0:0:0:
312,156,52927,2,0,P|272:148|232:156,1,80,8|4,0:0|0:0,0:0:0:0:
116,172,53810,1,8,0:0:0:0:
40,196,54163,2,0,L|24:160,2,40,8|8|8,0:0|0:0|0:0,0:0:0:0:
72,268,54868,6,0,P|128:328|204:336,1,160,4|8,0:0|0:0,0:0:0:0:
256,276,55927,1,2,0:0:0:0:
308,336,56280,6,0,P|388:328|440:272,1,160,2|8,0:0|0:0,0:0:0:0:
452,192,57339,1,2,0:0:0:0:
440,112,57692,6,0,P|380:96|320:92,1,120,4|2,0:0|0:0,0:0:0:0:
244,100,58574,2,0,P|251:137|276:176,1,80,8|8,0:0|0:0,0:0:0:0:
320,236,59280,2,0,L|284:260,1,40,2|8,0:0|0:0,0:0:0:0:
216,296,59810,1,2,0:0:0:0:
144,332,60163,1,8,0:0:0:0:
72,296,60515,6,0,L|12:244,1,80,2|8,0:0|0:0,0:0:0:0:
44,172,61221,2,0,L|100:112,1,80,2|8,0:0|0:0,0:0:0:0:
180,112,61927,2,0,L|240:164,1,80,2|8,0:0|0:0,0:0:0:0:
312,124,62633,2,0,L|372:176,1,80,2|8,0:0|0:0,0:0:0:0:
256,192,63162,12,4,65104,0:0:0:0:
200,332,65986,2,0,P|256:344|316:332,1,120,4|8,0:0|0:0,0:0:0:0:
392,304,66868,2,0,P|404:240|372:152,1,160,2|2,0:0|0:0,0:0:0:0:
332,84,67927,1,8,0:0:0:0:
256,108,68280,1,2,0:0:0:0:
180,136,68633,2,0,L|136:156,1,40,8|4,0:0|0:0,0:0:0:0:
32,192,69339,5,8,0:0:0:0:
72,264,69692,1,2,0:0:0:0:
112,332,70045,1,8,0:0:0:0:
260,276,70751,2,0,P|276:312|280:356,2,80,8|2|8,0:0|0:0|0:0,0:0:0:0:
228,200,71810,6,0,L|144:216,1,80,2|8,0:0|0:0,0:0:0:0:
72,228,72515,2,0,P|52:188|48:148,1,80,2|8,0:0|0:0,0:0:0:0:
40,72,73221,2,0,L|120:56,1,80,2|8,0:0|0:0,0:0:0:0:
200,48,73927,2,0,L|308:104,1,120,2|4,0:0|0:0,0:0:0:0:
408,164,74986,5,8,0:0:0:0:
332,184,75339,1,2,0:0:0:0:
256,204,75692,2,0,L|216:216,1,40,2|8,0:0|0:0,0:0:0:0:
140,232,76221,2,0,L|148:272,1,40,2|8,0:0|0:0,0:0:0:0:
404,312,77280,6,0,L|284:332,1,120,4|8,0:0|0:0,0:0:0:0:
208,344,78162,2,0,P|172:300|144:200,1,160,2|2,0:0|0:0,0:0:0:0:
148,120,79221,1,8,0:0:0:0:
224,144,79574,1,2,0:0:0:0:
300,168,79927,2,0,L|344:184,1,40,8|4,0:0|0:0,0:0:0:0:
452,220,80633,5,8,0:0:0:0:
328,320,81339,1,8,0:0:0:0:
200,224,82045,2,0,L|144:284,2,80,8|2|8,0:0|0:0|0:0,0:0:0:0:
252,164,83104,6,0,P|224:132|188:116,1,80,2|8,0:0|0:0,0:0:0:0:
112,92,83810,2,0,L|56:152,1,80,2|8,0:0|0:0,0:0:0:0:
16,220,84515,2,0,P|12:256|20:300,1,80,2|8,0:0|0:0,0:0:0:0:
92,336,85221,2,0,P|152:332|212:312,1,120,2|4,0:0|0:0,0:0:0:0:
316,256,86280,5,8,0:0:0:0:
456,336,86986,1,8,0:0:0:0:
480,176,87692,1,8,0:0:0:0:
340,100,88398,2,0,L|320:56,2,40,8|2|4,0:0|0:0|0:0,0:0:0:0:
364,176,89104,6,0,P|300:224|220:208,1,160,8|8,0:0|0:0,0:0:0:0:
72,160,90515,2,0,P|40:192|20:228,2,80,8|2|8,0:0|0:0|0:0,0:0:0:0:
256,192,91398,12,0,94045,0:0:0:0:
144,300,94751,6,0,P|184:300|220:284,1,80,8|2,0:0|0:0,0:0:0:0:
296,264,95457,2,0,L|316:300,2,40,8|8|4,0:0|0:0|0:0,0:0:0:0:
260,192,96162,1,2,0:0:0:0:
224,120,96515,1,8,0:0:0:0:
108,84,97045,6,0,P|92:140|100:200,1,120,4|8,0:0|0:0,0:0:0:0:
124,276,97927,2,0,L|248:252,1,120,2|4,0:0|0:0,0:0:0:0:
320,240,98810,6,0,L|332:280,2,40,2|8|4,0:0|0:0|0:0,0:0:0:0:
288,124,99692,1,8,0:0:0:0:
268,48,100045,6,0,P|228:56|192:76,1,80,2|8,0:0|0:0,0:0:0:0:
132,124,100751,2,0,P|136:164|148:204,1,80,2|8,0:0|0:0,0:0:0:0:
180,276,101457,5,4,0:0:0:0:
256,296,101810,1,8,0:0:0:0:
332,276,102162,1,2,0:0:0:0:
424,200,102692,6,0,L|308:160,1,120,4|8,0:0|0:0,0:0:0:0:
232,140,103574,2,0,P|184:180|128:200,1,120,2|4,0:0|0:0,0:0:0:0:
52,184,104457,6,0,L|36:136,2,40,2|8|4,0:0|0:0|0:0,0:0:0:0:
88,300,105339,1,8,0:0:0:0:
156,256,105692,6,0,P|232:236|320:256,2,160,4|0|4,0:0|0:0|0:0,0:0:0:0:
88,300,107457,2,0,L|48:328,2,40,0|0|0,0:0|0:0|0:0,0:0:0:0:
256,192,108339,12,0,112045,0:0:0:0:
