osu file format v10

[General]
AudioFilename: president.mp3
AudioLeadIn: 0
PreviewTime: 69455
Countdown: 0
SampleSet: Soft
StackLeniency: 0.7
Mode: 0
LetterboxInBreaks: 1

[Editor]
DistanceSpacing: 1
BeatDivisor: 4
GridSize: 4

[Metadata]
Title:Rocket Love Panic!
TitleUnicode:Rocket Love Panic!
Artist:Marie
ArtistUnicode:Marie
Creator:Fionana
Version:Normal
Source:Osananajimi wa Daitouryou My girlfriend is the PRESIDENT.
Tags:alcot Quilt KayeSara opening eroge
BeatmapID:173873
BeatmapSetID:57359

[Difficulty]
HPDrainRate:3
CircleSize:4
OverallDifficulty:3
ApproachRate:4
SliderMultiplier:1.2
SliderTickRate:1

[Events]
//Background and Video events
0,0,"bg.jpg"
Video,0,"OvO.avi"
//Break Periods
2,31153,33428
//Storyboard Layer 0 (Background)
//Storyboard Layer 1 (Fail)
//Storyboard Layer 2 (Pass)
//Storyboard Layer 3 (Foreground)
//Storyboard Sound Samples
//Background Colour Transformations
3,100,163,162,255

[TimingPoints]
5833,361.44578313253,4,2,1,100,1,0
17399,-100,4,2,1,80,0,1
17489,-100,4,2,1,70,0,0
22369,-100,4,2,1,50,0,0
22549,-100,4,2,1,70,0,0
28784,-100,4,2,1,30,0,0
31134,-100,4,2,1,60,0,0
34658,-100,4,2,1,50,0,0
34839,-100,4,2,1,60,0,0
56887,-100,4,2,1,65,0,0
57067,-100,4,2,1,70,0,0
57429,-100,4,2,1,60,0,0
57790,-100,4,2,1,50,0,0
61676,-100,4,2,1,60,0,0
69447,-100,4,2,1,70,0,1
81013,-100,4,2,1,60,0,0
81375,-100,4,2,1,70,0,1
93845,-100,4,2,1,60,0,0
96646,-100,4,2,1,50,0,0
96826,-100,4,2,1,60,0,0
97911,-100,4,2,1,20,0,0
99266,-100,4,2,1,25,0,0
99628,-100,4,2,1,30,0,0
99989,-100,4,2,1,35,0,0
100351,-100,4,2,1,40,0,0
100531,-100,4,2,1,20,0,0

[Colours]
Combo1 : 129,254,160
Combo2 : 152,123,253
Combo3 : 113,241,255
Combo4 : 254,158,112

[HitObjects]
68,264,17399,2,0,B|188:264,1,120,4|8,0:0|0:0,0:0:0
292,320,18122,1,0,0:0:0
360,220,18483,2,0,B|408:180|472:188,2,120,8|0|8,0:0|0:0|0:0,0:0:0
252,164,19567,1,0,0:0:0
176,72,19929,2,0,B|108:56|60:108,1,120,8|0,0:0|0:0,0:0:0
152,184,20652,6,0,B|184:300,1,120,8|0,0:0|0:0,0:0:0
200,356,21194,1,0,0:0:0
308,300,21555,2,0,B|372:320|432:284,1,120,4|0,0:0|0:0,0:0:0
460,240,22098,1,8,0:0:0
352,188,22459,2,0,B|288:168|228:204,1,120,4|8,0:0|0:0,0:0:0
140,272,23182,6,0,B|84:308|20:288,1,120,4|8,0:0|0:0,0:0:0
68,176,23905,2,0,B|60:112|120:72,1,120,0|8,0:0|0:0,0:0:0
236,56,24628,1,0,0:0:0
332,128,24989,2,0,B|384:168|452:144,2,120,8|0|8,0:0|0:0|0:0,0:0:0
276,152,25893,6,0,B|288:220|232:260,1,120,4|0,0:0|0:0,0:0:0
188,296,26435,1,8,0:0:0
80,248,26796,1,0,0:0:0
104,132,27158,2,0,B|173:111,1,60,8|4,0:0|0:0,0:0:0
312,76,27881,6,0,B|344:140|424:132,1,120,8|4,0:0|0:0,0:0:0
504,60,28604,1,8,0:0:0
256,192,28784,12,0,30953,0:0:0
372,96,34748,6,0,B|420:140|408:216,1,120,4|8,0:0|0:0,0:0:0
372,320,35471,1,0,0:0:0
264,268,35832,1,8,0:0:0
152,316,36194,2,0,B|92:284|28:312,2,120,0|8|0,0:0|0:0|0:0,0:0:0
184,200,37278,1,8,0:0:0
216,84,37640,6,0,B|284:104|292:176,1,120,0|8,0:0|0:0,0:0:0
300,288,38363,2,0,B|352:252|420:272,1,120,0|8,0:0|0:0,0:0:0
472,284,38905,1,2,0:0:0
440,168,39266,2,0,B|504:168,2,60,2|8|2,0:0|0:0|0:0,0:0:0
380,176,39808,2,0,B|316:196|264:148,1,120,2|8,0:0|0:0,0:0:0
216,44,40531,6,0,B|148:64|136:136,1,120,0|8,0:0|0:0,0:0:0
140,248,41254,2,0,B|208:236|260:296,1,120,0|8,0:0|0:0,0:0:0
304,312,41796,2,0,B|368:340|424:308,1,120
468,272,42339,1,8,0:0:0
432,160,42700,1,0,0:0:0
444,44,43061,6,0,B|384:20|324:44,1,120,8|0,0:0|0:0,0:0:0
224,100,43784,2,0,B|168:132|108:108,2,120,8|0|8,0:0|0:0|0:0,0:0:0
280,80,44688,1,4,0:0:0
284,200,45049,2,0,B|328:248|308:320,1,120,0|4,0:0|0:0,0:0:0
196,272,45772,1,0,0:0:0
136,280,45953,2,0,B|16:292,1,120,8|4,0:0|0:0,0:0:0
76,188,46676,6,0,B|64:56,2,120,8|0|8,0:0|0:0|0:0,0:0:0
172,116,47760,1,0,0:0:0
256,200,48122,2,0,B|316:224|376:196,2,120,8|0|8,0:0|0:0|0:0,0:0:0
172,116,49206,6,0,B|124:160|140:236,1,120,0|8,0:0|0:0,0:0:0
24,268,49929,2,0,B|72:224|56:148,1,120,0|8,0:0|0:0,0:0:0
36,104,50471,1,2,0:0:0
136,36,50832,1,2,0:0:0
256,52,51194,1,4,0:0:0
304,92,51375,2,0,B|356:132|436:112,1,120,0|8,0:0|0:0,0:0:0
420,236,52098,6,0,B|292:236,1,120,0|8,0:0|0:0,0:0:0
192,184,52820,2,0,B|124:164|72:204,1,120,0|8,0:0|0:0,0:0:0
36,244,53363,1,2,0:0:0
144,296,53724,1,2,0:0:0
192,184,54086,2,0,B|248:76,1,120
304,60,54628,5,8,0:0:0
360,80,54808,2,0,B|416:120|488:100,1,120,4|0,0:0|0:0,0:0:0
400,200,55531,2,0,B|344:160|272:180,1,120,4|0,0:0|0:0,0:0:0
176,224,56254,2,0,B|144:276|68:272,2,120,4|8|8,0:0|0:0|0:0,0:0:0
148,108,57339,2,0,B|84:100,1,60,8|4,0:0|0:0,0:0:0
196,44,57881,6,0,B|276:92|380:52,1,180,4|8,0:0|0:0,0:0:0
444,152,58784,1,0,0:0:0
388,176,58965,2,0,B|272:212,1,120,8|2,0:0|0:0,0:0:0
160,248,59688,2,0,B|96:268,1,60,8|2,0:0|0:0,0:0:0
204,328,60230,5,0,0:0:0
264,324,60411,2,0,B|312:284|380:296,1,120,8|2,0:0|0:0,0:0:0
440,192,61134,2,0,B|480:148,1,60,8|2,0:0|0:0,0:0:0
376,84,61676,6,0,B|248:84,1,120,0|2,0:0|0:0,0:0:0
172,168,62399,1,2,0:0:0
56,140,62760,1,2,0:0:0
44,320,63302,5,8,0:0:0
156,288,63664,2,0,B|220:272|272:312,1,120,4|0,0:0|0:0,0:0:0
328,316,64206,2,0,B|400:328|440:280,1,120,4|0,0:0|0:0,0:0:0
408,168,64929,2,0,B|336:156|296:204,1,120,4|0,0:0|0:0,0:0:0
244,224,65471,1,8,0:0:0
140,164,65832,1,0,0:0:0
32,216,66194,1,8,0:0:0
76,328,66555,6,0,B|140:352|196:324,1,120,4|8,0:0|0:0,0:0:0
248,304,67098,1,2,0:0:0
364,336,67459,1,2,0:0:0
476,296,67820,2,0,B|460:232|388:216,1,120,4|0,0:0|0:0,0:0:0
276,184,68543,2,0,B|209:169|193:105,1,120,4|0,0:0|0:0,0:0:0
176,48,69086,1,2,0:0:0
96,136,69447,6,0,B|96:264,1,120,4|8,0:0|0:0,0:0:0
196,324,70170,1,0,0:0:0
312,292,70531,2,0,B|376:264|440:296,1,120,8|0,0:0|0:0,0:0:0
480,180,71254,1,8,0:0:0
372,132,71616,2,0,B|308:160|244:128,1,120,0|8,0:0|0:0,0:0:0
316,28,72339,5,0,0:0:0
256,133,72700,2,0,B|228:193|268:249,1,120,8|0,0:0|0:0,0:0:0
156,196,73423,2,0,B|28:196,1,120,8|0,0:0|0:0,0:0:0
96,92,74146,1,8,0:0:0
156,196,74507,1,0,0:0:0
100,304,74869,1,8,0:0:0
220,304,75230,6,0,B|280:340|336:304,1,120,4|8,0:0|0:0,0:0:0
420,220,75953,1,0,0:0:0
492,124,76314,2,0,B|440:84|380:108,1,120,8|0,0:0|0:0,0:0:0
272,52,77037,2,0,B|196:44|168:116,1,120,8|0,0:0|0:0,0:0:0
156,224,77760,1,8,0:0:0
216,224,77941,6,0,B|320:216|364:312,1,180,0|8,0:0|0:0,0:0:0
244,324,78845,2,0,B|120:324,1,120,0|8,0:0|0:0,0:0:0
88,276,79387,2,0,B|68:212|4:192,2,120,4|0|4,0:0|0:0|0:0,0:0:0
188,212,80471,2,0,B|280:260|364:208,1,180,4|0,0:0|0:0,0:0:0
468,264,81375,6,0,B|436:324|360:328,1,120,4|0,0:0|0:0,0:0:0
248,344,82098,2,0,B|216:284|136:292,1,120,8|0,0:0|0:0,0:0:0
124,172,82820,2,0,B|56:179|24:119,2,120,8|0|8,0:0|0:0|0:0,0:0:0
124,52,83905,5,0,0:0:0
228,112,84266,1,8,0:0:0
328,48,84628,2,0,B|368:100|340:160,1,120,0|8,0:0|0:0,0:0:0
296,200,85170,2,0,B|188:192|156:296,1,180,0|8,0:0|0:0,0:0:0
264,348,86073,2,0,B|336:360|384:312,1,120,0|8,0:0|0:0,0:0:0
468,236,86796,5,4,0:0:0
472,116,87158,2,0,B|412:88|352:112,1,120,8|0,0:0|0:0,0:0:0
240,80,87881,2,0,B|184:116|112:84,2,120,8|0|8,0:0|0:0|0:0,0:0:0
284,192,88965,1,0,0:0:0
248,308,89326,5,8,0:0:0
156,232,89688,2,0,B|104:272|40:248,2,120,0|8|0,0:0|0:0|0:0,0:0:0
188,116,90772,1,8,0:0:0
300,72,91134,2,0,B|352:32|416:48,2,120,0|8|0,0:0|0:0|0:0,0:0:0
380,164,92218,1,8,0:0:0
356,220,92399,6,0,B|316:304|200:308,1,180,4|8,0:0|0:0,0:0:0
232,184,93302,2,0,B|192:132|124:140,1,120,0|8,0:0|0:0,0:0:0
68,144,93845,1,2,0:0:0
148,304,94387,6,0,B|188:356|256:348,1,120,0|2,0:0|0:0,0:0:0
372,340,95110,2,0,B|444:320,1,60,8|2,0:0|0:0,0:0:0
456,208,95652,5,8,0:0:0
468,148,95832,2,0,B|492:84|456:28,1,120,8|0,0:0|0:0,0:0:0
360,100,96555,2,0,B|296:100,1,60,8|4,0:0|0:0,0:0:0
256,212,97098,2,0,B|256:272,2,60,0|8|0,0:0|0:0|0:0,0:0:0
256,192,98001,12,0,100531,0:0:0
