osu file format v12

[General]
AudioFilename: Kiss Bell.mp3
AudioLeadIn: 0
PreviewTime: 63911
Countdown: 0
SampleSet: Soft
StackLeniency: 0.4
Mode: 0
LetterboxInBreaks: 0

[Editor]
DistanceSpacing: 1
BeatDivisor: 4
GridSize: 4

[Metadata]
Title:Koizora (Short Ver.)
TitleUnicode:恋空 (Short Ver.)
Artist:Marie
ArtistUnicode:まりえ
Creator:Tari
Version:Normal
Source:Kiss Bell
Tags:opening eroge visual novel galgame taris uws unitedwesin giga let's sound the kissing bell of the promise
BeatmapID:261929
BeatmapSetID:98136

[Difficulty]
HPDrainRate:3
CircleSize:3
OverallDifficulty:4
ApproachRate:5
SliderMultiplier:1.25
SliderTickRate:1

[Events]
//Background and Video events
0,0,"giga.jpg",0,0
Video,0,"Kiss Bell (1).avi"
//Break Periods
//Storyboard Layer 0 (Background)
//Storyboard Layer 1 (Fail)
//Storyboard Layer 2 (Pass)
//Storyboard Layer 3 (Foreground)
//Storyboard Sound Samples
//Background Colour Transformations
3,100,163,162,255

[TimingPoints]
4260,348.837209302326,4,2,1,45,1,0
16818,-100,4,2,1,70,0,0
27980,-100,4,2,1,65,0,0
39143,-100,4,2,1,70,0,0
50306,-100,4,2,1,65,0,0
58678,-100,4,2,1,70,0,0
64260,-100,4,2,1,80,0,1
75422,-100,4,2,1,80,0,1
81178,-100,4,2,2,80,0,1
81527,-100,4,2,1,80,0,1
82573,-100,4,2,2,80,0,1
82922,-100,4,2,1,80,0,1
84754,-100,4,2,2,80,0,1
84928,-100,4,2,1,80,0,1
86847,-100,4,2,2,80,0,1
87021,-100,4,2,1,80,0,1
87980,-100,4,2,1,80,0,1
89376,-100,4,2,1,80,0,0
96265,-100,4,2,1,5,0,0

[Colours]
Combo1 : 255,128,66
Combo2 : 204,57,253
Combo3 : 255,125,190
Combo4 : 255,40,40
Combo5 : 0,138,138
SliderBorder : 255,255,255

[HitObjects]
436,300,5306,1,0,0:0:0:0:
376,192,5655,6,0,P|396:144|356:68,1,125,2|0,0:0|0:0,0:0:0:0:
248,100,6353,2,0,L|124:80,1,125,2|0,0:0|0:0,0:0:0:0:
36,168,7050,2,0,P|28:280|148:332,1,250,0|2,0:0|0:0,0:0:0:0:
136,224,8097,1,0,0:0:0:0:
248,296,8446,6,0,P|296:264|364:280,1,125,2|0,0:0|0:0,0:0:0:0:
468,216,9143,2,0,L|440:92,1,125,2|0,0:0|0:0,0:0:0:0:
316,76,9841,1,2,0:0:0:0:
192,60,10190,1,0,0:0:0:0:
72,88,10539,6,0,L|20:212,1,125,2|0,0:0|0:0,0:0:0:0:
132,268,11236,2,0,P|159:312|233:346,2,125,2|0|2,0:0|0:0|0:0,0:0:0:0:
368,180,12632,2,0,P|416:160|496:176,2,125,2|0|2,0:0|0:0|0:0,0:0:0:0:
256,128,13678,1,0,0:0:0:0:
140,80,14027,6,0,P|77:98|10:73,1,125,2|0,0:0|0:0,0:0:0:0:
28,144,14550,2,0,L|16:212,1,62.5,0|2,0:0|0:0,0:0:0:0:
48,320,15073,1,0,0:0:0:0:
168,288,15422,2,0,P|252:324|340:280,2,187.5,2|0|8,0:0|0:0|0:0,0:0:0:0:
252,196,16818,5,4,0:0:0:0:
452,48,17515,2,0,L|420:176,1,125,2|0,0:0|0:0,0:0:0:0:
480,192,18039,2,0,L|496:324,1,125,8|0,0:0|0:0,0:0:0:0:
436,336,18562,1,0,0:0:0:0:
320,296,18911,2,0,P|248:284|176:296,1,125,2|0,0:0|0:0,0:0:0:0:
76,324,19608,5,2,0:0:0:0:
44,76,20306,2,0,L|188:60,1,125,2|0,0:0|0:0,0:0:0:0:
164,124,20829,2,0,L|304:144,1,125,8|0,0:0|0:0,0:0:0:0:
332,100,21353,1,0,0:0:0:0:
436,168,21701,2,0,L|456:88,2,62.5,0|8|0,0:0|0:0|0:0,0:0:0:0:
440,292,22399,5,4,0:0:0:0:
192,292,23097,2,0,P|140:332|68:308,1,125,2|0,0:0|0:0,0:0:0:0:
68,264,23620,2,0,P|120:224|174:233,1,125,8|0,0:0|0:0,0:0:0:0:
236,252,24143,1,0,0:0:0:0:
248,128,24492,1,2,0:0:0:0:
344,48,24841,1,0,0:0:0:0:
460,96,25190,6,0,L|480:232,1,125,2|0,0:0|0:0,0:0:0:0:
404,320,25887,2,0,L|376:128,2,187.5,2|2|0,0:0|0:0|0:0,0:0:0:0:
280,312,27283,2,0,L|140:328,1,125,2|0,0:0|0:0,0:0:0:0:
40,280,27980,5,4,0:0:0:0:
28,156,28329,2,0,L|80:120,1,62.5,0|0,0:0|0:0,0:0:0:0:
140,112,28678,2,0,P|176:124|264:100,1,125,0|0,0:0|0:0,0:0:0:0:
368,44,29376,2,0,P|412:80|432:144,1,125,2|0,0:0|0:0,0:0:0:0:
460,264,30073,1,2,0:0:0:0:
356,336,30422,1,0,0:0:0:0:
244,284,30771,6,0,P|188:304|112:268,1,125,2|0,0:0|0:0,0:0:0:0:
76,248,31294,1,0,0:0:0:0:
40,200,31469,2,0,L|24:64,1,125,0|0,0:0|0:0,0:0:0:0:
140,132,32166,2,0,P|184:144|256:104,1,125,2|0,0:0|0:0,0:0:0:0:
372,76,32864,2,0,P|428:60|468:124,1,125,2|0,0:0|0:0,0:0:0:0:
436,224,33562,5,2,0:0:0:0:
332,296,33911,2,0,L|256:324,1,62.5,0|0,0:0|0:0,0:0:0:0:
216,288,34260,2,0,P|144:272|88:304,1,125,0|0,0:0|0:0,0:0:0:0:
40,180,34957,2,0,P|80:132|92:64,1,125,2|0,0:0|0:0,0:0:0:0:
208,96,35655,2,0,L|348:116,1,125,2|0,0:0|0:0,0:0:0:0:
432,188,36353,5,2,0:0:0:0:
340,272,36701,2,0,P|304:328|232:344,1,125,0|0,0:0|0:0,0:0:0:0:
140,288,37399,1,0,0:0:0:0:
16,268,37748,2,0,P|4:200|24:136,1,125,2|0,0:0|0:0,0:0:0:0:
128,88,38446,1,4,3:0:0:0:
196,192,38794,1,4,3:0:0:0:
272,92,39143,6,0,L|416:72,1,125,4|0,0:0|0:0,0:0:0:0:
432,196,39841,2,0,L|484:152,2,62.5,0|0|0,0:0|0:0|0:0,0:0:0:0:
428,260,40364,2,0,P|372:280|308:252,1,125,2|0,0:0|0:0,0:0:0:0:
264,296,40887,2,0,L|128:308,1,125,0|0,0:0|0:0,0:0:0:0:
44,224,41585,1,0,0:0:0:0:
160,188,41934,6,0,P|168:132|144:68,1,125,2|0,0:0|0:0,0:0:0:0:
268,56,42632,2,0,L|420:72,1,125,0|0,0:0|0:0,0:0:0:0:
436,124,43155,2,0,P|424:168|448:252,1,125,2|0,0:0|0:0,0:0:0:0:
468,300,43678,1,0,0:0:0:0:
344,288,44027,6,0,L|304:164,2,125,2|0|4,0:0|0:0|0:0,0:0:0:0:
220,312,45073,1,0,0:0:0:0:
96,328,45422,1,0,0:0:0:0:
40,216,45771,2,0,L|24:128,2,62.5,0|2|0,0:0|0:0|0:0,0:0:0:0:
164,188,46469,5,0,0:0:0:0:
288,208,46818,1,2,0:0:0:0:
364,308,47166,1,0,0:0:0:0:
448,216,47515,6,0,B|464:172|464:172|448:128|472:80,1,125,4|0,0:0|0:0,0:0:0:0:
408,72,48039,2,0,B|344:100|344:100|284:104,1,125,4|0,0:0|0:0,0:0:0:0:
223,103,48562,2,0,B|168:100|168:100|104:72,1,125,4|0,0:0|0:0,0:0:0:0:
52,252,49434,2,0,L|184:264,1,125,8|8,0:0|0:0,0:0:0:0:
364,284,50306,5,4,0:0:0:0:
460,204,50655,2,0,P|408:188|364:128,1,125,0|8,0:0|0:0,0:0:0:0:
328,84,51178,2,0,L|204:72,1,125,0|0,0:0|0:0,0:0:0:0:
144,96,51701,1,2,0:0:0:0:
88,208,52050,2,0,P|32:256|18:330,2,125,0|8|0,0:0|0:0|0:0,0:0:0:0:
156,316,53097,6,0,L|280:336,1,125,2|0,0:0|0:0,0:0:0:0:
360,236,53794,2,0,L|232:216,1,125,8|0,0:0|0:0,0:0:0:0:
176,200,54318,1,0,0:0:0:0:
144,148,54492,2,0,P|128:96|176:48,1,125,2|0,0:0|0:0,0:0:0:0:
292,52,55190,2,0,L|420:72,1,125,8|0,0:0|0:0,0:0:0:0:
468,184,55887,5,4,0:0:0:0:
368,260,56236,2,0,P|312:284|272:356,1,125,0|8,0:0|0:0,0:0:0:0:
216,328,56760,2,0,L|88:320,1,125,0|0,0:0|0:0,0:0:0:0:
32,304,57283,1,2,0:0:0:0:
100,200,57632,2,0,P|52:152|36:96,2,125,0|8|0,0:0|0:0|0:0,0:0:0:0:
176,100,58678,6,0,B|208:140|248:152|248:152|240:96|296:48,1,187.5,4|2,0:0|0:0,0:0:0:0:
436,168,59725,2,0,B|404:208|364:220|364:220|372:164|316:116,1,187.5,4|2,0:0|0:0,0:0:0:0:
360,316,60771,1,2,0:0:0:0:
256,244,61120,1,0,0:0:0:0:
136,212,61469,6,0,B|152:316|80:344|80:344|0:312|19:208,1,312.5,4|0,0:0|0:0,0:0:0:0:
228,92,62864,2,0,B|272:68|272:68|304:76|348:68,2,125,2|0|2,0:0|0:0|0:0,0:0:0:0:
264,212,63911,1,8,0:0:0:0:
380,256,64260,6,0,P|360:296|284:336,1,125,4|8,0:0|0:0,0:0:0:0:
264,212,64957,1,0,0:0:0:0:
172,296,65306,1,8,0:0:0:0:
172,296,65480,2,0,P|120:280|52:332,1,125,2|0,0:0|0:0,0:0:0:0:
24,264,66004,2,0,P|12:204|16:136,1,125,8|2,0:0|0:0,0:0:0:0:
104,52,66701,1,8,0:0:0:0:
220,96,67050,6,0,P|272:76|336:120,1,125,2|8,0:0|0:0,0:0:0:0:
264,212,67748,1,0,0:0:0:0:
388,204,68097,1,8,0:0:0:0:
388,204,68271,2,0,P|372:256|396:328,1,125,2|0,0:0|0:0,0:0:0:0:
328,324,68794,2,0,P|264:332|196:328,1,125,8|2,0:0|0:0,0:0:0:0:
116,240,69492,1,8,0:0:0:0:
8,180,69841,5,2,0:0:0:0:
112,112,70190,2,0,B|148:100|176:64|176:64|220:80|260:60|260:60|284:96|348:116,2,250,4|8|8,0:0|0:0|0:0,0:0:0:0:
8,180,71934,1,0,0:0:0:0:
36,304,72283,1,8,0:0:0:0:
148,248,72632,6,0,P|164:292|244:328,2,125,4|8|0,0:0|0:0|0:0,0:0:0:0:
268,220,73678,1,8,0:0:0:0:
372,288,74027,2,0,L|512:320,2,125,2|8|2,0:0|0:0|0:0,0:0:0:0:
348,164,75073,1,8,0:0:0:0:
264,72,75422,6,0,P|216:80|160:152,1,125,4|8,0:0|0:0,0:0:0:0:
44,164,76120,1,0,0:0:0:0:
24,288,76469,1,8,0:0:0:0:
24,288,76643,2,0,L|152:320,1,125,2|0,0:0|0:0,0:0:0:0:
204,340,77166,2,0,P|192:288|212:208,1,125,8|2,0:0|0:0,0:0:0:0:
316,276,77864,1,8,0:0:0:0:
436,244,78213,6,0,P|444:184|424:116,1,125,2|8,0:0|0:0,0:0:0:0:
316,68,78911,1,0,0:0:0:0:
192,44,79260,1,8,0:0:0:0:
192,44,79434,2,0,P|160:100|80:116,1,125,2|0,0:0|0:0,0:0:0:0:
48,100,79957,1,8,0:0:0:0:
56,224,80306,2,0,L|132:340,1,125,2|0,0:0|0:0,0:0:0:0:
248,316,81004,6,0,B|296:356|364:320|364:320|416:276|500:320,1,250,4|0,0:0|0:0,0:0:0:0:
444,192,82050,1,8,0:0:0:0:
482,72,82399,2,0,B|416:108|364:64|364:64|296:28|248:68,1,250,2|0,0:0|0:0,0:0:0:0:
124,48,83446,1,8,0:0:0:0:
68,160,83794,6,0,P|128:172|192:144,1,125,4|8,0:0|0:0,0:0:0:0:
256,252,84492,2,0,P|304:312|412:344,2,187.5,2|2|8,0:0|0:0|0:0,0:0:0:0:
376,216,85887,2,0,L|376:92,1,125,0|8,0:0|0:0,0:0:0:0:
256,132,86585,6,0,P|208:72|100:40,2,187.5,4|0|8,0:0|0:0|0:0,0:0:0:0:
136,168,87980,2,0,P|88:208|36:340,2,187.5,2|2|8,0:0|0:0|0:0,0:0:0:0:
216,264,89376,6,0,P|316:324|424:264,1,250,4|8,0:0|0:0,0:0:0:0:
412,140,90422,1,0,0:0:0:0:
296,88,90771,2,0,L|360:52,2,62.5,2|0|0,0:0|0:0|0:0,0:0:0:0:
176,120,91469,2,0,L|48:112|48:112,1,125,8|0,0:0|0:0,0:0:0:0:
112,220,92166,2,0,L|248:228,1,125,2|0,0:0|0:0,0:0:0:0:
360,248,92864,6,0,B|436:300|436:300|476:200,1,187.5,2|4,0:0|0:0,0:0:0:0:
256,192,93475,12,0,96353,0:0:0:0:
