osu file format v12

[General]
AudioFilename: Kiss Bell.mp3
AudioLeadIn: 0
PreviewTime: 63911
Countdown: 0
SampleSet: Soft
StackLeniency: 0.4
Mode: 0
LetterboxInBreaks: 0

[Editor]
DistanceSpacing: 1
BeatDivisor: 4
GridSize: 4

[Metadata]
Title:Koizora (Short Ver.)
TitleUnicode:恋空 (Short Ver,)
Artist:Marie
ArtistUnicode:まりえ
Creator:Tari
Version:Hard
Source:Kiss Bell
Tags:opening eroge visual novel galgame taris uws unitedwesin giga let's sound the kissing bell of the promise
BeatmapID:261928
BeatmapSetID:98136

[Difficulty]
HPDrainRate:6
CircleSize:4
OverallDifficulty:7
ApproachRate:8
SliderMultiplier:1.65
SliderTickRate:2

[Events]
//Background and Video events
0,0,"giga.jpg",0,0
Video,0,"Kiss Bell (1).avi"
//Break Periods
//Storyboard Layer 0 (Background)
//Storyboard Layer 1 (Fail)
//Storyboard Layer 2 (Pass)
//Storyboard Layer 3 (Foreground)
//Storyboard Sound Samples
//Background Colour Transformations
3,100,163,162,255

[TimingPoints]
4260,348.837209302326,4,2,1,45,1,0
5306,-133.333333333333,4,2,1,45,0,0
16818,-100,4,2,1,70,0,0
27980,-100,4,2,1,65,0,0
39143,-100,4,2,1,70,0,0
47079,-100,4,2,1,45,0,0
47254,-100,4,2,1,70,0,0
50306,-100,4,2,1,65,0,0
58678,-100,4,2,1,70,0,0
61469,-133.333333333333,4,2,1,45,0,0
62864,-133.333333333333,4,2,1,70,0,0
64260,-100,4,2,1,80,0,1
69405,-100,4,2,1,55,0,1
69579,-100,4,2,1,80,0,1
75422,-100,4,2,1,80,0,1
81004,-100,4,2,1,80,0,1
87980,-100,4,2,1,80,0,1
89376,-100,4,2,1,80,0,0
96265,-100,4,2,1,5,0,0

[Colours]
Combo1 : 255,128,66
Combo2 : 204,57,253
Combo3 : 255,125,190
Combo4 : 255,40,40
Combo5 : 0,138,138
SliderBorder : 255,255,255

[HitObjects]
164,332,5306,1,0,0:0:0:0:
100,212,5655,6,0,P|171:184|179:144,1,123.750004720688,2|0,0:0|0:0,0:0:0:0:
284,52,6353,2,0,L|360:164,1,123.750004720688,2|0,0:0|0:0,0:0:0:0:
412,192,6876,1,0,0:0:0:0:
372,248,7050,2,0,P|312:276|280:344,2,123.750004720688,0|0|2,0:0|0:0|0:0,0:0:0:0:
256,176,8097,1,0,0:0:0:0:
164,76,8446,6,0,P|104:68|60:120,1,123.750004720688,2|0,0:0|0:0,0:0:0:0:
24,240,9143,2,0,L|132:312,1,123.750004720688,2|0,0:0|0:0,0:0:0:0:
188,340,9666,1,0,0:0:0:0:
240,296,9841,2,0,P|284:264|372:272,1,123.750004720688,2|0,0:0|0:0,0:0:0:0:
468,192,10539,1,2,0:0:0:0:
412,68,10887,1,0,0:0:0:0:
280,28,11236,6,0,P|228:52|216:136,1,123.750004720688,2|0,0:0|0:0,0:0:0:0:
72,108,11934,2,0,P|68:165|137:215,1,123.750004720688,2|0,0:0|0:0,0:0:0:0:
140,344,12632,2,0,P|196:337|234:261,1,123.750004720688,2|0,0:0|0:0,0:0:0:0:
368,312,13329,2,0,P|383:256|326:193,1,123.750004720688,2|0,0:0|0:0,0:0:0:0:
344,136,13853,1,0,0:0:0:0:
324,72,14027,6,0,L|188:72,1,123.750004720688,2|0,0:0|0:0,0:0:0:0:
140,40,14550,1,0,0:0:0:0:
124,108,14725,2,0,P|140:176|128:244,1,123.750004720688,2|0,0:0|0:0,0:0:0:0:
0,220,15422,2,0,B|28:256|16:308|16:308|72:300|124:340,1,185.625007081032,2|0,0:0|0:0,0:0:0:0:
228,268,16294,1,8,0:0:0:0:
228,268,16382,1,0,0:0:0:0:
228,268,16469,1,0,0:0:0:0:
396,356,16818,6,0,B|456:348|456:348|496:304|488:240,1,165,4|0,0:0|0:0,0:0:0:0:
324,200,17515,2,0,P|316:152|328:120,1,82.5,2|0,0:0|0:0,0:0:0:0:
400,160,17864,1,0,0:0:0:0:
396,76,18039,2,0,P|360:44|256:80,1,165,8|0,0:0|0:0,0:0:0:0:
184,112,18562,2,0,L|100:100,1,82.5,0|0,0:0|0:0,0:0:0:0:
44,160,18911,2,0,L|60:256,1,82.5,2|0,0:0|0:0,0:0:0:0:
136,264,19260,2,0,L|184:188,1,82.5,0|0,0:0|0:0,0:0:0:0:
232,260,19608,6,0,B|272:308|272:308|332:328|400:296,1,165,2|0,0:0|0:0,0:0:0:0:
448,164,20306,2,0,P|460:120|444:76,1,82.5,2|0,0:0|0:0,0:0:0:0:
376,124,20655,1,0,0:0:0:0:
335,50,20829,2,0,P|292:132|324:188,1,165,8|0,0:0|0:0,0:0:0:0:
244,212,21353,2,0,L|160:184,1,82.5,0|0,0:0|0:0,0:0:0:0:
84,168,21701,1,0,0:0:0:0:
88,252,21876,1,8,0:0:0:0:
88,252,21963,1,0,0:0:0:0:
88,252,22050,2,0,L|188:292,1,82.5,0|0,0:0|0:0,0:0:0:0:
240,316,22399,6,0,P|312:344|392:304,1,165,4|0,0:0|0:0,0:0:0:0:
440,152,23097,2,0,L|448:60,1,82.5,2|0,0:0|0:0,0:0:0:0:
368,52,23446,1,0,0:0:0:0:
284,60,23620,2,0,P|212:52|112:64,1,165,8|0,0:0|0:0,0:0:0:0:
36,64,24143,2,0,L|44:152,1,82.5,0|0,0:0|0:0,0:0:0:0:
120,176,24492,2,0,L|100:268,1,82.5,2|0,0:0|0:0,0:0:0:0:
20,260,24841,2,0,L|44:344,1,82.5,0|0,0:0|0:0,0:0:0:0:
124,336,25190,6,0,P|188:348|300:328,1,165,2|0,0:0|0:0,0:0:0:0:
452,320,25887,2,0,P|456:272|452:228,1,82.5,2|0,0:0|0:0,0:0:0:0:
504,172,26236,1,0,0:0:0:0:
420,172,26411,2,0,P|348:152|340:56,1,165,2|0,0:0|0:0,0:0:0:0:
92,172,27283,2,0,P|164:152|172:56,1,165,2|0,0:0|0:0,0:0:0:0:
100,92,27806,1,0,0:0:0:0:
28,128,27980,5,4,0:0:0:0:
92,276,28329,2,0,L|184:296,1,82.5,0|0,0:0|0:0,0:0:0:0:
248,324,28678,2,0,P|288:312|336:328,1,82.5,0|0,0:0|0:0,0:0:0:0:
408,300,29027,2,0,P|416:260|404:212,1,82.5,0|0,0:0|0:0,0:0:0:0:
468,164,29376,1,2,0:0:0:0:
440,84,29550,1,0,0:0:0:0:
368,124,29725,2,0,P|300:160|188:124,1,165,0|2,0:0|0:0,0:0:0:0:
168,80,30248,5,0,0:0:0:0:
96,44,30422,2,0,P|52:36|12:48,1,82.5,0|0,0:0|0:0,0:0:0:0:
60,116,30771,2,0,B|40:160|60:204|60:204|76:248|44:304,1,165,2|0,0:0|0:0,0:0:0:0:
120,328,31294,1,0,0:0:0:0:
204,324,31469,2,0,P|248:308|288:316,1,82.5,0|0,0:0|0:0,0:0:0:0:
364,336,31818,2,0,L|352:252,1,82.5,0|0,0:0|0:0,0:0:0:0:
404,188,32166,6,0,P|432:116|384:24,1,165,2|0,0:0|0:0,0:0:0:0:
240,76,32864,2,0,P|212:148|264:240,1,165,2|0,0:0|0:0,0:0:0:0:
120,328,33562,5,2,0:0:0:0:
12,200,33911,2,0,L|40:108,1,82.5,0|0,0:0|0:0,0:0:0:0:
84,52,34260,2,0,P|128:60|176:40,1,82.5,0|0,0:0|0:0,0:0:0:0:
240,76,34608,2,0,P|248:120|240:164,1,82.5,0|0,0:0|0:0,0:0:0:0:
172,200,34957,1,2,0:0:0:0:
220,268,35132,1,0,0:0:0:0:
288,220,35306,2,0,P|368:236|420:308,1,165,0|2,0:0|0:0,0:0:0:0:
260,344,36004,6,0,P|216:352|168:340,1,82.5,0|0,0:0|0:0,0:0:0:0:
136,272,36353,2,0,B|60:252|60:252|48:200|4:172,1,165,2|0,0:0|0:0,0:0:0:0:
16,96,36876,1,0,0:0:0:0:
84,48,37050,2,0,L|172:56,1,82.5,0|0,0:0|0:0,0:0:0:0:
228,108,37399,1,0,0:0:0:0:
308,84,37573,1,0,0:0:0:0:
388,100,37748,2,0,P|420:160|396:256,1,165,2|0,0:0|0:0,0:0:0:0:
268,352,38446,1,4,3:0:0:0:
108,308,38794,1,4,3:0:0:0:
144,148,39143,5,4,0:0:0:0:
308,180,39492,1,0,0:0:0:0:
432,60,39841,2,0,P|448:100|444:148,1,82.5,0|0,0:0|0:0,0:0:0:0:
396,204,40190,1,0,0:0:0:0:
460,256,40364,2,0,P|444:308|324:344,1,165,2|0,0:0|0:0,0:0:0:0:
268,352,40887,2,0,L|180:308,1,82.5,0|0,0:0|0:0,0:0:0:0:
164,240,41236,1,0,0:0:0:0:
84,228,41411,6,0,P|76:276|84:324,2,82.5,0|0|0,0:0|0:0|0:0,0:0:0:0:
128,156,41934,2,0,B|116:104|148:72|148:72|196:92|244:84,1,165,2|0,0:0|0:0,0:0:0:0:
304,72,42457,1,0,0:0:0:0:
388,64,42632,2,0,L|452:136,1,82.5,0|0,0:0|0:0,0:0:0:0:
480,200,42980,1,0,0:0:0:0:
408,244,43155,1,2,0:0:0:0:
408,244,43329,2,0,B|420:296|388:328|388:328|340:308|292:316,1,165,0|0,0:0|0:0,0:0:0:0:
168,236,44027,6,0,P|100:272|20:224,2,165,2|0|4,0:0|0:0|0:0,0:0:0:0:
96,88,45073,1,0,0:0:0:0:
256,132,45422,1,0,0:0:0:0:
324,88,45597,2,0,L|404:144,1,82.5,0|0,0:0|0:0,0:0:0:0:
332,192,45946,1,2,0:0:0:0:
332,192,46120,2,0,P|312:268|400:328,1,165,0|0,0:0|0:0,0:0:0:0:
396,248,46643,1,0,0:0:0:0:
476,224,46818,2,0,P|488:180|468:140,1,82.5,2|0,0:0|0:0,0:0:0:0:
472,64,47166,2,0,L|392:40,1,82.5,8|0,0:0|0:0,0:0:0:0:
324,88,47515,6,0,B|292:104|248:84|248:84|148:112,1,165,4|0,0:0|0:0,0:0:0:0:
88,80,48039,2,0,B|72:132|100:172|100:172|124:204|116:244,1,165,4|0,0:0|0:0,0:0:0:0:
76,308,48562,2,0,B|116:324|156:312|156:312|228:352,1,165,4|0,0:0|0:0,0:0:0:0:
308,320,49085,1,2,0:0:0:0:
384,288,49260,1,0,0:0:0:0:
448,340,49434,2,0,P|468:260|412:200,1,165,8|8,0:0|0:0,0:0:0:0:
328,60,50132,5,0,0:0:0:0:
328,60,50219,1,0,0:0:0:0:
328,60,50306,2,0,P|288:136|208:128,1,165,4|0,0:0|0:0,0:0:0:0:
240,56,50829,1,0,0:0:0:0:
160,76,51004,1,8,0:0:0:0:
136,156,51178,2,0,P|60:168|28:252,1,165,0|0,0:0|0:0,0:0:0:0:
108,236,51701,2,0,L|136:320,1,82.5,2|0,0:0|0:0,0:0:0:0:
200,264,52050,2,0,P|268:228|352:256,2,165,0|8|0,0:0|0:0|0:0,0:0:0:0:
368,332,53097,6,0,P|424:272|392:184,1,165,2|0,0:0|0:0,0:0:0:0:
272,76,53794,2,0,P|196:56|104:92,1,165,8|0,0:0|0:0,0:0:0:0:
52,136,54318,1,0,0:0:0:0:
28,216,54492,2,0,L|128:240,1,82.5,2|0,0:0|0:0,0:0:0:0:
108,320,54841,2,0,L|216:288,1,82.5,0|0,0:0|0:0,0:0:0:0:
256,252,55190,2,0,P|312:292|404:264,1,165,8|0,0:0|0:0,0:0:0:0:
456,132,55887,5,4,0:0:0:0:
300,80,56236,1,0,0:0:0:0:
224,52,56411,1,0,0:0:0:0:
168,112,56585,2,0,P|132:132|80:124,1,82.5,8|0,0:0|0:0,0:0:0:0:
52,200,56934,2,0,P|60:248|48:284,1,82.5,0|0,0:0|0:0,0:0:0:0:
124,320,57283,2,0,L|204:344,1,82.5,2|0,0:0|0:0,0:0:0:0:
280,320,57632,2,0,P|256:252|280:144,2,165,0|8|0,0:0|0:0|0:0,0:0:0:0:
444,300,58678,6,0,P|488:260|428:184,1,165,4|0,0:0|0:0,0:0:0:0:
384,124,59201,1,2,0:0:0:0:
152,32,59725,2,0,P|108:72|168:148,1,165,4|0,0:0|0:0,0:0:0:0:
220,200,60248,1,2,0:0:0:0:
52,364,60771,2,0,B|92:348|108:300|108:300|148:292|220:300,1,165,2|0,0:0|0:0,0:0:0:0:
268,320,61294,1,0,0:0:0:0:
268,320,61382,1,0,0:0:0:0:
268,320,61469,6,0,B|308:304|348:296|368:356|396:376|456:392|500:352,1,247.500009441376,4|0,0:0|0:0,0:0:0:0:
448,296,62341,2,0,L|504:180,1,123.750004720688
456,124,62864,2,0,P|424:104|332:88,1,123.750004720688,2|0,0:0|0:0,0:0:0:0:
171,87,63562,2,0,P|88:104|56:124,1,123.750004720688,2|8,0:0|0:0,0:0:0:0:
48,304,64260,6,0,P|104:268|208:300,1,165,4|8,0:0|0:0,0:0:0:0:
352,344,64957,2,0,L|440:312,1,82.5,0|0,0:0|0:0,0:0:0:0:
448,236,65306,1,8,0:0:0:0:
404,168,65480,2,0,P|364:196|260:144,1,165,2|0,0:0|0:0,0:0:0:0:
340,116,66004,2,0,L|328:24,1,82.5,8|0,0:0|0:0,0:0:0:0:
252,60,66353,1,2,0:0:0:0:
88,84,66701,5,8,0:0:0:0:
88,84,67050,2,0,P|48:160|88:244,1,165,2|8,0:0|0:0,0:0:0:0:
212,320,67748,2,0,L|300:336,1,82.5,0|0,0:0|0:0,0:0:0:0:
376,336,68097,1,8,0:0:0:0:
356,256,68271,2,0,P|308:192|360:112,1,165,2|0,0:0|0:0,0:0:0:0:
392,184,68794,2,0,L|480:168,1,82.5,8|0,0:0|0:0,0:0:0:0:
472,84,69143,1,2,0:0:0:0:
404,36,69318,5,0,0:0:0:0:
324,44,69492,2,0,L|232:56,1,82.5,8|0,0:0|0:0,0:0:0:0:
176,108,69841,1,2,0:0:0:0:
124,264,70190,2,0,P|88:240|-4:304,2,165,4|0|8,0:0|0:0|0:0,0:0:0:0:
284,304,71236,2,0,P|320:328|412:264,2,165,0|8|0,0:0|0:0|0:0,0:0:0:0:
200,256,72108,1,0,0:0:0:0:
140,196,72283,2,0,L|72:120,1,82.5,8|0,0:0|0:0,0:0:0:0:
148,76,72632,6,0,B|208:52|240:56|240:56|272:72|320:96,1,165,4|8,0:0|0:0,0:0:0:0:
372,132,73155,1,0,0:0:0:0:
432,188,73329,2,0,P|424:236|400:288,1,82.5,0|0,0:0|0:0,0:0:0:0:
328,260,73678,2,0,P|312:304|304:348,1,82.5,8|0,0:0|0:0,0:0:0:0:
224,336,74027,2,0,P|156:312|60:328,1,165,2|8,0:0|0:0,0:0:0:0:
36,248,74550,1,2,0:0:0:0:
100,196,74725,2,0,P|124:128|108:32,1,165,2|8,0:0|0:0,0:0:0:0:
200,36,75248,1,0,0:0:0:0:
200,36,75335,1,0,0:0:0:0:
200,36,75422,6,0,P|280:72|360:32,1,165,4|8,0:0|0:0,0:0:0:0:
468,156,76120,2,0,L|396:220,1,82.5,0|0,0:0|0:0,0:0:0:0:
376,288,76469,1,8,0:0:0:0:
300,252,76643,2,0,P|220:228|132:280,1,165,2|0,0:0|0:0,0:0:0:0:
112,336,77166,2,0,L|44:268,1,82.5,8|0,0:0|0:0,0:0:0:0:
0,216,77515,1,2,0:0:0:0:
104,88,77864,5,8,0:0:0:0:
104,88,78213,2,0,P|168:56|252:120,1,165,2|8,0:0|0:0,0:0:0:0:
240,264,78911,2,0,L|316:296,1,82.5,0|0,0:0|0:0,0:0:0:0:
396,316,79260,1,8,0:0:0:0:
372,236,79434,2,0,P|388:172|484:104,1,165,2|0,0:0|0:0,0:0:0:0:
484,188,79957,1,8,0:0:0:0:
336,120,80306,6,2,L|296:32,1,82.5,2|0,0:0|0:0,0:0:0:0:
210,44,80655,2,2,L|176:120,1,82.5,0|0,0:0|0:0,0:0:0:0:
120,180,81004,6,0,P|96:240|156:320,1,165,4|8,0:0|0:0,0:0:0:0:
312,296,81701,2,0,B|280:280|272:244|272:244|232:216|176:240,1,165,0|8,0:0|0:0,0:0:0:0:
344,228,82399,2,0,P|430:263|480:216,1,165,2|8,0:0|0:0,0:0:0:0:
472,56,83097,2,0,B|456:96|412:88|412:88|384:136|416:192,1,165,0|8,0:0|0:0,0:0:0:0:
344,228,83620,1,0,0:0:0:0:
260,228,83794,6,0,L|92:260,1,165,4|8,0:0|0:0,0:0:0:0:
68,180,84318,1,0,0:0:0:0:
100,104,84492,2,0,B|136:100|164:116|164:116|204:96|224:60|208:20,1,165,2|8,0:0|0:0,0:0:0:0:
299,37,85015,2,0,B|288:60|308:96|348:116|348:116|376:100|412:104,1,165,2|0,0:0|0:0,0:0:0:0:
444,180,85539,2,0,L|476:280,1,82.5,8|0,0:0|0:0,0:0:0:0:
468,340,85887,1,0,0:0:0:0:
400,292,86062,6,0,L|372:208,2,82.5,0|8|0,0:0|0:0|0:0,0:0:0:0:
320,328,86585,2,0,P|232:304|216:224,1,165,4|8,0:0|0:0,0:0:0:0:
299,240,87108,2,0,P|280:304|192:328,1,165,0|0,0:0|0:0,0:0:0:0:
120,288,87632,1,8,0:0:0:0:
84,212,87806,5,0,0:0:0:0:
84,212,87893,1,0,0:0:0:0:
84,212,87980,2,0,P|128:156|216:120,1,165,2|0,0:0|0:0,0:0:0:0:
299,120,88504,2,0,P|384:156|428:212,1,165,2|0,0:0|0:0,0:0:0:0:
448,292,89027,1,8,0:0:0:0:
284,304,89376,6,0,L|100:288,1,165,4|0,0:0|0:0,0:0:0:0:
52,140,90073,2,0,L|236:124,1,165,8|0,0:0|0:0,0:0:0:0:
300,120,90597,1,0,0:0:0:0:
384,112,90771,2,0,L|480:100,2,82.5,2|0|0,0:0|0:0|0:0,0:0:0:0:
340,272,91469,6,0,L|240:288,1,82.5,8|0,0:0|0:0,0:0:0:0:
180,316,91818,1,0,0:0:0:0:
108,276,91992,1,0,0:0:0:0:
32,308,92166,2,0,L|8:136,1,165,2|0,0:0|0:0,0:0:0:0:
256,96,92864,5,2,0:0:0:0:
316,152,93039,1,0,0:0:0:0:
256,208,93213,1,0,0:0:0:0:
196,152,93387,1,4,0:0:0:0:
256,192,93475,12,0,96353,0:0:0:0:
