osu file format v12

[General]
AudioFilename: Kiss Bell.mp3
AudioLeadIn: 0
PreviewTime: 63911
Countdown: 0
SampleSet: Soft
StackLeniency: 0.4
Mode: 0
LetterboxInBreaks: 0

[Editor]
DistanceSpacing: 1
BeatDivisor: 4
GridSize: 4

[Metadata]
Title:Koizora (Short Ver.)
TitleUnicode:恋空 (Short Ver.)
Artist:Marie
ArtistUnicode:まりえ
Creator:Tari
Version:Easy
Source:Kiss Bell
Tags:opening eroge visual novel galgame taris uws unitedwesin giga let's sound the kissing bell of the promise
BeatmapID:261927
BeatmapSetID:98136

[Difficulty]
HPDrainRate:2
CircleSize:3
OverallDifficulty:2
ApproachRate:3
SliderMultiplier:0.949999999999999
SliderTickRate:1

[Events]
//Background and Video events
0,0,"giga.jpg",0,0
Video,0,"Kiss Bell (1).avi"
//Break Periods
//Storyboard Layer 0 (Background)
//Storyboard Layer 1 (Fail)
//Storyboard Layer 2 (Pass)
//Storyboard Layer 3 (Foreground)
//Storyboard Sound Samples
//Background Colour Transformations
3,100,163,162,255

[TimingPoints]
4260,348.837209302326,4,2,1,45,1,0
16818,-100,4,2,1,75,0,0
27980,-100,4,2,1,65,0,0
39143,-100,4,2,1,70,0,0
50306,-100,4,2,1,65,0,0
58678,-100,4,2,1,70,0,0
64260,-100,4,2,1,80,0,1
65219,-100,4,2,2,80,0,1
65393,-100,4,2,1,80,0,1
68010,-100,4,2,2,80,0,1
68184,-100,4,2,1,80,0,1
72806,-100,4,2,2,80,0,1
73155,-100,4,2,1,80,0,1
74201,-100,4,2,2,80,0,1
74550,-100,4,2,1,80,0,1
75422,-100,4,2,1,80,0,1
76382,-100,4,2,2,80,0,1
76556,-100,4,2,1,80,0,1
79172,-100,4,2,2,80,0,1
79347,-100,4,2,1,80,0,1
81178,-100,4,2,2,80,0,1
81527,-100,4,2,1,80,0,1
81876,-100,4,2,2,80,0,1
82225,-100,4,2,1,80,0,1
84754,-100,4,2,2,80,0,1
84928,-100,4,2,1,80,0,1
86847,-100,4,2,2,80,0,1
87021,-100,4,2,1,80,0,1
87980,-100,4,2,1,80,0,1
89376,-100,4,2,1,70,0,0
96265,-100,4,2,1,5,0,0

[Colours]
Combo1 : 255,128,66
Combo2 : 204,57,253
Combo3 : 255,125,190
Combo4 : 255,40,40
Combo5 : 0,138,138
SliderBorder : 255,255,255

[HitObjects]
32,72,5306,1,0,0:0:0:0:
116,116,5655,6,0,L|104:216,2,94.9999999999999,2|0|2,0:0|0:0|0:0,0:0:0:0:
204,80,6701,1,0,0:0:0:0:
288,128,7050,2,0,P|376:112|480:132,1,190,2|2,0:0|0:0,0:0:0:0:
452,224,8097,1,0,0:0:0:0:
396,300,8446,6,0,L|488:336,2,94.9999999999999,2|0|2,0:0|0:0|0:0,0:0:0:0:
304,324,9492,1,0,0:0:0:0:
212,292,9841,2,0,P|228:188|208:100,1,190,2|2,0:0|0:0,0:0:0:0:
292,56,10887,1,0,0:0:0:0:
384,76,11236,6,0,B|412:120|448:136|448:136|440:192|472:241,1,190,2|2,0:0|0:0,0:0:0:0:
304,324,12632,2,0,B|276:280|240:264|240:264|248:204|215:158,1,190,2|2,0:0|0:0,0:0:0:0:
280,96,13678,1,0,0:0:0:0:
184,80,14027,6,0,P|120:44|24:108,1,190,2|2,0:0|0:0,0:0:0:0:
24,192,15073,1,0,0:0:0:0:
48,284,15422,2,0,B|88:312|158:300|182:268,2,142.5,2|0|8,0:0|0:0|0:0,0:0:0:0:
24,192,16818,5,4,0:0:0:0:
204,132,17515,2,0,P|280:116|352:132,2,142.5,2|8|0,0:0|0:0|0:0,0:0:0:0:
228,224,18911,2,0,L|236:340,1,94.9999999999999
328,320,19608,5,2,0:0:0:0:
476,200,20306,2,0,P|496:132|476:60,2,142.5,2|8|0,0:0|0:0|0:0,0:0:0:0:
376,184,21701,2,0,L|276:172,1,94.9999999999999
232,92,22399,5,4,0:0:0:0:
56,164,23097,2,0,P|44:244|60:312,2,142.5,2|8|0,0:0|0:0|0:0,0:0:0:0:
84,72,24492,1,0,0:0:0:0:
176,88,24841,1,0,0:0:0:0:
264,48,25190,5,2,0:0:0:0:
444,108,25887,2,0,L|416:264,2,142.5,2|2|0,0:0|0:0|0:0,0:0:0:0:
372,48,27283,1,2,0:0:0:0:
284,212,27980,5,4,0:0:0:0:
256,304,28329,2,0,L|156:296,1,94.9999999999999,0|0,0:0|0:0,0:0:0:0:
68,316,29027,1,0,0:0:0:0:
44,224,29376,2,0,P|120:160|144:64,1,190,2|2,0:0|0:0,0:0:0:0:
240,72,30422,1,0,0:0:0:0:
320,124,30771,6,0,L|428:120,1,94.9999999999999,2|0,0:0|0:0,0:0:0:0:
464,200,31469,2,0,L|456:300,1,94.9999999999999,0|0,0:0|0:0,0:0:0:0:
364,320,32166,2,0,B|320:352|272:328|272:328|224:356|176:324,2,190,2|2|2,0:0|0:0|0:0,0:0:0:0:
372,224,33911,6,0,L|464:200,2,94.9999999999999,0|0|0,0:0|0:0|0:0,0:0:0:0:
280,208,34957,2,0,P|188:236|92:204,1,190,2|2,0:0|0:0,0:0:0:0:
4,208,36004,1,0,0:0:0:0:
52,124,36353,2,0,L|24:24,2,94.9999999999999,2|0|0,0:0|0:0|0:0,0:0:0:0:
236,72,37748,6,0,B|284:88|328:68|328:68|372:44|422:63,1,190,2|4,0:0|3:0,0:0:0:0:
376,148,38794,1,4,3:0:0:0:
432,220,39143,5,4,0:0:0:0:
392,304,39492,1,0,0:0:0:0:
328,232,39841,2,0,P|256:220|180:256,2,142.5,0|2|0,0:0|0:0|0:0,0:0:0:0:
376,148,41236,2,0,L|368:48,1,94.9999999999999,0|0,0:0|0:0,0:0:0:0:
276,80,41934,5,2,0:0:0:0:
96,140,42632,2,0,P|60:184|84:268,2,142.5,0|2|0,0:0|0:0|0:0,0:0:0:0:
164,208,44027,2,0,L|248:152,2,94.9999999999999,2|0|4,0:0|0:0|0:0,0:0:0:0:
332,296,45422,6,0,P|376:332|460:308,2,142.5,0|2|0,0:0|0:0|0:0,0:0:0:0:
352,204,46818,1,0,0:0:0:0:
276,144,47166,1,0,0:0:0:0:
196,92,47515,6,4,P|244:52|328:72,2,142.5,2|2|4,0:0|0:0|0:0,0:0:0:0:
16,248,49434,2,0,L|52:344,1,94.9999999999999,8|8,0:0|0:0,0:0:0:0:
164,252,50306,6,0,B|172:304|256:352|336:304,1,190,4|8,0:0|0:0,0:0:0:0:
464,188,51701,1,2,0:0:0:0:
376,152,52050,2,0,B|384:104|372:56,2,94.9999999999999,0|8|0,0:0|0:0|0:0,0:0:0:0:
288,120,53097,6,0,B|204:96|204:96|96:128,1,190,2|8,0:0|0:0,0:0:0:0:
8,288,54492,2,0,B|92:312|92:312|200:280,1,190,2|8,0:0|0:0,0:0:0:0:
276,328,55539,1,0,0:0:0:0:
368,308,55887,6,0,B|432:296|476:228|440:148,1,190,4|8,0:0|0:0,0:0:0:0:
288,52,57283,1,2,0:0:0:0:
196,68,57632,2,0,P|144:60|88:80,2,94.9999999999999,0|8|0,0:0|0:0|0:0,0:0:0:0:
152,156,58678,6,0,B|124:184|116:220|116:220|160:288,1,142.5,4|2,0:0|0:0,0:0:0:0:
280,340,59725,2,0,B|308:312|316:276|316:276|272:208,1,142.5,4|2,0:0|0:0,0:0:0:0:
412,168,60771,1,2,0:0:0:0:
364,88,61120,1,0,0:0:0:0:
272,108,61469,6,0,P|208:48|144:112,1,190
28,264,62864,2,0,B|56:300|56:300|116:328,2,94.9999999999999,2|0|2,0:0|0:0|0:0,0:0:0:0:
24,168,63911,1,8,0:0:0:0:
112,200,64260,6,0,L|224:216,1,94.9999999999999,4|8,0:0|0:0,0:0:0:0:
296,180,64957,2,0,P|280:112|296:40,2,142.5,0|2|8,0:0|0:0|0:0,0:0:0:0:
372,236,66353,1,2,0:0:0:0:
432,160,66701,1,8,0:0:0:0:
468,248,67050,6,0,L|464:356,1,94.9999999999999,2|8,0:0|0:0,0:0:0:0:
368,332,67748,2,0,P|292:340|220:328,2,142.5,0|2|8,0:0|0:0|0:0,0:0:0:0:
372,236,69143,2,0,L|304:140,1,94.9999999999999,2|8,0:0|0:0,0:0:0:0:
240,104,69841,5,2,0:0:0:0:
192,184,70190,2,0,P|100:152|52:56,2,190,4|8|8,0:0|0:0|0:0,0:0:0:0:
332,56,72283,5,8,0:0:0:0:
420,88,72632,2,0,P|452:172|420:276,1,190,4|0,0:0|0:0,0:0:0:0:
244,320,74027,2,0,P|212:236|244:132,1,190,2|0,0:0|0:0,0:0:0:0:
188,60,75073,1,8,0:0:0:0:
112,128,75422,6,0,P|64:120|8:136,1,94.9999999999999,4|8,0:0|0:0,0:0:0:0:
68,212,76120,2,0,P|60:280|-4:328,2,142.5,0|2|8,0:0|0:0|0:0,0:0:0:0:
164,220,77515,1,2,0:0:0:0:
212,304,77864,1,8,0:0:0:0:
304,328,78213,6,0,P|348:340|408:320,1,94.9999999999999,2|8,0:0|0:0,0:0:0:0:
352,244,78911,2,0,P|384:192|468:164,2,142.5,0|2|8,0:0|0:0|0:0,0:0:0:0:
268,204,80306,1,2,0:0:0:0:
228,120,80655,1,8,0:0:0:0:
132,128,81004,6,0,P|104:204|8:280,2,190,4|0|2,0:0|0:0|0:0,0:0:0:0:
228,120,82748,2,0,L|332:112,1,94.9999999999999,8|0,0:0|0:0,0:0:0:0:
408,68,83446,1,8,0:0:0:0:
496,104,83794,5,4,0:0:0:0:
368,244,84492,2,0,P|424:300|484:308,2,142.5,2|2|8,0:0|0:0|0:0,0:0:0:0:
288,296,85887,2,0,L|236:208,1,94.9999999999999,0|8,0:0|0:0,0:0:0:0:
148,188,86585,6,0,P|88:208|8:168,2,142.5,4|0|8,0:0|0:0|0:0,0:0:0:0:
88,112,87980,2,0,P|148:92|228:132,2,142.5,2|2|8,0:0|0:0|0:0,0:0:0:0:
18,179,89376,6,0,P|30:263|130:311,2,190,4|8|2,0:0|0:0|0:0,0:0:0:0:
160,44,91469,1,8,0:0:0:0:
348,44,92166,1,2,0:0:0:0:
256,208,92864,6,0,B|256:252|256:252|272:304|272:304|272:368,1,142.5,2|4,0:0|0:0,0:0:0:0:
256,192,93475,12,0,96353,0:0:0:0:
