osu file format v14

[General]
AudioFilename: Marie - Focus love.mp3
AudioLeadIn: 0
PreviewTime: 58865
Countdown: 0
SampleSet: Soft
StackLeniency: 0.7
Mode: 0
LetterboxInBreaks: 0
WidescreenStoryboard: 0

[Editor]
DistanceSpacing: 0.7
BeatDivisor: 4
GridSize: 4
TimelineZoom: 1

[Metadata]
Title:Focus love
TitleUnicode:Focus love
Artist:Marie
ArtistUnicode:真理絵
Creator:Nichiyouki
Version:Insane
Source:LOVEREC.
Tags:ALcot Love Rec. opening visual novel eroge AngelNote nich95
BeatmapID:749743
BeatmapSetID:338830

[Difficulty]
HPDrainRate:6.7
CircleSize:4
OverallDifficulty:6.6
ApproachRate:8.8
SliderMultiplier:1.8
SliderTickRate:2

[Events]
//Background and Video events
Video,0,"LOVEREC. OP.avi"
0,0,"BG.jpg",0,0
//Break Periods
//Storyboard Layer 0 (Background)
//Storyboard Layer 1 (Fail)
//Storyboard Layer 2 (Pass)
//Storyboard Layer 3 (Foreground)
//Storyboard Sound Samples

[TimingPoints]
6756,346.820809248555,4,2,2,50,1,0
6756,-125,4,2,2,50,0,0
11438,-125,4,2,1,50,0,0
11958,-111.111111111111,4,2,1,60,0,0
12305,-100,4,2,1,80,0,0
23403,-142.857142857143,4,2,1,60,0,0
34501,-100,4,2,1,80,0,0
36582,-100,4,2,3,80,0,0
36669,-100,4,2,1,80,0,0
43172,-100,4,2,3,80,0,0
43258,-100,4,2,1,80,0,0
45599,-125,4,2,1,80,0,0
48374,-100,4,2,1,80,0,0
51149,-125,4,2,1,80,0,0
56698,-100,4,2,1,80,0,0
59472,-100,4,2,1,90,0,1
81669,-125,4,2,1,70,0,0
84617,-100,4,2,1,90,0,0
87218,-100,4,2,1,80,0,0
99617,-100,4,2,1,5,0,0
100744,-100,4,2,1,70,0,0
100917,-100,4,2,2,60,0,0

[Colours]
Combo1 : 255,128,0
Combo2 : 0,255,255
Combo3 : 255,128,255
Combo4 : 128,128,255

[HitObjects]
352,96,6756,5,2,0:0:0:0:
348,252,6929,1,0,0:0:0:0:
260,164,7102,1,0,0:0:0:0:
420,188,7276,2,0,P|440:260|416:324,1,144,2|0,0:0|0:0,0:0:0:0:
208,276,7796,5,2,0:0:0:0:
348,252,7969,1,0,0:0:0:0:
264,348,8143,1,0,0:0:0:0:
144,204,8316,1,2,0:0:0:0:
144,204,9183,2,0,L|156:128,1,72
344,36,9530,5,2,0:0:0:0:
244,172,9703,1,0,0:0:0:0:
232,44,9877,1,0,0:0:0:0:
336,152,10050,2,0,L|480:144,1,144,2|0,0:0|0:0,0:0:0:0:
344,36,10571,6,0,L|272:40,1,72,2|0,0:0|0:0,0:0:0:0:
232,180,10917,1,0,0:0:0:0:
432,80,11091,1,2,0:0:0:0:
432,80,11438,5,8,0:0:0:0:
424,100,11524,1,8,0:0:0:0:
416,120,11611,1,8,0:0:0:0:
192,96,11784,1,2,0:0:0:0:
280,32,11958,2,0,P|300:92|288:148,1,121.499996292114,4|0,0:0|0:0,0:0:0:0:
220,164,12305,6,0,B|208:256|208:256|256:332,1,180,4|8,0:0|0:0,0:0:0:0:
444,240,12825,1,2,0:0:0:0:
444,240,13172,1,2,0:0:0:0:
308,264,13345,1,8,0:0:0:0:
360,92,13519,6,0,P|376:144|376:184,1,90,2|0,0:0|0:0,0:0:0:0:
204,244,13865,1,0,0:0:0:0:
280,148,14039,1,8,0:0:0:0:
276,320,14212,2,0,L|184:340,1,90,2|0,0:0|0:0,0:0:0:0:
40,232,14559,2,0,L|132:240,2,90,2|8|8,0:0|0:0|0:0,0:0:0:0:
20,76,15079,5,0,0:0:0:0:
92,156,15253,1,0,0:0:0:0:
28,316,15426,1,8,0:0:0:0:
16,208,15599,2,0,P|92:164|180:188,1,180,2|2,0:0|0:0,0:0:0:0:
220,368,16120,1,8,0:0:0:0:
88,336,16293,6,0,L|104:244,1,90,2|0,0:0|0:0,0:0:0:0:
240,124,16640,1,0,0:0:0:0:
192,300,16813,1,8,0:0:0:0:
296,232,16987,2,0,L|392:240,1,90,0|2,0:0|0:0,0:0:0:0:
476,124,17334,2,0,L|384:128,1,90,2|8,0:0|0:0,0:0:0:0:
208,200,17680,1,8,0:0:0:0:
308,368,17854,6,0,P|340:300|308:200,1,180,4|8,0:0|0:0,0:0:0:0:
148,124,18374,1,2,0:0:0:0:
148,124,18721,1,2,0:0:0:0:
236,284,18894,1,8,0:0:0:0:
392,256,19068,6,0,L|396:164,1,90,2|0,0:0|0:0,0:0:0:0:
248,100,19414,2,0,L|252:192,2,90,0|8|0,0:0|0:0|0:0,0:0:0:0:
376,32,19935,1,2,0:0:0:0:
472,192,20108,1,2,0:0:0:0:
328,144,20282,1,8,0:0:0:0:
484,72,20455,1,0,0:0:0:0:
472,208,20628,6,0,P|428:232|388:240,1,90,2|0,0:0|0:0,0:0:0:0:
320,64,20975,2,0,P|360:88|392:128,1,90,8|0,0:0|0:0,0:0:0:0:
224,264,21322,1,8,0:0:0:0:
147,110,21495,1,2,0:0:0:0:
292,152,21669,1,8,0:0:0:0:
64,64,21842,6,0,P|140:24|228:60,1,180,2|2,0:0|0:0,0:0:0:0:
224,264,22362,1,8,0:0:0:0:
136,200,22536,2,0,L|148:108,1,90,2|8,0:0|0:0,0:0:0:0:
308,52,22883,1,2,0:0:0:0:
328,220,23056,1,8,0:0:0:0:
301,237,23143,1,0,3:0:0:0:
271,246,23229,1,0,3:0:0:0:
239,247,23316,1,0,3:0:0:0:
207,241,23403,6,0,P|192:180|188:116,1,125.999996154785,4|0,0:0|0:0,0:0:0:0:
428,48,24097,2,0,P|424:112|408:172,1,125.999996154785
260,276,24617,1,0,0:0:0:0:
260,276,24964,2,0,L|252:212,1,62.9999980773926
300,100,25310,2,0,P|252:120|176:120,2,125.999996154785
144,52,26177,6,0,L|124:180,1,125.999996154785,2|0,0:0|0:0,0:0:0:0:
344,304,26871,2,0,L|324:179,1,125.999996154785
184,120,27391,1,0,0:0:0:0:
184,120,27738,2,0,P|220:128|252:124,1,62.9999980773926
424,56,28085,2,0,P|364:40|292:44,1,125.999996154785,0|2,0:0|0:0,0:0:0:0:
212,212,28605,1,0,0:0:0:0:
212,212,28952,6,0,L|340:208,1,125.999996154785,4|0,0:0|0:0,0:0:0:0:
392,40,29646,2,0,L|264:44,1,125.999996154785
156,144,30166,1,0,0:0:0:0:
156,144,30513,2,0,L|220:140,1,62.9999980773926
328,104,30860,2,0,P|308:160|320:224,1,125.999996154785
512,180,31380,1,0,0:0:0:0:
512,180,31727,6,0,L|384:168,1,125.999996154785,2|0,0:0|0:0,0:0:0:0:
292,300,32247,1,2,0:0:0:0:
368,372,32420,2,0,P|392:324|384:252,1,125.999996154785,2|8,0:0|0:0,0:0:0:0:
188,52,33114,2,0,P|164:100|172:172,1,125.999996154785,2|0,0:0|0:0,0:0:0:0:
324,48,33634,1,2,0:0:0:0:
256,120,33808,2,0,P|312:136|392:124,1,125.999996154785,2|8,0:0|0:0,0:0:0:0:
100,28,34501,6,0,P|80:116|92:204,1,180,4|2,0:0|0:0,0:0:0:0:
412,356,35195,2,0,P|432:268|420:180,1,180,2|8,0:0|0:0,0:0:0:0:
184,116,35715,1,0,0:0:0:0:
312,228,35888,5,2,0:0:0:0:
384,92,36062,2,0,L|480:84,1,90,0|2,0:0|0:0,0:0:0:0:
408,264,36409,2,0,L|228:280,1,180
88,152,36929,1,8,0:0:0:0:
232,188,37102,1,0,0:0:0:0:
108,252,37276,6,0,L|96:348,1,90,2|0,0:0|0:0,0:0:0:0:
352,344,37623,2,0,P|288:288|196:288,1,180,2|2,0:0|0:0,0:0:0:0:
16,360,38143,1,0,0:0:0:0:
108,252,38316,1,8,0:0:0:0:
256,360,38490,6,0,L|348:352,1,90,0|2,0:0|0:0,0:0:0:0:
464,176,38836,1,0,0:0:0:0:
464,176,39010,2,0,L|284:188,2,180,2|2|8,0:0|0:0|0:0,0:0:0:0:
512,292,39877,1,0,0:0:0:0:
384,372,40050,6,0,P|384:324|396:280,1,90,4|0,0:0|0:0,0:0:0:0:
472,116,40397,1,2,0:0:0:0:
504,268,40571,1,0,0:0:0:0:
380,208,40744,2,0,L|288:208,1,90,2|0,0:0|0:0,0:0:0:0:
124,296,41091,1,8,0:0:0:0:
216,144,41264,1,0,0:0:0:0:
332,300,41438,6,0,P|240:296|188:224,1,180,2|2,0:0|0:0,0:0:0:0:
304,88,41958,1,0,0:0:0:0:
400,140,42131,2,0,L|388:232,1,90,2|0,0:0|0:0,0:0:0:0:
244,336,42478,1,8,0:0:0:0:
288,208,42651,5,0,0:0:0:0:
164,256,42825,1,2,0:0:0:0:
164,256,42998,2,0,B|104:244|104:244|60:204|60:204|0:192,1,180
160,156,43519,2,0,L|252:172,1,90,2|0,0:0|0:0,0:0:0:0:
296,344,43865,1,8,0:0:0:0:
144,348,44039,6,0,P|136:304|144:256,1,90,0|2,0:0|0:0,0:0:0:0:
336,192,44386,1,0,0:0:0:0:
232,296,44559,1,2,0:0:0:0:
244,152,44732,1,0,0:0:0:0:
244,152,45079,1,8,0:0:0:0:
344,288,45253,1,8,0:0:0:0:
348,168,45426,1,0,0:0:0:0:
216,304,45599,6,0,L|72:288,1,144,4|0,0:0|0:0,0:0:0:0:
20,136,46120,1,2,0:0:0:0:
20,136,46293,2,0,L|164:152,1,144,8|0,0:0|0:0,0:0:0:0:
304,268,46813,5,2,0:0:0:0:
304,268,47160,2,0,L|296:196,1,72,8|0,0:0|0:0,0:0:0:0:
176,80,47507,1,2,0:0:0:0:
204,224,47680,1,8,0:0:0:0:
204,224,48027,1,12,0:0:0:0:
292,108,48201,1,0,0:0:0:0:
136,160,48374,6,0,L|44:152,1,90,4|0,0:0|0:0,0:0:0:0:
152,312,48721,2,0,L|248:304,1,90,8|0,0:0|0:0,0:0:0:0:
348,144,49068,1,8,0:0:0:0:
204,224,49241,1,0,0:0:0:0:
396,236,49414,1,2,0:0:0:0:
244,136,49588,6,0,B|188:132|188:132|116:160|116:160|68:156,1,180,2|8,0:0|0:0,0:0:0:0:
16,64,50108,1,0,0:0:0:0:
156,116,50282,1,2,0:0:0:0:
108,240,50455,2,0,L|120:332,1,90,8|0,0:0|0:0,0:0:0:0:
348,336,50802,1,4,0:0:0:0:
348,336,51149,6,0,P|284:304|212:308,1,144,4|0,0:0|0:0,0:0:0:0:
40,352,51669,1,2,0:0:0:0:
40,352,51842,2,0,P|76:320|112:224,1,144,8|0,0:0|0:0,0:0:0:0:
4,104,52362,5,2,0:0:0:0:
4,108,52709,1,8,0:0:0:0:
28,256,52883,1,0,0:0:0:0:
136,152,53056,1,2,0:0:0:0:
208,232,53229,2,0,B|280:244|280:244|352:232,1,144,8|4,0:0|0:0,0:0:0:0:
388,80,53750,1,0,0:0:0:0:
272,24,53923,6,0,P|264:76|296:168,1,144,4|0,0:0|0:0,0:0:0:0:
444,212,54443,1,2,0:0:0:0:
300,320,54617,1,8,0:0:0:0:
300,320,54964,1,0,0:0:0:0:
340,220,55137,6,0,L|348:148,1,72,2|0,0:0|0:0,0:0:0:0:
216,72,55484,2,0,L|224:144,2,72,8|0|2,0:0|0:0|0:0,0:0:0:0:
64,52,56004,1,8,0:0:0:0:
156,204,56177,1,8,0:0:0:0:
304,64,56351,1,0,0:0:0:0:
140,116,56524,1,0,0:0:0:0:
240,228,56698,6,0,B|328:232|328:232|412:192,1,180,4|0,0:0|0:0,0:0:0:0:
208,112,57218,2,0,L|116:108,1,90,8|0,0:0|0:0,0:0:0:0:
44,284,57565,1,0,0:0:0:0:
144,192,57738,5,4,0:0:0:0:
144,192,58085,1,0,0:0:0:0:
244,232,58258,2,0,P|180:292|92:288,1,180,8|0,0:0|0:0,0:0:0:0:
128,104,58779,2,0,P|144:152|144:192,1,90,4|0,0:0|0:0,0:0:0:0:
24,352,59125,1,0,3:0:0:0:
56,344,59212,1,0,3:0:0:0:
87,340,59299,1,0,3:0:0:0:
118,341,59386,1,0,3:0:0:0:
148,348,59472,6,0,P|236:352|312:304,1,180,4|8,0:0|0:0,0:0:0:0:
284,152,59992,1,0,0:0:0:0:
176,180,60166,2,0,P|188:224|220:272,1,90,2|0,0:0|0:0,0:0:0:0:
208,72,60513,1,8,0:0:0:0:
76,96,60686,6,0,L|64:192,1,90,0|2,0:0|0:0,0:0:0:0:
244,304,61033,2,0,L|228:216,1,90,0|8,0:0|0:0,0:0:0:0:
168,72,61380,1,0,0:0:0:0:
144,248,61553,1,2,0:0:0:0:
268,132,61727,2,0,L|360:140,1,90,0|8,0:0|0:0,0:0:0:0:
416,296,62073,1,0,0:0:0:0:
216,224,62247,5,2,0:0:0:0:
216,224,62594,1,8,0:0:0:0:
304,320,62767,1,0,0:0:0:0:
416,292,62940,1,2,0:0:0:0:
272,128,63114,1,0,0:0:0:0:
200,324,63287,1,8,0:0:0:0:
380,184,63461,6,0,L|364:96,1,90,0|2,0:0|0:0,0:0:0:0:
188,32,63808,1,0,0:0:0:0:
304,152,63981,1,8,0:0:0:0:
436,36,64154,2,0,P|456:84|456:136,1,90,0|2,0:0|0:0,0:0:0:0:
328,252,64501,1,0,0:0:0:0:
364,96,64675,1,8,0:0:0:0:
364,96,65021,6,0,B|304:88|304:88|236:112|236:112|188:104,1,180,4|8,0:0|0:0,0:0:0:0:
16,36,65542,2,0,L|108:28,1,90,0|2,0:0|0:0,0:0:0:0:
240,160,65888,1,0,0:0:0:0:
100,120,66062,1,8,0:0:0:0:
316,20,66235,6,0,P|328:64|324:116,1,90,0|2,0:0|0:0,0:0:0:0:
168,212,66582,2,0,P|200:179|240:160,1,90,0|8,0:0|0:0,0:0:0:0:
404,180,66929,1,0,0:0:0:0:
344,260,67102,2,0,L|252:252,1,90,2|0,0:0|0:0,0:0:0:0:
96,156,67449,1,8,0:0:0:0:
156,304,67623,1,0,0:0:0:0:
224,164,67796,6,0,L|404:180,1,180,4|8,0:0|0:0,0:0:0:0:
480,308,68316,1,4,0:0:0:0:
484,312,68663,1,8,0:0:0:0:
440,108,68836,1,8,0:0:0:0:
280,216,69010,6,0,B|276:308|276:308|332:376,1,180,4|8,0:0|0:0,0:0:0:0:
400,220,69530,1,8,0:0:0:0:
200,328,69703,1,4,0:0:0:0:
200,328,70050,1,0,0:0:0:0:
340,156,70224,1,8,0:0:0:0:
328,128,70310,1,0,3:0:0:0:
316,100,70397,1,0,3:0:0:0:
304,72,70484,1,0,3:0:0:0:
292,44,70571,6,0,L|112:36,1,180,4|8,0:0|0:0,0:0:0:0:
24,156,71091,1,0,0:0:0:0:
192,116,71264,1,2,0:0:0:0:
240,216,71438,2,0,L|228:312,1,90,0|8,0:0|0:0,0:0:0:0:
48,296,71784,6,0,P|96:280|144:280,1,90,0|2,0:0|0:0,0:0:0:0:
368,356,72131,1,0,0:0:0:0:
324,224,72305,1,8,0:0:0:0:
168,352,72478,1,0,0:0:0:0:
272,316,72651,1,2,0:0:0:0:
388,360,72825,2,0,L|480:352,1,90,0|8,0:0|0:0,0:0:0:0:
508,192,73172,1,0,0:0:0:0:
340,120,73345,6,0,P|324:176|360:296,1,180,2|8,0:0|0:0,0:0:0:0:
444,112,73865,1,0,0:0:0:0:
352,20,74039,1,2,0:0:0:0:
240,128,74212,1,0,0:0:0:0:
408,200,74386,1,8,0:0:0:0:
348,108,74559,6,0,P|316:140|296:180,1,90,0|2,0:0|0:0,0:0:0:0:
428,296,74906,2,0,P|428:248|416:208,1,90,0|8,0:0|0:0,0:0:0:0:
188,228,75253,1,0,0:0:0:0:
344,256,75426,1,2,0:0:0:0:
216,120,75599,2,0,L|120:112,2,90,0|8|0,0:0|0:0|0:0,0:0:0:0:
448,52,76120,6,0,L|268:40,1,180,4|8,0:0|0:0,0:0:0:0:
112,116,76640,1,0,0:0:0:0:
304,188,76813,1,2,0:0:0:0:
200,68,76987,1,0,0:0:0:0:
140,224,77160,2,0,P|180:196|208:162,1,90,8|0,0:0|0:0,0:0:0:0:
28,136,77507,6,0,P|20:200|68:316,1,180,2|8,0:0|0:0,0:0:0:0:
216,316,78027,1,0,0:0:0:0:
396,352,78201,1,2,0:0:0:0:
280,256,78374,1,0,0:0:0:0:
144,356,78547,1,8,0:0:0:0:
232,168,78721,2,0,L|368:176,1,135
460,248,79068,6,0,P|412:272|276:248,1,180,4|0,0:0|0:0,0:0:0:0:
180,108,79588,1,2,0:0:0:0:
176,264,79761,1,0,0:0:0:0:
368,172,79935,1,8,0:0:0:0:
232,188,80108,1,0,0:0:0:0:
312,344,80282,6,0,P|320:296|316:248,1,90,2|8,0:0|0:0,0:0:0:0:
193,109,80628,2,0,P|205:153|233:189,1,90,8|0,0:0|0:0,0:0:0:0:
416,208,80975,1,2,0:0:0:0:
288,120,81149,1,0,0:0:0:0:
176,260,81322,1,8,0:0:0:0:
144,252,81409,1,0,3:0:0:0:
112,244,81495,1,0,3:0:0:0:
80,236,81582,1,0,3:0:0:0:
48,228,81669,6,0,L|28:84,1,144,4|0,0:0|0:0,0:0:0:0:
192,28,82189,1,2,0:0:0:0:
192,28,82362,2,0,L|180:172,1,144,8|0,0:0|0:0,0:0:0:0:
372,288,82883,5,2,0:0:0:0:
372,288,83056,2,0,P|336:248|252:224,1,144
100,332,83576,1,2,0:0:0:0:
52,228,83750,1,8,0:0:0:0:
52,228,84097,1,0,0:0:0:0:
304,304,84270,1,4,0:0:0:0:
56,56,84617,6,0,P|36:96|32:144,1,90,4|8,0:0|0:0,0:0:0:0:
216,240,84964,1,0,0:0:0:0:
120,124,85137,1,8,0:0:0:0:
16,232,85310,1,0,0:0:0:0:
224,140,85484,2,0,L|316:144,1,90,8|0,0:0|0:0,0:0:0:0:
488,292,85831,6,0,L|396:288,1,90,4|0,0:0|0:0,0:0:0:0:
240,180,86177,1,8,0:0:0:0:
436,216,86351,1,4,0:0:0:0:
436,216,86698,1,0,0:0:0:0:
260,352,86871,1,8,0:0:0:0:
248,322,86958,1,0,3:0:0:0:
240,291,87045,1,0,3:0:0:0:
240,259,87131,1,0,3:0:0:0:
248,228,87218,6,0,P|260:176|208:60,1,180,4|8,0:0|0:0,0:0:0:0:
48,156,87738,2,0,L|148:164,1,90,2|0,0:0|0:0,0:0:0:0:
332,80,88085,1,2,0:0:0:0:
248,228,88258,1,8,0:0:0:0:
200,104,88432,6,0,L|216:16,1,90,2|0,0:0|0:0,0:0:0:0:
348,192,88779,2,0,L|328:292,1,90,0|8,0:0|0:0,0:0:0:0:
124,324,89125,1,2,0:0:0:0:
248,228,89299,1,0,0:0:0:0:
116,148,89472,2,0,L|24:156,2,90,2|8|8,0:0|0:0|0:0,0:0:0:0:
252,316,89992,6,0,P|172:304|116:228,1,180,0|8,0:0|0:0,0:0:0:0:
240,52,90513,1,2,0:0:0:0:
228,208,90686,1,0,0:0:0:0:
72,120,90860,2,0,P|120:116|164:124,1,90,2|8,0:0|0:0,0:0:0:0:
168,300,91206,5,2,0:0:0:0:
168,300,91553,1,0,0:0:0:0:
112,208,91727,1,8,0:0:0:0:
284,276,91900,2,0,L|376:280,1,90,0|2,0:0|0:0,0:0:0:0:
484,128,92247,2,0,L|392:132,1,90,2|8,0:0|0:0,0:0:0:0:
212,212,92594,1,8,0:0:0:0:
304,360,92767,6,0,P|328:292|312:184,1,180,4|8,0:0|0:0,0:0:0:0:
152,132,93287,1,2,0:0:0:0:
224,224,93461,1,0,0:0:0:0:
372,112,93634,2,0,P|332:100|280:96,1,90,2|8,0:0|0:0,0:0:0:0:
152,256,93981,6,0,P|236:248|304:184,1,180,2|0,0:0|0:0,0:0:0:0:
200,52,94501,1,8,0:0:0:0:
360,112,94675,1,2,0:0:0:0:
228,168,94848,1,0,0:0:0:0:
296,28,95021,1,2,0:0:0:0:
420,180,95195,2,0,L|512:176,1,90,8|0,0:0|0:0,0:0:0:0:
388,40,95542,6,0,L|208:48,1,180,2|8,0:0|0:0,0:0:0:0:
68,188,96062,1,2,0:0:0:0:
164,244,96235,2,0,P|180:200|180:152,1,90,8|2,0:0|0:0,0:0:0:0:
16,56,96582,1,8,0:0:0:0:
80,184,96756,6,0,L|264:204,1,180,2|2,0:0|0:0,0:0:0:0:
384,160,97276,1,8,0:0:0:0:
304,288,97449,2,0,L|212:280,1,90,2|8,0:0|0:0,0:0:0:0:
96,176,97796,1,2,0:0:0:0:
248,40,97969,1,0,3:0:0:0:
254,70,98056,1,0,3:0:0:0:
251,101,98143,1,0,3:0:0:0:
243,131,98229,1,0,3:0:0:0:
224,156,98316,6,0,L|216:248,1,90,4|0,0:0|0:0,0:0:0:0:
406,342,98663,2,0,L|396:208,1,135,4|0,0:0|0:0,0:0:0:0:
340,134,99010,1,8,0:0:0:0:
340,134,99097,2,0,L|347:82,1,45,8|8,0:0|0:0,0:0:0:0:
456,36,99270,2,0,L|464:85,1,45,8|0,0:0|0:0,0:0:0:0:
248,44,99530,5,4,0:0:0:0:
256,192,99617,12,0,100744,0:0:0:0:
256,192,100917,5,2,0:0:0:0:
