osu file format v9

[General]
AudioFilename: Marie & Shimotsuki Haruka - Hane no Bou Ki Chou.mp3
AudioLeadIn: 0
PreviewTime: 154587
Countdown: 0
SampleSet: Soft
StackLeniency: 0.6
Mode: 0
LetterboxInBreaks: 0

[Editor]
Bookmarks: 89669,101417,180298,193725
DistanceSpacing: 1.1
BeatDivisor: 4
GridSize: 8

[Metadata]
Title:Hane no Naki Chou
Artist:Marie & Shimotsuki Haruka
Creator:KanbeKotori
Version:Normal
Source:Hane no Naki Chou
Tags:arcane753

[Difficulty]
HPDrainRate:2
CircleSize:3
OverallDifficulty:3
ApproachRate:4
SliderMultiplier:1.2
SliderTickRate:1

[Events]
//Background and Video events
0,0,"bg.jpg"
//Break Periods
2,32385,33593
2,89869,100726
2,113365,114152
2,182176,194083
//Storyboard Layer 0 (Background)
//Storyboard Layer 1 (Fail)
//Storyboard Layer 2 (Pass)
//Storyboard Layer 3 (Foreground)
//Storyboard Sound Samples
//Background Colour Transformations
3,100,163,162,255

[TimingPoints]
5753,419.58041958042,4,2,1,80,1,0
44354,-100,4,2,1,5,0,0
46032,-100,4,2,1,80,0,0
61137,-100,4,2,1,80,0,1
84634,-100,4,2,1,5,0,1
86312,-100,4,2,1,80,0,1
87990,-100,4,2,1,5,0,1
89669,-100,4,2,1,80,0,0
111487,-100,4,2,1,5,0,0
115473,-100,4,2,1,80,0,0
124913,-100,4,2,1,5,0,0
126592,-100,4,2,1,80,0,0
141697,-100,4,2,1,80,0,1
165193,-100,4,2,1,5,0,1
166871,-100,4,2,1,80,0,1
168550,-100,4,2,1,80,0,0
195403,-100,4,2,1,80,0,1
205473,-100,4,2,1,5,0,1
207151,-100,4,2,1,80,0,1
232326,-100,4,2,1,5,0,1
234004,-100,4,2,1,80,0,1
235683,-100,4,2,1,5,0,1
237361,-100,4,2,1,5,0,0

[Colours]
Combo1 : 107,222,228
Combo2 : 108,172,148
Combo3 : 230,138,204
Combo4 : 202,206,199

[HitObjects]
72,88,7431,2,0,B|136:80|208:128,1,120,4|8
320,136,8270,2,0,B|352:80,2,60,0|0|8
328,264,9109,2,0,B|264:224|192:240,1,120,0|8
144,240,9739,1,0
88,280,9948,2,0,B|40:232|56:144,1,120,0|8
128,64,10787,5,2
328,56,11417,1,2
440,224,12046,1,0
312,200,12466,6,0,B|272:208|240:224,3,60,2|0|8|0
144,288,13515,1,2
144,288,13725,1,8
40,200,14144,6,0,B|64:136|56:72,1,120,0|8
120,88,14773,1,0
160,136,14983,2,0,B|232:112|296:120,1,120,0|8
392,48,15822,5,0
368,248,16452,1,2
192,328,17081,1,2
104,232,17501,6,0,B|152:184|224:176,1,120,0|8
168,56,18340,2,0,B|120:104|48:112,1,120,0|8
104,232,19179,2,0,B|64:320,3,90,2|2|2|2
456,136,21487,5,0
456,136,21697,2,0,B|376:120,1,60,0|2
344,160,22116,2,0,B|272:192,1,60,0|2
288,320,22746,2,0,B|216:288,2,60,0|2|0
88,80,24843,5,0
88,80,25053,2,0,B|88:160,1,60,0|2
152,152,25473,2,0,B|192:216,1,60,0|2
272,304,26102,2,0,B|208:352,2,60,2|2|0
208,48,27361,5,2
208,48,27571,2,0,B|272:88|272:160,1,120,4|8
176,240,28410,2,0,B|136:288,2,60,0|0|8
240,248,29039,1,0
304,264,29249,2,0,B|368:256|432:272,1,120,0|8
448,144,30088,2,0,B|384:152|320:136,1,120,0|8
200,96,30927,2,0,B|128:64|56:72,3,120,0|8|0|8
184,272,34913,6,0,B|128:264|104:264,2,60,0|2|0
248,256,35543,2,0,B|280:264|304:288,1,60,2|0
432,296,36172,1,0
432,296,36382,1,2
432,296,36592,1,0
144,136,38270,6,0,B|168:96|208:88,2,60,0|2|0
80,128,38899,2,0,B|48:152|40:176,1,60,2|0
56,304,39529,1,2
56,304,39739,1,2
56,304,39948,1,0
320,304,40787,5,2
320,304,40997,2,0,B|280:248|288:176,1,120,4|8
328,136,41627,1,0
320,72,41836,2,0,B|264:48|200:56,1,120,0|8
88,120,42676,5,0
72,248,43095,1,8
200,264,43515,1,0
216,136,43934,1,8
256,192,44354,12,0,46032
144,96,48340,5,0
144,96,48550,2,0,B|88:112|56:176,1,120,2|0
112,296,49389,2,0,B|160:256|232:264,1,120,2|0
240,200,50018,2,0,B|312:200|368:256,1,120,2|2
360,304,50648,1,0
144,56,51697,5,2
144,56,51906,2,0,B|208:88|288:80,1,120,2|0
392,88,52746,2,0,B|344:144,3,60,2|0|0|6
352,288,54843,6,0,B|304:264|272:264,1,60,8|0
256,208,55263,2,0,B|184:216|128:256,2,120,0|8|0
48,48,56941,6,0,B|80:88|112:104,1,60
160,88,57361,2,0,B|200:112|208:144,1,60,8|0
176,192,57780,2,0,B|240:216|312:200,1,120,0|8
336,328,58620,2,0,B|272:304|200:320,1,120,0|8
88,328,59459,1,2
88,328,59669,1,2
56,200,60088,6,0,B|72:152|128:104,1,120,0|2
176,144,60718,2,0,B|216:128|256:128,1,60
296,96,61137,2,0,B|352:112|408:168,1,120,4|8
328,272,61976,2,0,B|384:288,2,60,0|0|8
216,208,62815,2,0,B|144:216|96:272,1,120,0|8
96,128,63655,2,0,B|40:80,4,60,0|2|8|0|0
224,96,64913,6,0,B|264:112|320:112,2,90,8|0|0
224,96,65753,1,8
96,128,66172,2,0,B|64:160|64:200,1,60
80,240,66592,2,0,B|128:248|144:272,1,60,8|0
136,328,67011,1,0
440,72,68270,6,0,B|416:136|352:160,1,120,8|0
296,168,68899,1,0
232,160,69109,2,0,B|192:160|152:176,1,60,8|0
120,128,69529,2,0,B|48:152|32:224,1,120,0|8
128,304,70368,2,0,B|208:280|272:296,1,120,0|8
360,232,71207,6,0,B|408:296,2,60,0|0|8
288,120,72046,2,0,B|336:64,2,60,0|0|8
160,144,72885,1,0
160,144,73095,1,0
96,160,73305,1,8
96,160,73515,1,2
392,312,74564,6,0,B|344:264|336:184,1,120,4|8
280,88,75403,1,0
224,120,75613,1,0
192,176,75822,1,8
64,136,76242,2,0,B|32:200|40:272,1,120,0|8
168,288,77081,2,0,B|104:320,4,60,0|0|8|0|2
280,224,78340,6,0,B|248:176|264:112,2,90,8|0|0
280,224,79179,1,8
392,288,79599,2,0,B|432:248|456:240,2,60,0|0|8
336,328,80228,2,0,B|256:336,1,60,0|2
104,128,81277,6,0,B|144:176|144:256,1,120,4|8
272,264,82116,2,0,B|240:320,2,60,0|0|8
248,136,82955,2,0,B|304:112|368:112,1,120,4|8
448,216,83794,2,0,B|384:192,2,60,0|2|8
256,192,84634,12,0,86312
256,96,86732,5,0
176,200,87151,1,2
256,304,87571,1,0
256,192,87990,12,0,89669
56,248,102046,5,0
56,248,102256,2,0,B|136:264,1,60,0|2
144,320,102675,2,0,B|216:288,1,60,0|2
328,272,103305,1,0
392,248,103515,1,2
456,264,103725,1,0
224,320,105402,5,0
224,320,105612,2,0,B|208:280|224:240,1,60,0|2
184,200,106032,2,0,B|152:200|112:232,1,60,0|2
56,112,106662,1,2
112,80,106871,1,2
176,88,107081,1,0
304,328,107920,5,2
304,328,108130,2,0,B|288:264|240:216,1,120,4|8
240,88,108969,2,0,B|280:40,2,60,0|0|8
176,72,109598,1,0
120,104,109808,2,0,B|96:155|93:220,1,120,0|8
152,248,110438,1,0
192,296,110647,2,0,B|256:288|320:304,1,120,0|8
256,192,111487,12,0,113165
328,112,115472,6,0,B|384:120|408:120,2,60,0|2|0
280,160,116102,2,0,B|248:152|200:160,1,60,2|0
96,200,116732,2,0,B|120:128,2,60,0|2|0
192,296,117571,2,0,B|168:368,2,60,0|2|0
368,248,118829,6,0,B|344:288|304:296,2,60,0|2|0
328,200,119458,2,0,B|336:168|360:144,1,60,2|0
280,40,120088,2,0,B|328:32|344:40,2,60,2|2|0
48,160,121346,5,2
48,160,121556,2,0,B|48:224|80:288,1,120,4|8
184,200,122396,2,0,B|232:128,2,60,0|0|8
280,288,123235,2,0,B|336:256|408:256,1,120,0|8
440,128,124074,2,0,B|384:160|312:160,1,120,0|8
256,192,124913,12,0,126591
192,296,128899,5,0
192,296,129109,2,0,B|248:280|280:216,1,120,2|0
144,208,129948,2,0,B|96:248|24:240,1,120,2|0
80,120,130787,2,0,B|104:48,4,60,0|2|0|2|0
368,328,132256,5,2
368,328,132465,2,0,B|304:296|224:304,1,120,2|0
128,248,133305,1,2
128,248,133515,1,0
72,288,133725,1,0
72,288,133934,1,6
64,144,135402,6,0,B|112:168|144:168,1,60,8|0
168,120,135822,2,0,B|232:112|232:112|296:72,2,120,0|8|0
344,344,137500,6,0,B|296:325|260:327,1,60
224,336,137920,2,0,B|184:312|176:280,1,60,8|0
120,304,138339,2,0,B|107:249|131:185,1,120,0|8
80,64,139179,1,0
144,72,139389,1,0
200,96,139599,1,8
320,48,140018,2,0,B|392:80,1,60,2|2
408,200,140647,6,0,B|358:210|288:185,1,120,0|2
256,240,141277,2,0,B|216:256|176:256,1,60
168,192,141696,2,0,B|112:208|56:264,1,120,4|8
160,344,142535,2,0,B|96:336,2,60,0|0|8
288,320,143374,6,0,B|360:312|408:256,1,120,0|8
432,144,144214,1,0
368,160,144424,1,0
304,136,144634,1,8
240,136,144843,1,2
184,104,145053,1,0
120,216,145472,6,0,B|80:200|24:200,2,90,8|0|0
120,216,146312,1,10
216,304,146731,2,0,B|240:288|280:280,1,60
336,288,147151,1,8
392,248,147361,1,0
456,248,147571,1,0
88,96,148829,6,0,B|140:52|208:63,1,120,8|0
240,112,149458,1,0
304,120,149668,2,0,B|344:120|384:104,1,60,8|0
392,48,150088,2,0,B|464:72|480:144,1,120,0|8
440,256,150927,2,0,B|360:280|296:264,1,120,0|8
152,152,151766,6,0,B|104:88,2,60,0|0|8
88,264,152606,1,0
152,272,152815,1,0
208,312,153025,1,8
288,208,153445,2,0,B|352:248,1,60
384,192,153864,2,0,B|456:176,1,60,8|2
120,72,155123,6,0,B|168:120|176:200,1,120,4|8
152,312,155962,2,0,B|80:280,2,60,0|0|8
280,328,156801,2,0,B|312:264|384:240,1,120,0|8
424,128,157640,2,0,B|488:104,2,60,0|0|8
360,152,158270,1,0
296,176,158480,1,0
184,104,158899,6,0,B|168:152|128:192,2,90,8|0|0
184,104,159738,1,10
304,152,160158,2,0,B|264:192|240:200,2,60,0|0|8
360,112,160787,1,0
416,72,160997,1,2
392,336,161836,6,0,B|320:328|272:272,1,120,4|8
152,312,162676,1,0
152,312,162885,1,0
152,312,163095,1,8
48,224,163514,2,0,B|80:176|144:152,1,120,4|8
272,144,164354,1,0
272,144,164564,1,0
272,144,164773,1,8
256,192,165193,12,4,166871
304,256,167291,5,0
184,200,167710,1,2
288,120,168130,1,0
168,72,168550,6,0,B|88:88|48:128,1,120,4|8
96,248,169389,2,0,B|168:256|224:304,1,120,0|8
296,192,170228,2,0,B|224:208,2,60,0|0|8
400,112,171067,2,0,B|464:128,2,60,0|0|8
280,64,171906,5,0
144,64,172326,1,8
72,176,172746,1,0
128,296,173165,1,8
256,312,173585,2,0,B|240:240,2,60,0|0|8
352,216,174424,2,0,B|368:288,4,60,0|0|8|0|4
240,144,175683,5,8
344,64,176102,2,0,B|400:96|440:168,1,120,0|8
344,248,176941,2,0,B|280:296,3,60,0|0|8|0
232,288,177780,2,0,B|160:264,3,60,0|0|8|0
112,280,178620,5,0
96,152,179039,1,8
224,168,179459,1,0
200,40,179878,1,8
328,64,180298,1,4
392,256,180927,6,0,B|328:232|256:256,1,120
216,224,181557,2,0,B|176:224|136:240,1,60,2|2
104,272,181976,1,0
56,64,195403,6,0,B|104:112|112:192,1,120,4|8
72,296,196242,1,0
128,264,196452,1,0
192,264,196661,1,8
304,336,197081,2,0,B|296:272|320:216,1,120,0|8
400,112,197920,2,0,B|448:152,4,60,0|0|8|0|2
296,32,199179,6,0,B|344:16|400:32,2,90,8|0|0
296,32,200018,1,8
192,112,200438,2,0,B|152:152|128:160,2,60,0|0|8
280,208,201277,2,0,B|360:216,2,60,0|0|8
192,304,202116,6,0,B|152:256|152:176,1,120,4|8
120,64,202955,2,0,B|64:24,2,60,0|0|8
248,48,203794,2,0,B|296:84|328:139,1,120,4|8
408,240,204633,2,0,B|467:206,2,60,0|2|8
256,192,205473,12,0,207151
136,336,207571,5,0
80,216,207990,1,2
120,88,208410,1,0
208,184,208829,6,0,B|264:168|336:192,1,120,4|8
368,64,209668,2,0,B|424:40,2,60,0|0|8
224,64,210507,2,0,B|152:72|104:128,1,120,0|8
80,240,211347,1,0
136,280,211557,1,0
200,296,211766,2,0,B|280:288,2,60,8|0|0
208,168,212605,6,0,B|248:144|264:88,2,90,8|0|0
208,168,213445,1,10
320,240,213864,2,0,B|344:256|384:264,1,60
440,256,214284,2,0,B|472:320,2,60,8|0|0
336,72,215962,6,0,B|284:116|216:105,1,120,8|0
160,80,216591,1,0
96,88,216801,2,0,B|61:107|34:141,1,60,8|0
24,184,217221,2,0,B|96:208|112:280,1,120,0|8
224,328,218060,2,0,B|304:304|368:320,1,120,0|8
288,192,218899,6,0,B|224:152,2,60,0|0|8
416,144,219739,1,0
368,96,219948,1,0
304,88,220158,1,8
168,88,220578,2,0,B|104:48,1,60
88,112,220997,2,0,B|33:161,1,60,8|2
320,328,222256,6,0,B|272:280|192:272,1,120,4|8
88,320,223095,2,0,B|160:352,2,60,0|0|8
64,192,223934,6,0,B|96:128|168:104,1,120,0|8
280,80,224773,2,8,B|344:102,2,60,0|0|8
216,56,225403,1,0
152,32,225613,1,0
72,136,226032,6,0,B|45:92|40:36,2,90,8|0|0
72,136,226871,1,10
168,232,227291,2,0,B|136:240|104:280,4,60,0|0|8|0|0
384,72,228969,6,0,B|424:132|412:205,1,120,4|8
280,192,229809,1,0
280,192,230018,1,0
280,192,230228,1,8
200,88,230647,2,0,B|168:136|104:160,1,120,4|8
64,288,231487,1,0
64,288,231697,1,0
64,288,231906,1,8
256,192,232326,8,0,234004
208,128,234424,5,0
328,184,234843,1,2
224,264,235263,1,0
256,192,235683,12,0,237361
