osu file format v9

[General]
AudioFilename: Marie & Shimotsuki Haruka - Hane no Bou Ki Chou.mp3
AudioLeadIn: 0
PreviewTime: 154587
Countdown: 0
SampleSet: Soft
StackLeniency: 0.6
Mode: 0
LetterboxInBreaks: 0

[Editor]
Bookmarks: 89669,101417,180298,193725
DistanceSpacing: 1.1
BeatDivisor: 4
GridSize: 8

[Metadata]
Title:Hane no Naki Chou
Artist:Marie & Shimotsuki Haruka
Creator:KanbeKotori
Version:Hard
Source:Hane no Naki Chou
Tags:arcane753

[Difficulty]
HPDrainRate:3
CircleSize:4
OverallDifficulty:6
ApproachRate:7
SliderMultiplier:1.4
SliderTickRate:1

[Events]
//Background and Video events
0,0,"bg.jpg"
//Break Periods
2,89869,100517
2,112946,113943
2,182176,192825
//Storyboard Layer 0 (Background)
//Storyboard Layer 1 (Fail)
//Storyboard Layer 2 (Pass)
//Storyboard Layer 3 (Foreground)
//Storyboard Sound Samples
//Background Colour Transformations
3,100,163,162,255

[TimingPoints]
5753,419.58041958042,4,2,1,80,1,0
7011,-100,4,2,1,80,0,0
7116,-100,4,2,1,60,0,0
7221,-100,4,2,1,40,0,0
7326,-100,4,2,1,20,0,0
7431,-100,4,2,1,80,0,0
20857,-133.333333333333,4,2,1,60,0,0
27571,-100,4,2,1,60,0,0
34284,-133.333333333333,4,2,1,60,0,0
40997,-100,4,2,1,60,0,0
44354,-100,4,2,1,5,0,0
47711,-133.333333333333,4,2,1,60,0,0
54424,-100,4,2,1,80,0,0
61137,-100,4,2,1,80,0,1
84634,-100,4,2,1,5,0,1
86312,-100,4,2,1,80,0,1
87990,-100,4,2,1,5,0,1
89669,-100,4,2,1,60,0,0
101417,-133.333333333333,4,2,1,60,0,0
108130,-100,4,2,1,60,0,0
114843,-133.333333333333,4,2,1,60,0,0
121557,-100,4,2,1,60,0,0
124913,-100,4,2,1,5,0,0
128270,-133.333333333333,4,2,1,60,0,0
134983,-100,4,2,1,80,0,0
141697,-100,4,2,1,80,0,1
165193,-100,4,2,1,5,0,1
166871,-100,4,2,1,80,0,1
168550,-100,4,2,1,60,0,0
180718,-133.333333333333,4,2,1,60,0,0
193725,-100,4,2,1,80,0,0
195403,-100,4,2,1,80,0,1
205473,-100,4,2,1,5,0,1
207780,-100,4,2,1,80,0,1
232326,-100,4,2,1,5,0,1
234004,-100,4,2,1,80,0,1
235683,-100,4,2,1,5,0,1
237361,-100,4,2,1,5,0,0

[Colours]
Combo1 : 107,222,228
Combo2 : 108,172,148
Combo3 : 230,138,204
Combo4 : 202,206,199

[HitObjects]
64,160,7011,1,8
64,160,7116,1,8
64,160,7221,1,8
64,160,7326,1,8
64,160,7431,2,0,B|128:120|216:120,1,140,4|8
352,96,8270,2,0,B|336:56|296:48,2,70,0|0|8
392,160,8899,1,0
352,224,9109,2,0,B|424:248|448:328,1,140,0|8
104,240,9948,6,0,B|80:272|88:320,2,70,0|0|8
88,160,10578,1,0
32,104,10787,2,0,B|80:64|176:56,1,140,2|8
192,128,11417,2,0,B|253:117|340:158,1,140
336,232,12046,1,8
392,88,12466,6,0,B|312:56,1,70,0|2
184,48,12885,2,0,B|264:80,1,70,8|0
272,152,13305,1,2
280,232,13515,1,0
336,288,13725,1,8
168,328,14144,6,0,B|152:256|80:224,1,140,0|8
56,152,14773,1,0
104,88,14983,2,0,B|144:48,1,35,0|2
192,104,15298,2,0,B|224:128,1,35,0|8
288,88,15613,1,2
368,96,15822,6,0,B|424:152|408:240,1,140,0|8
336,208,16452,2,0,B|290:272|201:272,1,140
160,216,17081,1,8
256,96,17501,6,0,B|272:56|320:48,2,70,0|2|8
280,168,18130,1,0
280,168,18235,1,8
280,168,18340,2,0,B|272:208|248:240,1,70
240,312,18759,2,0,B|192:352,1,35,8|0
144,240,19179,5,2
208,80,19494,1,2
368,144,19808,1,2
304,304,20123,1,2
256,192,20857,5,4
256,192,21487,2,0,B|256:128,2,52.4999984353781
264,248,22116,2,0,B|248:280|224:296,1,52.4999984353781,2|0
128,240,22746,1,0
72,264,22955,1,2
72,320,23165,1,0
128,128,23585,5,0
128,128,23690,1,2
128,128,23794,2,0,B|80:96,2,52.4999984353781,0|2|0
248,248,24843,6,0,B|240:280|256:312,2,52.4999984353781,0|2|0
224,192,25473,2,0,B|248:144,1,52.4999984353781,2|0
312,48,26102,1,2
368,56,26312,1,2
400,104,26522,1,0
368,272,27151,5,8
368,272,27256,1,8
368,272,27361,1,0
312,216,27571,2,0,B|240:192|176:224,1,140,4|8
112,264,28200,1,0
48,216,28410,2,0,B|16:136,1,70,2|0
56,32,28829,2,0,B|88:112,1,70,8|0
160,112,29249,6,0,B|208:128|272:120,1,105
263,120,29669,2,0,B|336:144,1,70,8|0
328,64,30088,1,2
304,216,30508,1,8
440,288,30927,6,0,B|400:344|312:352,1,140,0|8
264,296,31557,1,0
184,296,31766,2,0,B|104:336,2,70,0|0|8
256,192,34284,5,4
256,192,34913,2,0,B|256:256,2,52.4999984353781
288,144,35543,1,2
344,128,35753,2,0,B|320:72|272:48,1,104.999996870756
216,40,36382,1,2
160,64,36592,1,0
104,176,37011,6,0,B|128:136,2,26.2499992176891,2|2|0
80,288,37431,2,0,B|56:328,2,26.2499992176891,2|2|0
256,320,38270,6,0,B|232:304|184:304,2,52.4999984353781,0|2|0
312,296,38899,1,2
368,312,39109,2,0,B|424:288|440:240,1,104.999996870756,0|2
424,184,39739,1,2
440,128,39948,1,0
272,176,40578,5,8
272,176,40683,1,8
272,176,40787,1,8
272,176,40892,1,8
272,176,40997,2,0,B|208:128,1,70,4|0
144,168,41417,2,0,B|56:152,1,70,8|0
40,88,41836,2,0,B|96:40|184:48,1,140,2|8
240,88,42466,1,0
312,72,42676,6,0,B|408:56,1,70
384,136,43095,2,0,B|464:176,1,70,8|0
392,224,43515,2,0,B|328:248|296:328,1,140,2|8
256,192,44354,12,0,46032
256,192,47711,5,4
256,192,47920,1,4
360,144,48340,5,2
360,144,48550,2,0,B|320:96|264:88,1,104.999996870756,2|0
160,72,49389,2,0,B|168:128|128:176,1,104.999996870756,2|0
80,184,50018,2,0,B|72:240|112:288,1,104.999996870756,2|0
128,336,50648,1,2
256,192,51067,5,4
256,192,51277,1,4
176,104,51697,1,2
176,104,51906,2,0,B|224:80|288:80,1,104.999996870756,2|0
384,128,52746,2,0,B|424:80,3,52.4999984353781,2|0|0|12
368,256,54004,5,8
368,256,54109,1,8
368,256,54214,1,8
368,256,54319,1,8
368,256,54424,2,0,B|296:232|232:264,1,140,0|8
160,272,55053,1,0
184,200,55263,2,0,B|144:168|112:176,1,70,2|0
32,80,55683,2,0,B|72:112|104:104,1,70,8|0
176,96,56102,2,0,B|248:56|336:56,1,140,0|8
296,208,56941,6,0,B|368:256,1,70,2|0
384,176,57361,2,0,B|464:176,1,70,8|0
440,96,57780,2,0,B|384:48|304:56,1,140,0|8
248,96,58410,1,0
176,88,58620,2,0,B|80:64,2,70,0|2|8
256,216,59459,5,2
256,216,59669,1,2
400,272,60088,6,0,B|432:208|416:136,1,140,0|2
344,152,60718,2,0,B|328:112|288:104,1,70,2|0
216,112,61137,2,0,B|152:80,2,70,4|0|8
216,192,61766,1,0
216,192,61871,1,8
216,192,61976,1,0
240,264,62186,6,0,B|280:264|320:296,2,70,0|8|0
168,288,62815,2,0,B|88:280,1,70
128,208,63235,2,0,B|72:152,1,70,8|0
88,80,63655,1,2
88,80,63864,1,0
160,96,64074,1,8
160,96,64284,1,0
232,80,64494,1,0
312,208,64913,6,0,B|280:256|288:320,2,105,8|0|0
312,208,65753,1,8
376,168,65962,1,0
376,168,66067,1,2
376,168,66172,2,0,B|424:112,1,70
352,80,66592,2,0,B|304:24,1,70,8|0
232,56,67011,1,0
80,320,67850,5,4
80,320,68270,2,0,B|112:264|96:200,1,105,8|0
99,218,68690,2,0,B|160:168,1,70
200,112,69109,1,8
272,128,69319,1,0
344,112,69529,2,0,B|408:160|424:248,1,140,0|8
488,264,70158,2,0,B|429:318|340:319,1,140
296,288,70787,1,8
216,280,70997,5,0
216,280,71102,1,2
216,280,71207,2,0,B|176:336,2,70,0|0|8
200,120,71836,2,0,B|240:64,2,70
208,200,72466,1,8
208,200,72676,1,0
136,232,72885,2,0,B|56:248,1,70,2|0
280,168,73305,2,0,B|360:152,1,70,8|0
136,72,74144,5,8
136,72,74249,1,8
136,72,74354,1,8
136,72,74459,1,8
136,72,74564,2,0,B|96:88|72:120,2,70,4|0|8
216,72,75193,2,0,B|208:32,2,35,0|2|0
296,56,75613,1,0
360,96,75822,1,8
384,168,76032,1,0
368,240,76242,6,0,B|440:264,2,70,0|0|8
288,240,76871,1,0
288,240,76976,1,2
288,240,77081,2,0,B|208:216,1,70
200,296,77501,2,0,B|112:312,1,70,8|0
64,344,77920,1,0
88,192,78340,6,0,B|80:136|24:104,2,105,8|0|0
88,192,79179,1,8
160,208,79389,1,0
160,208,79494,1,2
160,208,79599,2,0,B|240:272,1,70
256,184,80018,2,0,B|344:160,1,70,8|0
368,104,80438,1,0
72,192,81277,6,0,B|48:112,2,70,4|0|8
176,312,82116,1,0
248,280,82326,1,0
320,304,82536,1,8
408,176,82955,6,0,B|448:256,2,70,0|0|8
296,72,83794,1,0
273,147,84004,1,0
200,128,84214,1,8
144,184,84424,1,0
256,192,84634,12,0,86312
152,240,86732,6,0,B|200:192|240:184,1,105,8|0
239,184,87151,2,0,B|288:104,2,70,0|0|8
256,192,87990,12,0,89669
256,192,101417,5,4
128,80,102046,6,0,B|98:60|66:69,2,52.4999984353781
184,65,102676,1,2
236,91,102885,1,0
352,104,103305,2,0,B|400:160,2,52.4999984353781,0|2|0
344,216,103934,2,0,B|296:160,4,52.4999984353781,0|2|0|2|2
176,256,105403,6,0,B|200:240|232:240,2,52.4999984353781,0|2|0
120,272,106032,1,2
64,248,106242,1,0
96,136,106662,2,0,B|56:80,2,52.4999984353781,2|2|0
264,80,107711,5,8
264,80,107815,1,8
264,80,107920,1,0
264,80,108130,2,0,B|336:88|384:168,1,140,4|8
320,208,108759,1,0
304,280,108969,2,0,B|232:328,1,70
112,336,109389,2,0,B|184:288,1,70,8|0
248,160,109808,6,0,B|200:128|128:128,1,105
149,128,110228,2,0,B|88:80,1,70,8|0
40,144,110648,1,2
88,208,110857,1,0
72,288,111067,1,8
216,224,111487,6,0,B|288:240|336:312,1,140,0|8
256,336,112116,1,0
192,296,112326,1,0
216,224,112536,1,0
200,152,112746,1,8
256,192,114843,5,4
408,272,115473,5,0
392,216,115683,1,0
416,168,115892,1,0
408,112,116102,2,0,B|440:56,1,52.4999984353781,2|0
320,64,116732,6,0,B|256:40,2,52.4999984353781,0|2|0
144,56,117571,2,0,B|208:80,2,52.4999984353781,0|2|0
88,280,118829,5,0
136,248,119039,1,2
192,256,119249,1,0
248,232,119459,2,0,B|320:256,1,52.4999984353781,2|0
408,208,120088,2,0,B|448:248,2,52.4999984353781
408,208,120718,1,8
400,328,120927,5,8
376,312,121032,1,0
352,304,121137,1,8
320,312,121242,1,8
296,328,121347,1,0
168,264,121557,6,0,B|112:320,2,70,4|0|8
144,192,122186,1,0
176,120,122396,2,0,B|256:160,1,70,2|0
280,88,122815,2,0,B|368:72,1,70,8|0
288,216,123235,6,0,B|312:272|380:328,1,140,0|8
304,352,123864,1,0
232,320,124074,2,0,B|152:344,1,70,2|0
48,304,124494,2,0,B|128:280,1,70,8|0
256,192,124913,12,0,126592
256,192,128270,5,4
256,192,128480,1,4
176,272,128899,5,2
176,272,129109,2,0,B|248:272|296:296,1,104.999996870756,2|0
328,264,129739,1,0
384,272,129948,2,0,B|400:216|456:184,1,104.999996870756,2|0
432,136,130578,2,0,B|384:104|312:112,1,104.999996870756,2|0
288,72,131207,1,2
256,192,131627,5,4
256,192,131836,1,4
352,264,132256,1,2
352,264,132466,2,0,B|280:272|240:320,1,104.999996870756,2|0
200,288,133095,1,0
144,296,133305,2,0,B|96:240,1,52.4999984353781,2|0
64,168,133725,2,0,B|112:224,1,52.4999984353781,0|2
176,160,134144,5,8
176,160,134249,1,8
176,160,134354,1,0
208,80,134564,1,8
208,80,134669,1,8
208,80,134773,1,8
208,80,134878,1,8
208,80,134983,6,0,B|280:80|336:128,1,140,4|8
360,200,135613,1,0
328,272,135822,2,0,B|368:280|400:312,1,70,2|0
256,296,136242,2,0,B|216:288|184:256,1,70,8|0
120,272,136662,1,2
168,40,137081,1,8
48,136,137501,6,0,B|120:160,1,70,2|0
192,160,137920,2,0,B|272:152,1,70,8|0
304,88,138340,2,0,B|376:112|408:184,1,140,2|8
424,256,138969,1,0
408,328,139179,2,0,B|472:352,2,70,0|0|8
256,262,140018,6,0,B|256:192,1,70,2|2
128,328,140648,6,0,B|64:288|56:208,1,140,0|2
128,176,141277,2,0,B|136:136|160:112,1,70,2|0
232,112,141697,2,0,B|216:40,2,70,4|0|8
248,184,142326,1,0
248,184,142431,1,8
248,184,142536,1,0
192,240,142746,5,0
272,296,142955,1,8
368,280,143165,1,0
408,192,143375,6,0,B|416:152|456:120,2,70,0|0|8
312,184,144004,1,0
312,184,144109,1,8
312,184,144214,2,0,B|240:224,1,70
168,168,144634,2,0,B|88:184,1,70,8|0
40,104,145053,1,0
168,168,145473,6,0,B|160:224|192:280,2,105,8|0|0
168,168,146312,1,8
120,104,146522,1,0
120,104,146627,1,8
120,104,146732,2,0,B|152:80|192:72,1,70
248,40,147151,2,0,B|280:64|320:72,1,70,8|0
400,176,147571,6,0,B|424:136|464:128,2,70,0|0|8
344,232,148200,1,0
320,256,148305,1,8
280,264,148410,1,4
272,56,148829,6,0,B|208:88|160:80,1,105,8|0
171,81,149249,2,0,B|103:135,1,70
48,88,149669,2,0,B|32:168,1,70,8|0
48,232,150088,2,0,B|128:256|160:320,1,140,2|8
224,280,150718,1,0
304,288,150927,2,0,B|352:304,1,35,0|8
400,248,151242,2,0,B|448:240,1,35,0|8
320,184,151557,5,0
320,184,151662,1,8
320,184,151766,2,0,B|264:176|224:128,1,105
229,134,152186,2,0,B|136:128,1,70,8|0
80,144,152606,1,0
112,216,152815,1,0
72,280,153025,2,0,B|104:304|152:304,1,70,8|0
208,272,153445,5,2
208,272,153655,1,0
296,312,153864,1,8
296,312,154074,1,0
272,80,154704,5,8
272,80,154808,1,8
272,80,154913,1,8
272,80,155018,1,8
272,80,155123,2,0,B|320:64|360:80,2,70,4|0|8
216,128,155753,2,0,B|160:112,2,35,0|2|0
264,192,156172,5,0
256,288,156382,1,8
160,312,156592,1,0
256,288,156801,2,0,B|328:288|352:312,2,70,0|0|8
160,312,157431,2,0,B|104:288,1,35,0|8
88,208,157746,2,0,B|56:160,1,35,0|8
64,80,158060,1,8
96,56,158165,1,8
136,48,158270,1,8
176,56,158375,1,8
208,80,158480,1,4
280,216,158899,6,0,B|232:248|232:320,2,105,8|0|0
280,216,159739,1,8
360,216,159948,1,0
360,216,160053,1,8
360,216,160158,2,0,B|384:184|424:168,1,70
456,48,160578,2,0,B|432:80|392:96,1,70,8|0
328,112,160997,5,0
256,96,161207,1,0
184,112,161417,1,8
112,88,161627,2,0,B|64:48,2,35,0|0|4
72,184,162046,6,0,B|49:143,2,35,2|0|8
182,253,162465,2,0,B|228:253,2,35,0|2|0
67,314,162885,2,0,B|43:353,2,35,2|0|8
107,250,163304,1,2
240,176,163725,6,0,B|193:175,2,35,2|0|0
355,114,164144,2,0,B|379:74,2,35,0|2|0
350,245,164564,2,0,B|372:285,2,35,2|0|8
315,178,164983,1,2
256,192,165193,12,4,166871
360,144,167291,6,0,B|312:192|272:200,1,105,8|0
273,200,167710,2,0,B|224:280,2,70,0|0|8
120,200,168550,6,0,B|56:160,2,70,4|0|8
216,320,169389,2,0,B|280:360,2,70,0|0|8
352,248,170228,1,0
336,176,170438,1,0
392,120,170648,1,8
328,72,170857,1,0
256,88,171067,2,0,B|168:104,1,70
48,80,171487,2,0,B|136:64,1,70,8|0
120,152,171906,6,0,B|176:192|200:264,1,140,2|8
272,296,172536,1,0
344,272,172746,2,0,B|416:288,1,70
400,208,173165,2,0,B|480:184,1,70,8|0
432,120,173585,2,0,B|376:104,1,35,0|8
360,40,173899,2,0,B|312:56,1,35,0|8
264,96,174214,2,0,B|184:64,2,70,0|2|0
296,168,174843,5,8
259,183,174948,1,8
232,214,175053,1,8
219,252,175158,1,8
224,292,175263,1,4
152,320,175473,6,0,B|80:344,2,70,0|8|0
224,292,176102,2,0,B|272:304,1,35,0|8
328,272,176417,2,0,B|376:256,3,35,0|8|0|0
336,192,176941,2,0,B|248:152,1,70
136,144,177361,2,0,B|224:184,1,70,8|0
232,104,177780,6,0,B|256:64|288:56,1,70
282,57,178095,1,0
282,57,178200,1,8
360,80,178410,1,2
448,200,178620,6,0,B|392:192|336:224,1,105
346,218,179039,2,0,B|256:192,1,70,8|0
208,232,179459,1,0
128,240,179669,1,0
96,312,179878,1,8
256,192,180298,5,4
256,192,180508,1,4
360,136,180927,6,0,B|320:80|256:64,1,104.999996870756
232,40,181557,2,0,B|208:64|176:64,1,52.4999984353781,2|0
128,56,181976,1,0
200,240,193725,5,8
200,240,193934,1,0
312,144,194144,1,8
312,144,194353,1,0
80,112,194983,5,8
80,112,195088,1,8
80,112,195193,1,8
80,112,195298,1,8
80,112,195403,2,0,B|112:80|160:88,2,70,4|0|8
72,192,196032,2,0,B|24:176,2,35,0|8|0
96,264,196452,5,0
192,272,196662,1,8
280,304,196871,1,0
336,224,197081,2,0,B|352:184|376:160,2,70,0|0|8
256,168,197711,1,0
256,168,197815,1,8
256,168,197920,2,0,B|176:176,1,70
192,272,198340,2,0,B|112:312,1,70,8|0
40,256,198759,1,2
160,104,199179,6,0,B|112:72|48:80,2,105,8|0|0
160,104,200018,1,8
216,152,200228,1,0
216,152,200333,1,8
216,152,200438,2,0,B|304:144,1,70
336,88,200857,2,0,B|416:144,1,70,8|0
384,272,201277,6,0,B|424:256|464:280,2,70,2|0|8
312,304,201906,1,0
312,304,202011,1,0
312,304,202116,1,6
216,272,202326,6,0,B|192:304,2,35,0|0|8
128,232,202746,2,0,B|88:256,2,35,0|0|2
88,144,203165,2,0,B|32:144,2,35,0|0|8
104,48,203585,1,2
296,112,204004,6,0,B|320:80,2,35,0|0|8
384,152,204424,2,0,B|424:128,2,35,0|0|2
424,240,204843,2,0,B|480:240,2,35,0|0|8
408,336,205263,1,2
256,192,205473,12,0,207151
56,256,207780,6,0,B|64:176|128:136,1,140,2|0
184,192,208410,2,0,B|216:168|256:168,1,70,0|2
328,176,208829,2,0,B|304:96,2,70,4|0|8
400,208,209459,1,0
400,208,209564,1,8
400,208,209669,1,0
400,288,209878,5,0
304,272,210088,1,8
224,328,210298,1,0
128,296,210508,2,0,B|64:336,2,70,0|0|8
112,200,211137,2,0,B|160:192,1,35,0|8
152,96,211452,2,0,B|208:104,1,35,2|0
280,80,211766,2,0,B|336:24,2,70,8|2|0
112,200,212606,6,0,B|56:216|32:272,2,105,8|0|0
112,200,213445,1,8
152,136,213655,1,0
152,136,213759,1,8
152,136,213864,2,0,B|224:168,1,70
272,112,214284,2,0,B|320:176,1,70,8|0
432,144,214704,6,0,B|464:160|480:208,2,70,0|0|8
392,80,215333,1,0
392,80,215438,1,0
392,80,215543,1,6
240,64,215962,6,0,B|176:64|128:112,1,105,8|0
143,98,216382,2,0,B|56:88,1,70,2|0
200,160,216801,2,0,B|287:170,1,70,8|0
344,128,217221,2,0,B|392:176|392:264,1,140,2|8
344,320,217850,1,0
264,320,218060,2,0,B|216:336,1,35,0|8
176,280,218375,2,0,B|128:280,1,35,0|8
72,160,218690,5,2
72,160,218899,2,0,B|136:192|224:192,1,140,0|8
272,144,219529,1,0
344,160,219739,2,0,B|408:232,1,70
360,80,220158,2,0,B|296:8,1,70,8|0
240,56,220578,1,8
240,56,220787,1,0
160,48,220997,1,0
160,48,221207,1,8
120,272,221836,5,8
120,272,221941,1,8
120,272,222046,1,8
120,272,222151,1,8
120,272,222256,2,0,B|56:248|24:264,2,70,4|0|8
192,304,222885,2,0,B|176:336,2,35,0|8|0
240,248,223305,5,0
336,248,223515,1,8
328,152,223725,1,0
424,168,223934,6,0,B|448:200|448:232,2,70,0|0|8
416,64,224564,2,0,B|376:40,1,35,0|8
288,72,224878,2,0,B|240:96,1,35,0|8
160,64,225194,1,8
121,73,225299,1,8
89,98,225403,1,8
69,134,225508,1,8
67,174,225613,1,4
216,216,226032,6,0,B|264:176|328:184,2,105,8|0|0
216,216,226871,1,8
160,272,227081,1,0
160,272,227186,1,8
160,272,227291,2,0,B|80:280,1,70
224,312,227711,2,0,B|304:304,1,70,8|0
216,216,228130,6,0,B|232:144,2,70,0|2|8
160,272,228759,1,0
160,272,228864,1,0
160,272,228969,1,4
83,189,229179,6,0,B|59:230,2,35,2|0|8
192,120,229598,2,0,B|238:120,2,35,0|2|0
77,58,230018,2,0,B|52:19,2,35,0|0|8
117,123,230437,1,2
250,196,230858,6,0,B|203:196,2,35,2|0|8
365,258,231277,2,0,B|389:298,2,35,0|2|0
360,127,231697,2,0,B|382:87,2,35,2|0|8
325,195,232116,1,2
256,192,232326,12,0,234004
256,297,234424,6,0,B|256:192,1,105,8|4
256,192,234843,2,0,B|256:96,1,70,2|0
256,192,235683,12,0,237361
