osu file format v6

[General]
AudioFilename: MarianasTrench-CrossMyHeart.mp3
AudioLeadIn: 0
PreviewTime: 41438
Countdown: 1
SampleSet: Normal
StackLeniency: 0.7
Mode: 0
LetterboxInBreaks: 1

[Editor]
Bookmarks: 11813,35228,41448,67606,97057
DistanceSpacing: 0.899999976158142
BeatDivisor: 2
GridSize: 8

[Metadata]
Title:Cross My Heart
Artist:Marianas Trench
Creator:0_o
Version:Normal
Source:
Tags:Punk

[Difficulty]
HPDrainRate:4
CircleSize:4
OverallDifficulty:4
SliderMultiplier:1.3
SliderTickRate:1

[Events]
//Background and Video events
0,0,"Josh_Ramsay___Marianas_Trench_by_xPerigryn.jpg"
//Break Periods
2,35418,38288
2,52979,63166
2,91028,93898
2,108589,118776
//Storyboard Layer 0 (Background)
//Storyboard Layer 1 (Fail)
//Storyboard Layer 2 (Pass)
//Storyboard Layer 3 (Foreground)
//Storyboard Sound Samples
//Background Colour Transformations
3,100,163,162,255

[TimingPoints]
5950.21798353388,365.853658536585,4,1,0,100,1,0
108369,-100,4,2,0,100,0,0
120096,-100,4,1,0,100,0,0
128886,-100,4,1,0,100,0,1
137474,-100,4,2,0,100,0,1
137667,-100,4,2,0,100,0,0
140584,-100,4,1,0,100,0,0
152291,-100,4,1,0,100,0,1
163998,-100,4,1,0,100,0,0

[Colours]
Combo1 : 237,18,232
Combo2 : 239,234,5
Combo3 : 5,5,240
Combo4 : 240,5,5

[HitObjects]
72,72,11803,2,0,B|216:72,1,130,4|8
290,128,12535,1,2
390,99,12901,2,0,B|444:158|381:245,1,130
325,294,13633,1,8
238,239,13998,2,2,B|165:249|149:328,2,130,2|2|4
328,187,15096,5,8
276,82,15462,1,0
186,151,15828,2,2,B|128:103|46:154,2,130
118,246,16925,1,8
53,327,17291,2,4,B|196:327,1,130
300,328,18023,5,8
349,221,18389,1,2
449,280,18755,2,0,B|496:211|445:140,1,130
382,66,19486,1,8
292,141,19852,1,2
333,249,20218,2,0,B|180:249,1,130,0|4
141,349,20950,5,2
253,315,21316,1,0
170,232,21681,1,2
200,118,22047,6,2,B|258:67|317:124,2,130,0|2|2
320,208,23145,2,0,B|176:208,1,130,0|8
81,251,23877,5,0
137,149,24242,1,2
29,102,24608,2,0,B|150:30,1,130
245,88,25340,1,8
229,203,25706,2,2,B|281:264|368:212,2,130,2|2|4
322,132,26803,5,0
424,189,27169,2,0,B|472:260|407:343,1,130,0|2
320,358,27901,1,0
271,251,28267,1,8
162,206,28633,2,2,B|76:239|83:333,2,130,2|2|4
269,159,29730,5,0
170,96,30096,1,8
273,40,30462,1,2
373,100,30828,1,8
310,199,31194,1,0
376,295,31559,1,2
267,338,31925,2,4,B|115:338,1,130
42,269,32657,5,8
41,151,33023,1,0
98,48,33389,2,6,B|246:48,1,130,6|12
342,70,34120,5,0
242,132,34486,1,2
323,216,34852,1,8
258,313,35218,1,4
256,192,39608,12,4,41072
74,47,41803,5,2
185,81,42169,1,8
114,174,42535,1,0
222,217,42901,1,2
276,113,43267,2,4,B|388:115|454:263,1,195
291,324,44364,5,0
323,211,44730,1,2
213,169,45096,1,8
295,86,45462,2,0,B|257:9|147:46,1,130,4|0
173,93,46011,2,2,B|164:193|51:252,1,195,4|8
40,296,46742,1,0
80,336,46925,1,4
233,350,47291,5,0
279,242,47657,1,2
178,181,48023,1,8
237,79,48389,2,0,B|378:79,1,130,4|0
467,137,49120,1,2
440,250,49486,1,2
337,193,49852,2,6,B|180:152|100:295,1,260,6|4
256,360,50950,5,8
256,208,51316,1,0
256,192,51498,12,4,52779
256,192,64486,5,4
256,72,64852,5,8
448,208,65584,1,8
256,344,66316,1,8
72,192,67047,1,8
72,192,67413,5,4
104,80,67779,5,8
208,32,68145,2,2,B|296:48|312:136,1,130
280,224,68877,1,0
176,168,69242,1,8
176,288,69608,1,2
96,368,69974,2,4,B|248:368,1,130
328,304,70706,5,0
432,352,71072,2,2,B|472:280|424:224,1,130,2|8
320,264,71803,2,2,B|240:256|216:152,1,130,2|8
128,120,72535,1,2
216,40,72901,1,0
328,72,73267,1,4
400,168,73633,5,2
344,272,73998,1,4
176,232,74547,1,4
40,344,75096,1,8
40,224,75462,1,2
144,280,75828,2,2,B|304:280,1,130,0|6
384,232,76559,5,8
352,120,76925,1,0
256,48,77291,1,6
256,48,77657,5,8
160,120,78023,1,0
128,232,78389,1,6
256,216,78755,6,0,B|256:128,2,65,2|8|0
360,304,79486,5,0
416,200,79852,1,8
352,104,80218,2,0,B|288:32,2,65,2|2|0
304,208,80950,1,0
208,144,81316,1,8
208,264,81681,2,0,B|208:336,2,65,2|2|4
104,312,82413,5,0
40,216,82779,2,0,B|24:136|88:80,1,130,0|8
176,152,83511,2,2,B|272:152|296:88,1,130
392,48,84242,1,4
456,144,84608,1,2
472,200,84791,1,0
448,256,84974,1,4
328,256,85340,5,8
256,352,85706,2,2,B|120:352,1,130
56,256,86438,1,4
112,152,86803,1,8
216,208,87169,2,0,B|296:208,2,65,2|0|4
184,96,87901,6,0,B|328:48|416:176,1,260,4|0
296,176,88998,2,0,B|152:128|64:256,1,260,4|0
168,320,90096,1,2
256,248,90462,1,0
344,320,90828,1,4
256,192,95218,12,4,96681
440,296,97413,5,2
360,208,97779,1,8
248,248,98145,1,0
264,128,98511,1,2
176,48,98877,2,4,B|64:50|-2:198,1,195
64,320,99974,5,0
144,232,100340,1,2
256,248,100706,1,8
208,144,101072,2,0,B|246:67|356:104,1,130,4|0
344,144,101621,2,2,B|353:244|466:303,1,195,4|8
504,264,102352,1,0
512,208,102535,1,4
424,88,102901,5,0
320,40,103267,1,2
256,136,103633,1,8
320,232,103999,2,0,B|179:232,1,130,4|0
80,184,104730,1,2
144,88,105096,1,2
256,32,105462,2,6,B|416:64|424:232,1,260,6|4
320,264,106560,5,8
192,120,106926,1,0
256,192,107108,12,4,108389
256,192,120096,12,4,122291
256,80,123023,5,4
256,80,123389,5,8
376,280,124120,1,8
144,280,124852,1,8
320,128,125584,2,0,B|176:128,1,130,4|4
72,128,126316,5,8
256,272,127047,1,8
440,128,127779,1,8
320,128,128145,1,2
256,32,128511,2,4,B|256:176,1,130
256,280,129242,5,8
168,208,129608,1,4
56,248,129974,1,0
24,200,130157,2,2,B|24:80|144:32,1,195
240,32,131072,1,8
352,80,131438,1,4
272,168,131803,5,4
392,168,132169,1,8
472,248,132535,2,0,B|424:336|328:328,1,130,4|0
320,296,133084,2,2,B|256:216|128:264,1,195
48,320,133998,1,8
24,208,134364,1,0
80,104,134730,5,4
184,152,135096,1,8
216,40,135462,2,0,B|304:48|336:136,1,130,4|0
280,144,136011,2,2,B|264:256|408:344,1,195
432,224,136925,1,8
392,112,137291,1,0
256,64,137657,5,4
256,184,138023,1,2
256,304,138389,1,8
256,192,138755,12,4,140584
438,337,141316,5,2
327,303,141682,1,8
398,210,142048,1,0
290,167,142414,1,2
236,271,142780,2,4,B|124:269|58:121,1,195
221,60,143877,5,0
189,173,144243,1,2
299,215,144609,1,8
217,298,144975,2,0,B|255:375|365:338,1,130,4|0
339,291,145524,2,2,B|348:191|461:132,1,195,4|8
496,104,146255,1,0
488,48,146438,1,4
279,34,146804,5,0
233,142,147170,1,2
334,203,147536,1,8
275,305,147902,2,0,B|134:306,1,130,4|0
45,247,148633,1,2
72,134,148999,1,2
175,191,149365,2,6,B|332:232|412:89,1,260,6|4
256,24,150463,5,8
256,160,150829,1,0
256,192,151011,12,4,152292
416,80,153023,5,2
312,32,153389,1,8
232,120,153755,1,0
120,88,154120,1,8
48,184,154486,2,4,B|8:296|144:368,2,195
160,144,155950,5,2
264,200,156316,1,8
336,104,156681,1,4
448,136,157047,1,0
488,176,157230,2,2,B|520:296|384:344,1,195,2|8
352,336,157962,1,0
304,304,158145,1,4
352,200,158511,5,0
256,128,158877,1,2
160,192,159242,1,8
200,304,159608,1,4
320,304,159974,1,0
256,248,160340,5,6
256,128,160706,1,2
256,8,161072,1,6
256,192,161255,12,4,163998
