osu file format v5

[General]
AudioFilename: 24-Watashi no kare wa pilot ~ My Boyfriend's a Pilot.mp3
AudioLeadIn: 0
PreviewTime: -1
Countdown: 1
SampleSet: Normal
StackLeniency: 0.7
Mode: 0
LetterboxInBreaks: 1

[Metadata]
Title:My Boyfriend is a Pilot
Artist:Mari Iijima ( Lynn Minmay )
Creator:Orkel
Version:Hard
Source:
Tags:

[Difficulty]
HPDrainRate:7
CircleSize:5
OverallDifficulty:7
SliderMultiplier:1.4
SliderTickRate:1

[Events]
//Background and Video events
0,0,"bg.png"
//Break Periods
//Storyboard Layer 0 (Background)
//Storyboard Layer 1 (Failing)
//Storyboard Layer 2 (Passing)
//Storyboard Layer 3 (Foreground)
//Storyboard Sound Samples
//Background Colour Transformations
3,100,163,162,255

[TimingPoints]
930.220484499118,412.967925568574,4,1,0,100,1

[HitObjects]
32,64,7124,1,0
128,64,7744,1,0
352,288,8776,1,0
448,288,9396,1,0
352,64,10221,5,0
320,64,10428,1,0
256,64,10841,1,0
224,64,11047,1,0
192,64,11254,1,0
160,128,11564,1,0
192,192,11873,1,0
192,192,12493,2,0,B|288:192,1,70
288,192,12906,1,0
352,192,13216,1,0
416,192,13474,1,0
416,192,13577,1,0
416,192,13680,1,0
416,96,15590,6,0,B|320:96,1,70
288,96,16003,6,0,B|192:96,1,70
160,96,16416,6,0,B|64:96,1,70
90,96,16829,5,0
96,160,17035,1,0
96,224,17448,1,0
96,224,17552,1,0
96,224,17655,1,0
96,224,18068,1,0
96,320,18842,6,0,B|192:320,1,70
224,320,19255,6,0,B|320:320,1,70
352,320,19617,6,0,B|448:320,1,70
416,320,20081,5,0
416,256,20288,1,0
416,192,20701,1,0
416,192,20804,1,0
416,192,20907,1,0
416,192,21320,1,0
352,96,22301,1,0
256,96,22714,1,0
160,96,23127,1,0
160,192,23540,1,0
256,192,23953,1,0
352,192,24366,1,0
416,192,24779,5,0
384,128,25192,1,0
352,96,25398,1,0
320,96,25605,1,0
288,96,25811,1,0
256,96,26018,1,0
192,96,26430,1,0
256,192,26534,12,0,27564
32,96,28082,5,0
128,96,28495,1,0
224,96,28908,1,0
224,96,29115,1,0
384,128,29941,5,0
352,160,30147,1,0
288,224,30560,1,0
288,224,30767,1,0
384,288,31747,2,0,B|288:288,1,70
256,288,32160,1,0
224,288,32367,1,0
192,288,32573,1,0
128,288,32986,1,0
128,288,33090,1,0
128,288,33193,1,0
32,96,34638,6,0,B|128:96,1,70
160,96,35051,6,0,B|256:96,1,70
288,96,35464,1,0
320,96,35671,1,0
288,160,36497,6,0,B|288:224|256:224,1,70
160,160,37116,2,0,B|160:224|192:224,1,70
32,64,38561,5,0
96,128,38974,1,0
128,160,39181,1,0
192,160,39594,1,0
224,192,39800,1,0
256,224,40007,1,0
64,256,41452,5,0
64,224,41659,2,0,B|64:128|128:64|192:64,1,210
259,64,42898,1,0
320,64,43311,2,0,B|384:64|446:125|439:248,1,210
416,320,45375,5,0
352,288,45788,1,0
288,320,46201,1,0
224,288,46614,1,0
192,256,46821,1,0
96,288,47234,1,0
128,256,47440,1,0
64,96,47853,5,0
96,128,48060,1,0
128,160,48266,1,0
160,192,48473,2,0,B|103:136,1,70
32,320,49557,5,0
96,320,49970,1,0
160,320,50383,1,0
224,320,50796,1,0
288,320,51157,2,0,B|384:320,1,70
384,320,51828,1,0
384,320,52241,1,0
384,160,52860,5,0
352,192,53067,1,0
320,192,53273,1,0
256,192,53686,1,0
224,192,53893,2,0,B|96:96|32:160|64:288|192:288,1,332.5
448,96,55803,5,0
352,96,56422,1,0
160,288,57455,1,0
64,288,58074,1,0
32,64,58848,5,0
96,64,59055,2,0,B|224:64|224:128,1,140
288,96,59674,1,0
320,128,59881,1,0
384,160,60191,1,0
417,218,60500,1,0
352,256,61171,5,0
320,288,61378,1,0
288,288,61584,1,0
224,256,61894,1,0
192,224,62255,1,0
192,224,62359,1,0
192,224,62462,1,0
192,224,62565,1,0
192,224,62668,1,0
192,224,62772,1,0
192,224,62875,1,0
