osu file format v9

[General]
AudioFilename: Marie Antoinette.mp3
AudioLeadIn: 1996
PreviewTime: 63875
Countdown: 0
SampleSet: Soft
StackLeniency: 0.7
Mode: 1
LetterboxInBreaks: 0

[Editor]
Bookmarks: 361,16267,30510,32266,39290,46314,51583,63875,83192,90217,102509,113048,124177
DistanceSpacing: 1
BeatDivisor: 4
GridSize: 8

[Metadata]
Title:Marie Antoinette
Artist:Marguerite du Pre
Creator:GladiOol
Version:Pangko
Source:beatmania IIDX 16
Tags:AHO Lesjuh Gladi Alace AngelHoney Konami Empress

[Difficulty]
HPDrainRate:5
CircleSize:7
OverallDifficulty:5
ApproachRate:10
SliderMultiplier:1.4
SliderTickRate:2

[Events]
//Background and Video events
0,0,"Background.jpg"
//Break Periods
//Storyboard Layer 0 (Background)
//Storyboard Layer 1 (Fail)
//Storyboard Layer 2 (Pass)
//Storyboard Layer 3 (Foreground)
Sprite,Foreground,Centre,"diffalace.png",320,240 M,0,361,,468,422 S,0,361,,0.5903999 F,0,361,1198,0,1 S,0,16267,17105,0.7030397,0.5903999 S,0,39290,40168,0.7030397,0.5903999 S,0,63875,64753,0.70304,0.5903999 S,0,90217,91095,0.70304,0.5903999 S,0,98997,99875,0.7030403,0.5903999 S,0,113048,113773,0.7030397,0.5903999 S,0,118854,119580,0.70304,0.5903999 S,0,123935,124116,0.6927998,0.5903999 F,0,124177,125386,1,0.03743988 S,0,124177,125386,0.7030397,0.5903999
//Storyboard Sound Samples
//Background Colour Transformations
3,100,0,0,0

[TimingPoints]
361,279.06976744186,3,2,0,60,1,0
5384,-100,3,2,0,70,0,0
16267,-100,3,2,0,80,0,1
24640,-100,3,2,0,80,0,0
30510,292.682926829268,3,2,0,80,1,0
39290,-100,3,2,0,80,0,1
46314,-100,3,2,0,80,0,0
63875,-100,3,2,0,80,0,1
72656,-100,3,2,0,80,0,0
90217,-100,3,2,0,80,0,1
98997,-100,3,2,0,80,0,1
99875,-100,3,2,0,80,0,0
113048,241.935483870968,3,1,0,60,1,1
124177,-100,3,1,0,60,0,0

[HitObjects]
192,136,361,1,2
192,136,640,1,2
208,120,1198,1,2
208,120,1477,1,2
232,56,2035,1,6
232,56,2314,1,6
232,56,2872,1,6
232,56,3151,1,6
232,56,3709,1,2
232,56,3849,1,2
232,56,3988,1,0
232,56,4128,1,2
232,56,4267,1,0
232,56,4547,1,2
232,56,4686,1,2
232,56,4826,1,0
232,56,4965,1,2
232,56,5105,1,0
184,96,5384,1,2
184,96,5663,1,2
184,96,5942,1,0
184,96,6081,1,0
184,96,6221,1,2
184,96,6500,1,2
176,128,6779,1,0
176,128,6919,1,0
184,96,7058,1,2
184,96,7337,1,2
176,128,7616,1,2
184,96,7895,1,6
176,128,8174,1,6
184,96,8454,1,6
160,24,8733,1,0
160,24,8872,1,2
160,24,9012,1,0
160,24,9151,1,2
208,24,9291,1,0
192,48,9570,1,2
192,48,9849,1,6
176,96,10407,1,2
176,96,10686,1,6
176,96,11244,1,6
176,96,11523,1,6
176,96,11802,1,6
160,80,12081,1,0
176,96,12221,1,0
176,96,12361,1,2
176,96,12500,1,2
176,96,12640,1,0
176,96,12779,1,0
176,96,12919,1,2
176,96,13198,1,2
176,96,13477,1,2
256,104,13756,1,0
256,104,13895,1,0
256,104,14035,1,2
256,104,14174,1,2
256,104,14314,1,0
256,104,14454,1,0
256,104,14593,1,2
256,104,14872,1,2
256,104,15151,1,2
256,104,15430,1,0
256,104,15570,1,0
256,104,15709,1,2
160,32,15849,1,2
160,32,15988,1,0
160,32,16128,1,0
152,128,16267,5,4
152,128,16407,1,4
152,128,16686,1,4
152,128,16826,1,4
224,96,17105,1,2
224,96,17384,1,2
224,96,17663,1,2
152,128,17942,1,4
152,128,18081,1,4
152,128,18361,1,4
152,128,18500,1,4
224,96,18779,1,2
224,96,19058,1,2
224,96,19337,1,2
152,128,19616,1,4
152,128,19756,1,4
152,128,20035,1,4
152,128,20174,1,4
224,96,20454,1,2
224,96,20733,1,2
224,96,21012,1,2
152,128,21291,1,4
152,128,21430,1,4
152,128,21709,1,4
152,128,21849,1,4
224,96,22128,1,2
224,96,22407,1,2
224,96,22686,1,2
152,128,22965,1,4
152,128,23105,1,4
152,128,23384,1,4
152,128,23523,1,4
224,96,23802,1,2
224,96,24081,1,2
224,96,24361,1,2
144,40,24640,5,0
144,40,24919,1,0
144,40,25198,1,0
144,40,25477,1,2
184,48,25756,1,2
104,112,26035,1,2
192,128,26314,1,0
192,128,26454,1,0
192,128,26593,1,2
208,72,26733,1,2
208,72,26872,1,0
208,72,27012,1,0
208,72,27151,1,2
208,72,27291,1,2
208,72,27430,1,0
160,16,27570,1,0
176,152,27709,1,2
176,152,27849,1,2
264,88,27988,1,0
264,88,28128,1,0
264,88,28267,1,2
264,88,28407,1,2
264,88,28547,1,0
264,88,28686,1,0
152,80,28826,2,0,B|408:104|40:320|-8:352,1,420
152,88,30510,1,2
152,88,30802,1,2
152,88,31095,1,2
152,88,31388,1,2
152,88,31680,1,2
152,88,31973,1,2
224,120,32266,5,6
224,120,32558,1,2
224,120,32705,1,2
224,120,32851,1,0
224,120,32997,1,0
224,120,33144,1,2
224,120,33436,1,2
224,120,34022,1,6
224,120,34314,1,2
224,120,34461,1,2
224,120,34607,1,0
224,120,34753,1,0
224,120,34900,1,2
224,120,35192,1,2
224,120,35778,1,6
224,120,36070,1,2
224,120,36217,1,2
224,120,36363,1,0
224,120,36509,1,0
224,120,36656,1,2
224,120,36949,1,2
144,32,37534,1,2
144,32,37680,1,2
144,32,37827,1,0
144,32,37973,1,0
144,32,38119,1,2
144,32,38266,1,2
40,104,38412,2,0,B|400:96,1,350
176,184,39290,5,4
224,128,39583,1,0
224,128,39729,1,0
152,32,39875,1,2
152,32,40022,1,2
264,88,40168,1,4
264,88,40461,1,4
176,184,40607,1,0
176,184,40680,1,2
176,184,40753,1,0
176,184,41046,1,4
224,128,41339,1,0
224,128,41485,1,0
152,32,41631,1,2
152,32,41778,1,2
264,88,41924,1,4
264,88,42217,1,4
176,184,42363,1,0
176,184,42436,1,2
176,184,42509,1,0
176,184,42802,1,4
224,128,43095,1,0
224,128,43241,1,0
152,32,43388,1,2
152,32,43534,1,2
264,88,43680,1,4
264,88,43973,1,4
176,184,44119,1,0
176,184,44192,1,2
176,184,44266,1,0
120,64,44558,1,4
128,88,44705,1,4
128,88,44851,1,6
128,88,44997,1,6
128,88,45144,1,4
184,40,45290,1,4
184,40,45436,1,6
184,40,45729,1,6
184,40,46022,1,6
184,40,46314,5,0
184,40,46607,1,2
224,32,46753,1,0
224,32,46900,1,2
256,136,47192,1,0
256,136,47485,1,2
256,136,47631,1,0
256,136,47778,1,2
184,40,48070,1,0
184,40,48363,1,2
224,32,48509,1,0
224,32,48656,1,2
256,136,48949,1,0
256,136,49241,1,2
256,136,49388,1,0
256,136,49534,1,2
136,64,49827,1,0
136,64,49973,1,0
136,64,50119,1,2
136,64,50266,1,0
136,64,50412,1,2
192,88,50558,1,2
192,88,50705,1,0
192,88,50851,1,0
192,88,50997,1,2
192,88,51144,1,0
192,88,51290,1,2
192,88,51436,1,2
112,168,51583,5,0
176,176,51875,1,2
176,176,52022,1,0
176,176,52168,1,2
152,72,52461,1,0
152,72,52607,1,0
152,72,52753,1,2
152,72,53046,1,2
152,72,53339,1,0
152,72,53485,1,0
152,72,53631,1,2
152,72,53778,1,0
152,72,53924,1,2
192,80,54217,1,0
192,80,54509,1,2
192,80,54802,1,2
192,80,55095,1,0
192,80,55388,1,2
192,80,55534,1,0
192,80,55680,1,2
192,80,55973,1,0
192,80,56119,1,0
192,80,56266,1,2
192,80,56558,1,2
192,80,56851,1,0
192,80,57144,1,2
176,64,57241,1,2
200,184,57339,1,2
200,184,57436,1,2
240,128,57729,1,0
240,128,58022,1,2
240,128,58119,1,2
240,128,58217,1,2
240,128,58314,1,2
240,128,58607,1,0
248,152,58900,1,2
248,152,58997,1,2
248,152,59095,1,2
248,152,59192,1,2
248,152,59485,1,0
248,152,59778,1,2
248,152,59875,1,2
248,152,59973,1,2
248,152,60070,1,2
152,72,60363,1,0
152,72,60656,1,2
152,72,60753,1,2
152,72,60851,1,2
152,72,60949,1,2
192,72,61241,1,0
192,72,61534,1,2
192,72,61631,1,2
192,72,61729,1,2
192,72,61827,1,2
256,192,62119,12,0,62997
352,240,63583,5,2
352,240,63656,1,2
352,240,63729,1,2
352,240,63875,1,4
192,160,64022,1,0
192,160,64095,1,0
208,80,64168,1,2
192,160,64314,1,2
192,160,64461,1,0
192,160,64607,1,0
408,280,64753,1,2
392,232,65046,1,2
408,280,65339,1,2
408,280,65485,1,2
264,112,65631,1,4
336,200,65778,1,2
336,200,65924,1,4
336,200,66070,1,2
384,264,66217,1,2
280,80,66266,1,2
280,80,66314,1,2
384,264,66363,1,2
112,80,66509,1,4
112,80,66656,1,2
112,80,66802,1,4
112,80,66949,1,2
160,112,67095,1,2
160,112,67144,1,2
160,112,67192,1,2
160,112,67241,1,2
232,176,67388,1,4
272,120,67534,1,4
232,176,67680,1,2
272,120,67753,1,2
272,120,67827,1,2
272,120,67973,1,0
272,120,68119,1,0
272,120,68266,1,2
272,120,68558,1,2
272,120,68851,1,2
232,176,69144,1,4
272,120,69290,1,4
232,176,69436,1,2
272,120,69509,1,2
272,120,69583,1,2
272,120,69729,1,0
272,120,69875,1,0
272,120,70022,1,2
272,120,70314,1,2
272,120,70607,1,2
232,176,70900,1,4
272,120,71046,1,4
232,176,71192,1,2
272,120,71266,1,2
272,120,71339,1,2
272,120,71485,1,0
272,120,71631,1,0
272,120,71778,1,2
272,120,72070,1,2
272,120,72363,1,2
168,104,72656,5,4
168,104,72802,1,2
168,104,72949,1,4
168,104,73095,1,2
168,104,73241,1,2
168,104,73534,1,4
168,104,73680,1,2
168,104,73827,1,4
168,104,73973,1,2
168,104,74119,1,2
168,104,74412,1,4
168,104,74558,1,2
168,104,74705,1,4
168,104,74851,1,2
168,104,74997,1,2
168,104,75290,1,4
168,104,75436,1,2
168,104,75583,1,4
168,104,75729,1,2
168,104,75875,1,2
168,104,76168,1,4
168,104,76314,1,2
168,104,76461,1,4
168,104,76607,1,2
168,104,76753,1,2
168,104,77046,1,4
168,104,77192,1,2
168,104,77339,1,4
168,104,77485,1,2
168,104,77631,1,2
168,104,77924,1,4
168,104,78070,1,2
168,104,78217,1,4
168,104,78363,1,2
168,104,78509,1,2
168,104,78802,1,4
168,104,78949,1,2
168,104,79095,1,4
168,104,79241,1,2
168,104,79388,1,2
200,16,79680,1,4
200,16,79973,1,2
200,40,80119,1,0
200,40,80266,1,2
200,40,80558,1,4
200,40,80851,1,2
200,40,80997,1,0
200,40,81144,1,2
200,40,81436,1,4
200,40,81729,1,6
200,40,82022,1,6
200,40,82314,1,4
184,152,83192,5,2
184,152,83485,1,2
184,152,83631,1,2
184,152,83778,1,0
184,152,83924,1,0
184,152,84070,1,2
88,80,84363,2,0,B|312:80,1,210
288,120,84949,1,0
288,120,85095,1,0
288,120,85241,1,2
288,120,85388,1,2
288,120,85534,1,0
288,120,85680,1,0
288,120,85827,1,2
128,72,86119,2,0,B|352:72,1,210
184,152,86705,1,0
200,24,86851,1,0
184,152,86997,1,2
184,152,87144,1,2
184,152,87290,1,0
184,152,87436,1,0
184,152,87583,1,2
88,80,87875,2,0,B|312:80,1,210
288,120,88461,1,0
288,120,88607,1,0
288,120,88753,1,2
288,120,88900,1,2
288,120,89046,1,0
288,120,89192,1,0
152,48,89339,2,0,B|272:64|480:192,1,350
112,184,90217,5,4
256,224,90363,1,2
256,224,90436,1,0
256,224,90509,1,2
256,224,90656,1,4
256,224,90802,1,2
256,224,90949,1,2
280,216,91095,1,4
224,144,91388,1,2
224,144,91461,1,2
224,144,91607,1,2
224,144,91680,1,2
112,184,91973,1,4
256,224,92119,1,2
256,224,92192,1,0
256,224,92266,1,2
256,224,92412,1,4
256,224,92558,1,2
256,224,92705,1,2
280,216,92851,1,4
224,144,93144,1,2
224,144,93217,1,2
224,144,93363,1,2
224,144,93436,1,2
112,184,93729,1,4
256,224,93875,1,2
256,224,93949,1,0
256,224,94022,1,2
256,224,94168,1,4
256,224,94314,1,2
256,224,94461,1,2
280,216,94607,1,4
224,144,94900,1,2
224,144,94973,1,2
224,144,95119,1,2
224,144,95192,1,2
112,184,95485,1,4
256,224,95631,1,2
256,224,95705,1,0
256,224,95778,1,2
256,224,95924,1,4
256,224,96070,1,2
256,224,96217,1,2
280,216,96363,1,4
224,144,96656,1,2
224,144,96949,1,2
144,32,97241,5,0
144,32,97534,1,0
144,32,97827,1,0
144,32,98119,1,0
152,96,98997,1,4
152,96,99290,1,4
152,96,99583,1,4
152,96,99875,1,4
160,104,102509,1,2
216,80,102802,1,2
72,80,103095,1,2
200,176,103680,1,2
200,176,103973,1,2
200,176,104266,1,2
256,192,104558,12,0,105729
192,176,106022,1,2
192,176,106314,1,2
192,176,106607,1,2
216,136,107192,1,2
216,136,107485,1,2
216,136,107778,1,2
256,192,107924,12,0,109241
208,136,109534,5,2
208,136,109827,1,2
208,136,110119,1,2
208,136,110705,1,2
208,136,110997,1,2
208,136,111290,1,2
216,16,111583,1,6
216,16,111875,1,6
208,136,112168,1,6
136,88,113048,5,4
136,88,113289,1,4
208,136,113410,1,0
208,136,113531,1,0
200,56,113773,1,4
200,56,114015,1,4
256,104,114136,1,0
256,104,114257,1,0
208,88,114499,1,4
208,88,114620,1,0
208,88,114741,1,4
208,88,114862,1,0
208,88,114983,1,0
208,88,115104,1,0
208,88,115225,1,4
208,88,115467,1,4
136,88,115951,1,4
136,88,116193,1,4
208,136,116314,1,0
208,136,116435,1,0
200,56,116677,1,4
200,56,116918,1,4
256,104,117039,1,0
256,104,117160,1,0
208,88,117402,1,4
208,88,117523,1,0
208,88,117644,1,4
208,88,117765,1,0
208,88,117886,1,0
208,88,118007,1,0
208,88,118128,1,4
208,88,118370,1,4
136,88,118854,5,4
328,168,118975,1,0
136,88,119096,1,4
208,136,119217,1,0
208,136,119338,1,4
200,56,119580,1,4
288,128,119701,1,0
200,56,119822,1,4
256,104,119943,1,0
256,104,120064,1,4
208,88,120306,1,4
208,88,120427,1,0
208,88,120548,1,4
208,88,120668,1,0
208,88,120789,1,4
208,88,120910,1,0
208,88,121031,1,4
208,88,121273,1,4
288,128,121515,1,4
136,88,121757,5,4
328,168,121878,1,0
136,88,121999,1,4
208,136,122120,1,0
208,136,122241,1,4
200,56,122483,1,4
288,128,122604,1,0
200,56,122725,1,4
256,104,122846,1,0
256,104,122967,1,4
208,88,123209,1,4
208,88,123330,1,0
208,88,123451,1,4
208,88,123572,1,0
208,88,123693,1,4
208,88,123814,1,0
208,88,123935,1,4
208,88,124177,1,4
