osu file format v14

[General]
AudioFilename: Marcus Maison Will Dragen - Another Dimension.mp3
AudioLeadIn: 0
PreviewTime: 136829
Countdown: 0
SampleSet: Soft
StackLeniency: 0.7
Mode: 0
LetterboxInBreaks: 1
WidescreenStoryboard: 1

[Editor]
Bookmarks: 60638,121948,140995
DistanceSpacing: 0.8
BeatDivisor: 4
GridSize: 16
TimelineZoom: 1.2

[Metadata]
Title:Another Dimension (Original Mix)
TitleUnicode:Another Dimension (Original Mix)
Artist:Marcus Maison & Will Dragen
ArtistUnicode:Marcus Maison & Will Dragen
Creator:LifeJumb
Version:Normal
Source:
Tags:trance
BeatmapID:650363
BeatmapSetID:287342

[Difficulty]
HPDrainRate:4
CircleSize:3
OverallDifficulty:4
ApproachRate:5
SliderMultiplier:1.29999990463257
SliderTickRate:1

[Events]
//Background and Video events
0,0,"osu_tile.jpg",0,0
//Break Periods
2,91910,113367
//Storyboard Layer 0 (Background)
//Storyboard Layer 1 (Fail)
//Storyboard Layer 2 (Pass)
//Storyboard Layer 3 (Foreground)
//Storyboard Sound Samples

[TimingPoints]
2186.46385058241,476.190476190476,4,2,0,95,1,0
122186,-100,4,2,0,95,0,1
122662,-100,4,2,0,95,0,0
137424,-100,4,2,0,95,0,1
137900,-100,4,2,0,95,0,0
145043,-100,4,2,0,95,0,1
145519,-100,4,2,0,95,0,0
152662,-100,4,2,0,95,0,1
153138,-100,4,2,0,95,0,0
156472,-100,4,2,0,95,0,1
156948,-100,4,2,0,95,0,0
160281,-100,4,2,0,95,0,1
160757,-100,4,2,0,95,0,0
167900,-100,4,2,0,95,0,1
168376,-100,4,2,0,95,0,0
171710,-100,4,2,0,95,0,1
172186,-100,4,2,0,95,0,0
175519,-100,4,2,0,95,0,1
175995,-100,4,2,0,95,0,0

[Colours]
Combo1 : 89,0,255
Combo2 : 0,166,255

[HitObjects]
288,192,60757,6,2,L|368:192,2,64.9999952316285
209,193,61591,1,0,0:0:0:0:
150,140,61948,2,0,P|172:93|214:56,1,97.4999928474428
280,79,62662,1,0,0:0:0:0:
336,132,63019,6,0,L|380:238,1,97.4999928474428
295,232,63734,2,0,L|257:141,1,97.4999928474428
180,149,64448,2,0,L|224:255,1,97.4999928474428
141,258,65162,1,0,0:0:0:0:
120,182,65519,6,0,P|119:112|159:84,2,97.4999928474428
168,243,66591,1,0,0:0:0:0:
228,194,66948,2,0,P|219:140|259:98,1,97.4999928474428
299,159,67662,2,0,P|321:95|285:55,1,97.4999928474428
231,69,68376,6,2,L|166:69,2,64.9999952316285
293,115,69210,2,0,B|343:115|343:115|343:164,1,97.4999928474428
292,221,69924,2,0,B|292:271|292:271|341:271,1,97.4999928474428
399,221,70638,2,0,B|449:221|449:221|449:270,1,97.4999928474428
390,320,71353,1,0,0:0:0:0:
313,305,71710,2,0,L|236:219,1,97.4999928474428
247,232,72424,6,0,L|170:146,1,97.4999928474428
259,151,73138,1,0,0:0:0:0:
278,75,73495,2,0,L|343:147,1,97.4999928474428
364,222,74210,1,0,0:0:0:0:
404,155,74567,2,0,P|386:105|336:133,1,97.4999928474428
286,155,75281,2,0,P|240:153|231:109,1,97.4999928474428
179,51,75995,6,2,L|103:51,2,64.9999952316285
257,55,76829,1,0,0:0:0:0:
334,55,77186,1,0,0:0:0:0:
337,132,77543,6,0,L|236:133,1,97.4999928474428
161,134,78257,2,0,L|57:189,1,97.4999928474428
99,253,78972,2,0,L|207:203,1,97.4999928474428
190,290,79686,2,0,P|182:328|107:330,1,97.4999928474428
119,268,80400,5,0,0:0:0:0:
75,203,80757,1,0,0:0:0:0:
121,140,81115,2,0,L|232:140,1,97.4999928474428
296,140,81829,1,0,0:0:0:0:
296,217,82186,2,0,L|185:217,1,97.4999928474428
120,212,82900,1,0,0:0:0:0:
120,289,83257,1,0,0:0:0:0:
198,291,83615,6,2,L|255:336,2,64.9999952316285
240,225,84448,2,0,B|219:198|248:185|222:163|180:175,1,97.4999928474428
106,202,85162,2,0,B|77:150|57:159|132:141,1,97.4999928474428
197,118,85876,1,0,0:0:0:0:
275,117,86234,2,0,L|382:117,1,97.4999928474428
373,194,86948,5,0,0:0:0:0:
295,194,87305,1,0,0:0:0:0:
275,117,87662,2,0,L|382:117,1,97.4999928474428
407,47,88376,2,0,L|309:47,1,97.4999928474428
267,112,89091,2,0,P|320:124|355:180,1,97.4999928474428
273,195,89805,5,0,0:0:0:0:
330,251,90162,2,0,P|284:276|223:256,1,97.4999928474428
163,267,90876,1,0,0:0:0:0:
191,194,91234,6,2,L|148:140,2,64.9999952316285
256,192,114567,12,0,121710,0:0:0:0:
167,85,122186,6,0,L|277:85,1,97.4999928474428
294,156,122900,2,0,L|196:156,1,97.4999928474428
238,221,123615,2,0,L|348:221,1,97.4999928474428
374,153,124329,5,0,0:0:0:0:
441,191,124686,2,0,P|444:122|416:87,1,97.4999928474428
374,153,125400,1,0,0:0:0:0:
369,75,125757,2,0,P|324:93|297:133,1,97.4999928474428
374,153,126472,1,0,0:0:0:0:
307,193,126829,2,0,P|342:225|389:232,1,97.4999928474428
347,296,127543,5,0,0:0:0:0:
269,296,127900,2,0,L|167:284,1,97.4999928474428
121,224,128615,2,0,L|231:162|231:162,1,97.4999928474428
283,176,129329,2,2,L|345:237,2,64.9999952316285
256,102,130162,6,0,P|198:95|155:138,1,97.4999928474428
221,172,130876,2,0,P|168:196|113:168,1,97.4999928474428
167,116,131591,2,0,P|109:109|66:152,1,97.4999928474428
80,207,132305,1,0,0:0:0:0:
136,260,132662,6,0,P|146:298|213:318,1,97.4999928474428
136,260,133376,2,0,P|174:266|221:214,1,97.4999928474428
136,260,134091,2,0,P|157:227|130:162,1,97.4999928474428
208,136,134805,5,0,0:0:0:0:
208,136,135162,2,0,L|312:136,1,97.4999928474428
306,213,135876,1,0,0:0:0:0:
306,213,136234,2,0,L|200:213|200:213,1,97.4999928474428
169,145,136948,6,2,L|154:80,2,64.9999952316285
247,146,137781,1,0,0:0:0:0:
324,145,138138,2,0,P|353:170|318:212,1,97.4999928474428
246,214,138853,2,0,P|217:239|252:281,1,97.4999928474428
323,282,139567,6,0,P|365:248|362:179,1,97.4999928474428
368,129,140281,2,0,P|334:87|265:90,1,97.4999928474428
215,78,140995,2,0,P|173:112|176:181,1,97.4999928474428
170,231,141709,2,0,P|204:273|273:270,1,97.4999928474428
243,202,142424,5,0,0:0:0:0:
243,124,142781,1,0,0:0:0:0:
320,116,143138,2,0,L|321:217,1,97.4999928474428
399,202,143853,1,0,0:0:0:0:
397,124,144210,1,0,0:0:0:0:
357,56,144567,6,2,L|285:56,2,64.9999952316285
377,131,145400,1,0,0:0:0:0:
346,202,145757,6,0,L|268:276,1,97.4999928474428
275,269,146472,2,0,L|210:167,1,97.4999928474428
222,186,147186,2,0,L|144:260,1,97.4999928474428
151,253,147900,2,0,L|86:151,1,97.4999928474428
146,109,148615,5,0,0:0:0:0:
205,159,148972,1,0,0:0:0:0:
257,101,149329,2,0,B|285:101|285:101|285:142|285:142|328:142,1,97.4999928474428
359,79,150043,2,0,B|387:79|387:79|387:120|387:120|430:120,1,97.4999928474428
419,202,150757,1,0,0:0:0:0:
361,255,151115,2,0,L|252:255,1,97.4999928474428
304,188,151829,1,0,0:0:0:0:
245,134,152186,6,2,L|181:104,2,64.9999952316285
323,128,153019,1,0,0:0:0:0:
371,66,153376,1,0,0:0:0:0:
405,136,153734,1,0,0:0:0:0:
449,72,154091,1,0,0:0:0:0:
471,146,154448,2,0,P|458:194|415:232,1,97.4999928474428
350,248,155162,1,0,0:0:0:0:
279,213,155519,6,2,L|225:169,1,64.9999952316285
179,189,155995,6,2,L|125:145,2,64.9999952316285
217,121,156829,6,0,L|334:121,1,97.4999928474428
296,196,157543,2,0,L|411:150,1,97.4999928474428
366,235,158257,1,0,0:0:0:0:
297,197,158615,2,0,L|215:253,1,97.4999928474428
158,199,159329,6,2,L|100:153,1,64.9999952316285
140,118,159805,6,2,L|195:72,2,64.9999952316285
209,153,160638,6,0,L|313:154,1,97.4999928474428
356,214,161353,1,0,0:0:0:0:
310,277,161710,2,0,L|196:277,1,97.4999928474428
162,217,162424,1,0,0:0:0:0:
209,153,162781,2,0,L|313:154,1,97.4999928474428
368,201,163495,1,0,0:0:0:0:
368,279,163853,6,4,L|354:319,2,32.4999976158143
423,224,164448,2,0,P|443:177|445:127,2,97.4999928474428
347,243,165519,6,2,L|278:243,1,64.9999952316285
231,229,165995,2,2,L|176:174,1,64.9999952316285
185,130,166472,2,2,L|232:83,1,64.9999952316285
282,83,166948,2,2,L|336:137,1,64.9999952316285
333,180,167424,6,2,L|280:235,2,64.9999952316285
407,201,168257,6,0,L|357:289,1,97.4999928474428
301,232,168972,2,0,L|261:327,1,97.4999928474428
197,279,169686,1,0,0:0:0:0:
246,218,170043,1,0,0:0:0:0:
181,174,170400,1,0,0:0:0:0:
131,234,170757,6,2,L|104:166,1,64.9999952316285
78,130,171234,6,2,L|14:193,2,64.9999952316285
154,115,172067,6,0,P|200:89|253:98,1,97.4999928474428
213,165,172781,2,0,P|265:168|309:136,1,97.4999928474428
355,88,173495,1,0,0:0:0:0:
302,145,173853,2,0,P|276:185|232:204,1,97.4999928474428
159,176,174567,6,2,L|134:239,1,64.9999952316285
119,287,175043,6,2,L|50:326,2,64.9999952316285
187,249,175876,5,0,0:0:0:0:
254,209,176234,1,0,0:0:0:0:
321,170,176591,1,0,0:0:0:0:
386,127,176948,2,0,L|480:64,2,97.4999928474428
321,170,178019,1,0,0:0:0:0:
254,209,178376,1,0,0:0:0:0:
187,249,178734,1,0,0:0:0:0:
119,287,179091,6,2,L|126:338,2,32.4999976158143,4|4|4,0:0|0:0|0:0,0:0:0:0:
83,217,179686,2,0,P|58:174|43:126,2,97.4999928474428
121,149,180757,6,2,L|168:102,1,64.9999952316285
219,104,181234,2,2,L|273:158,1,64.9999952316285
316,153,181710,2,2,L|363:106,1,64.9999952316285
413,106,182186,2,2,L|467:160,1,64.9999952316285
463,203,182662,6,2,L|417:248,2,64.9999952316285
