osu file format v14

[General]
AudioFilename: Marcus Maison Will Dragen - Another Dimension.mp3
AudioLeadIn: 0
PreviewTime: 136829
Countdown: 0
SampleSet: Soft
StackLeniency: 0.7
Mode: 0
LetterboxInBreaks: 1
WidescreenStoryboard: 1

[Editor]
Bookmarks: 60638,121948
DistanceSpacing: 1.5
BeatDivisor: 4
GridSize: 32
TimelineZoom: 1.7

[Metadata]
Title:Another Dimension (Original Mix)
TitleUnicode:Another Dimension (Original Mix)
Artist:Marcus Maison & Will Dragen
ArtistUnicode:Marcus Maison & Will Dragen
Creator:LifeJumb
Version:Insane
Source:
Tags:trance
BeatmapID:650774
BeatmapSetID:287342

[Difficulty]
HPDrainRate:7
CircleSize:4
OverallDifficulty:8
ApproachRate:8
SliderMultiplier:1.89999990463257
SliderTickRate:4

[Events]
//Background and Video events
0,0,"osu_tile.jpg",0,0
//Break Periods
2,93576,113817
//Storyboard Layer 0 (Background)
//Storyboard Layer 1 (Fail)
//Storyboard Layer 2 (Pass)
//Storyboard Layer 3 (Foreground)
//Storyboard Sound Samples

[TimingPoints]
2186.46385058241,476.190476190476,4,2,0,95,1,0
91829,-100,4,2,0,5,0,0
92036,-100,4,2,0,95,0,0
92186,-100,4,2,0,5,0,0
92366,-100,4,2,0,95,0,0
92543,-100,4,2,0,5,0,0
92713,-100,4,2,0,95,0,0
92900,-100,4,2,0,5,0,0
93080,-100,4,2,0,95,0,0
93257,-100,4,2,0,5,0,0
122186,-100,4,2,0,95,0,1
122662,-100,4,2,0,5,0,0
122842,-100,4,2,0,95,0,0
123019,-100,4,2,0,5,0,0
123209,-100,4,2,0,95,0,0
123376,-100,4,2,0,5,0,0
123541,-100,4,2,0,95,0,0
123734,-100,4,2,0,5,0,0
123916,-100,4,2,0,95,0,0
124091,-100,4,2,0,5,0,0
124256,-100,4,2,0,95,0,0
124448,-100,4,2,0,5,0,0
124631,-100,4,2,0,95,0,0
124805,-100,4,2,0,5,0,0
124964,-100,4,2,0,95,0,0
125162,-100,4,2,0,5,0,0
125351,-100,4,2,0,95,0,0
125519,-100,4,2,0,5,0,0
125696,-100,4,2,0,95,0,0
125876,-100,4,2,0,5,0,0
126044,-100,4,2,0,95,0,0
126234,-100,4,2,0,5,0,0
126404,-100,4,2,0,95,0,0
126591,-100,4,2,0,5,0,0
126774,-100,4,2,0,95,0,0
126948,-100,4,2,0,5,0,0
127119,-100,4,2,0,95,0,0
127305,-100,4,2,0,5,0,0
127486,-100,4,2,0,95,0,0
127662,-100,4,2,0,5,0,0
127859,-100,4,2,0,95,0,0
128019,-100,4,2,0,5,0,0
128186,-100,4,2,0,95,0,0
128376,-100,4,2,0,5,0,0
128552,-100,4,2,0,95,0,0
128734,-100,4,2,0,5,0,0
128965,-200,4,2,0,95,0,0
129448,-100,4,2,0,95,0,0
130281,-100,4,2,0,5,0,0
130471,-100,4,2,0,95,0,0
130638,-100,4,2,0,5,0,0
130810,-100,4,2,0,95,0,0
130995,-100,4,2,0,5,0,0
131183,-100,4,2,0,95,0,0
131353,-100,4,2,0,5,0,0
131535,-100,4,2,0,95,0,0
131710,-100,4,2,0,5,0,0
131883,-100,4,2,0,95,0,0
132067,-100,4,2,0,5,0,0
132249,-100,4,2,0,95,0,0
132424,-100,4,2,0,5,0,0
132601,-100,4,2,0,95,0,0
132781,-100,4,2,0,5,0,0
132961,-100,4,2,0,95,0,0
133138,-100,4,2,0,5,0,0
133326,-100,4,2,0,95,0,0
133495,-100,4,2,0,5,0,0
133671,-100,4,2,0,95,0,0
133853,-100,4,2,0,5,0,0
134016,-100,4,2,0,95,0,0
134210,-100,4,2,0,5,0,0
134378,-100,4,2,0,95,0,0
134567,-100,4,2,0,5,0,0
134743,-100,4,2,0,95,0,0
134924,-100,4,2,0,5,0,0
135088,-100,4,2,0,95,0,0
135281,-100,4,2,0,5,0,0
135456,-100,4,2,0,95,0,0
135638,-100,4,2,0,5,0,0
135808,-100,4,2,0,95,0,0
135995,-100,4,2,0,5,0,0
136178,-100,4,2,0,95,0,0
136353,-100,4,2,0,5,0,0
136544,-50,4,2,0,95,0,0
137424,-100,4,2,0,95,0,1
137900,-100,4,2,0,95,0,0
144154,-200,4,2,0,95,0,0
145043,-100,4,2,0,95,0,1
145519,-100,4,2,0,95,0,0
150732,-100,4,1,0,80,0,0
152662,-100,4,2,0,95,0,1
153138,-100,4,2,0,95,0,0
154210,-100,4,2,0,95,0,0
156472,-100,4,2,0,95,0,1
156948,-100,4,2,0,95,0,0
160281,-100,4,2,0,95,0,1
160757,-100,4,2,0,95,0,0
163734,-66.6666666666667,4,2,0,95,0,0
163882,-66.6666666666667,4,2,0,5,0,0
163942,-66.6666666666667,4,2,0,95,0,0
164001,-66.6666666666667,4,2,0,5,0,0
164061,-66.6666666666667,4,2,0,95,0,0
164120,-66.6666666666667,4,2,0,5,0,0
164210,-100,4,2,0,95,0,0
165579,-100,4,2,0,5,0,0
165698,-100,4,2,0,95,0,0
166055,-100,4,2,0,5,0,0
166174,-100,4,2,0,95,0,0
166293,-100,4,2,0,5,0,0
166412,-100,4,2,0,95,0,0
166531,-100,4,2,0,5,0,0
166650,-100,4,2,0,95,0,0
166769,-100,4,2,0,5,0,0
166888,-100,4,2,0,95,0,0
167067,-200,4,2,0,95,0,0
167900,-100,4,2,0,95,0,1
168376,-100,4,2,0,95,0,0
171710,-100,4,2,0,95,0,1
172186,-100,4,2,0,95,0,0
175519,-100,4,2,0,95,0,1
175995,-100,4,2,0,95,0,0
178972,-66.6666666666667,4,2,0,95,0,0
179120,-66.6666666666667,4,2,0,5,0,0
179180,-66.6666666666667,4,2,0,95,0,0
179240,-66.6666666666667,4,2,0,5,0,0
179299,-66.6666666666667,4,2,0,95,0,0
179359,-66.6666666666667,4,2,0,5,0,0
179448,-100,4,2,0,95,0,0
180817,-100,4,2,0,5,0,0
180936,-100,4,2,0,95,0,0
180936,-100,4,2,0,95,0,0
181293,-100,4,2,0,5,0,0
181412,-100,4,2,0,95,0,0
181531,-100,4,2,0,5,0,0
181650,-100,4,2,0,95,0,0
181769,-100,4,2,0,5,0,0
181888,-100,4,2,0,95,0,0
182007,-100,4,2,0,5,0,0
182126,-100,4,2,0,95,0,0

[Colours]
Combo1 : 89,0,255
Combo2 : 0,166,255

[HitObjects]
145,194,60757,5,0,0:0:0:0:
70,72,60995,1,0,0:0:0:0:
212,116,61234,2,0,B|287:134|287:134|342:180,1,142.499992847443
286,238,61710,2,0,B|249:208|249:208|171:192,1,94.9999952316285
273,75,62186,1,0,0:0:0:0:
273,75,62305,1,0,0:0:0:0:
114,218,62662,6,0,B|151:296|244:282,1,142.499992847443
300,281,63138,2,0,P|277:230|206:218,1,94.9999952316285
114,218,63615,2,0,B|130:261|183:275,1,47.4999976158143
273,74,64091,1,0,0:0:0:0:
115,218,64448,2,0,B|103:223|87:180,1,47.4999976158143
230,195,64805,5,0,0:0:0:0:
117,108,65043,1,0,0:0:0:0:
187,117,65162,1,0,0:0:0:0:
378,211,65519,1,0,0:0:0:0:
448,222,65638,2,0,B|448:253|448:253|422:279|422:279|394:279,1,94.9999952316285
378,211,65995,1,0,0:0:0:0:
251,277,66234,2,0,B|220:277|220:277|194:251|194:251|194:223,1,94.9999952316285
251,278,66591,1,0,0:0:0:0:
268,65,66948,6,0,P|181:114|188:167,1,142.499992847443
250,134,67424,1,0,0:0:0:0:
250,134,67662,2,0,P|243:178|171:214,1,94.9999952316285
180,143,68019,2,0,P|123:103|60:130,1,142.499992847443
138,250,68615,1,0,0:0:0:0:
276,285,68853,2,0,P|343:270|365:205,1,142.499992847443
337,140,69329,5,0,0:0:0:0:
228,232,69567,1,0,0:0:0:0:
290,103,69805,2,0,P|271:85|230:70,1,47.4999976158143
378,243,70281,2,0,P|373:322|287:350,1,142.499992847443
323,354,70757,2,0,P|276:349|233:309,1,94.9999952316285
382,334,71234,2,0,L|313:358,1,47.4999976158143
152,263,71710,6,0,B|117:228|117:228|143:203|143:203|98:158,1,142.499992847443
152,111,72186,1,0,0:0:0:0:
62,222,72424,1,0,0:0:0:0:
152,110,72662,1,0,0:0:0:0:
81,99,72781,2,0,P|105:166|196:171,1,142.499992847443
382,185,73495,5,0,0:0:0:0:
328,234,73615,1,0,0:0:0:0:
417,123,73853,2,0,L|300:123,1,94.9999952316285
250,122,74210,2,0,L|404:122,1,142.499992847443
178,122,74924,1,0,0:0:0:0:
249,123,75043,1,0,0:0:0:0:
253,265,75281,5,0,0:0:0:0:
249,122,75519,1,0,0:0:0:0:
177,121,75638,1,0,0:0:0:0:
379,51,75995,5,0,0:0:0:0:
236,45,76234,1,0,0:0:0:0:
326,155,76472,2,0,B|288:193|288:193|228:193|228:193|208:173,1,142.499992847443
249,123,76948,2,0,P|296:122|326:160,1,94.9999952316285
324,156,77424,1,0,0:0:0:0:
325,227,77543,1,0,0:0:0:0:
111,229,77900,5,0,0:0:0:0:
295,121,78257,2,0,L|347:173,1,47.4999976158143
189,119,78615,1,0,0:0:0:0:
225,256,78853,2,0,L|191:222,1,47.4999976158143
393,291,79329,2,0,P|435:264|371:212,1,142.499992847443
331,164,79805,1,0,0:0:0:0:
394,291,80043,2,0,L|291:214,1,94.9999952316285
332,164,80400,1,0,0:0:0:0:
141,260,80757,5,0,0:0:0:0:
70,252,80876,1,0,0:0:0:0:
204,202,81115,1,0,0:0:0:0:
368,50,81472,6,0,P|409:74|437:128,1,94.9999952316285
433,113,81829,1,0,0:0:0:0:
221,140,82186,2,0,P|286:174|305:249,1,142.499992847443
306,236,82662,1,0,0:0:0:0:
221,139,82900,2,0,P|167:163|147:208,1,94.9999952316285
150,192,83257,1,0,0:0:0:0:
359,235,83615,5,0,0:0:0:0:
271,122,83853,1,0,0:0:0:0:
271,122,84091,2,0,B|154:89|154:89|125:97,1,142.499992847443
87,148,84567,2,0,L|157:213,1,94.9999952316285
272,122,85043,1,0,0:0:0:0:
271,122,85162,2,0,B|154:89|154:89|125:97,1,142.499992847443
302,225,85876,5,0,0:0:0:0:
247,271,85995,1,0,0:0:0:0:
355,177,86234,2,0,P|374:220|352:277,1,94.9999952316285
302,225,86591,2,0,P|301:302|386:332,2,142.499992847443
302,225,87424,1,0,0:0:0:0:
159,226,87662,5,0,0:0:0:0:
237,107,87900,1,0,0:0:0:0:
308,107,88019,1,0,0:0:0:0:
94,108,88376,2,0,B|66:165|135:193|88:284,1,142.499992847443
173,248,88853,2,0,P|171:191|155:141,1,94.9999952316285
239,273,89329,2,0,P|241:237|234:198,1,47.4999976158143
106,276,89686,2,0,P|103:246|114:208,1,47.4999976158143
308,143,90162,5,0,0:0:0:0:
308,143,90281,2,0,P|370:144|399:196,1,94.9999952316285
246,141,90757,1,0,0:0:0:0:
308,143,90876,1,0,0:0:0:0:
137,272,91234,5,0,0:0:0:0:
69,137,91472,1,0,0:0:0:0:
200,192,91710,6,0,L|303:192,1,94.9999952316285
250,143,92067,6,0,L|389:143,1,94.9999952316285
153,242,92424,6,0,L|292:242,1,94.9999952316285
298,96,92781,6,0,L|437:96,1,94.9999952316285
108,291,93138,6,0,L|247:291,1,94.9999952316285
256,192,114567,12,0,121710,0:0:0:0:
256,160,122186,5,0,0:0:0:0:
256,160,122543,2,0,L|160:256,1,94.9999952316285
256,160,122900,2,0,L|352:255,1,94.9999952316285
64,96,123257,6,0,L|171:96,1,94.9999952316285
64,224,123614,2,0,L|171:224,1,94.9999952316285
96,160,123971,2,0,L|203:160,1,94.9999952316285
96,288,124328,2,0,L|203:288,1,94.9999952316285
160,96,124686,6,0,L|267:96,1,94.9999952316285
160,224,125043,2,0,L|267:224,1,94.9999952316285
192,160,125400,2,0,L|299:160,1,94.9999952316285
192,288,125757,2,0,L|299:288,1,94.9999952316285
256,96,126114,6,0,L|363:96,1,94.9999952316285
256,224,126471,2,0,L|363:224,1,94.9999952316285
288,160,126828,2,0,L|395:160,1,94.9999952316285
288,288,127185,2,0,L|395:288,1,94.9999952316285
352,96,127543,6,0,L|459:96,1,94.9999952316285
352,224,127900,2,0,L|459:224,1,94.9999952316285
384,160,128257,2,0,L|491:160,1,94.9999952316285
384,288,128614,2,0,L|491:288,1,94.9999952316285
335,296,128972,6,0,P|309:315|266:302,1,71.2499964237214
103,153,129567,1,2,0:0:0:0:
393,50,129805,1,2,0:0:0:0:
256,96,130162,6,0,P|302:105|341:145,1,94.9999952316285
256,288,130519,2,0,P|210:279|170:239,1,94.9999952316285
352,192,130876,2,0,P|343:238|302:277,1,94.9999952316285
160,191,131233,2,0,P|168:146|208:107,1,94.9999952316285
256,288,131591,6,0,P|210:279|171:239,1,94.9999952316285
256,96,131948,2,0,P|301:104|341:144,1,94.9999952316285
159,191,132305,2,0,P|168:146|209:107,1,94.9999952316285
352,191,132662,2,0,P|343:237|303:277,1,94.9999952316285
256,96,133019,6,0,P|302:105|341:145,1,94.9999952316285
256,288,133376,2,0,P|210:279|170:239,1,94.9999952316285
352,192,133733,2,0,P|343:238|302:277,1,94.9999952316285
160,192,134090,2,0,P|168:146|208:107,1,94.9999952316285
257,288,134448,6,0,P|209:279|171:238,1,94.9999952316285
255,96,134805,2,0,P|302:105|342:145,1,94.9999952316285
159,191,135162,2,0,P|169:145|210:107,1,94.9999952316285
351,192,135519,2,0,P|343:238|304:277,1,94.9999952316285
256,96,135876,6,0,P|303:104|341:145,1,94.9999952316285
256,288,136233,2,0,P|210:279|170:239,1,94.9999952316285
256,192,136591,6,0,B|296:179|296:179|281:130|205:132|185:199|228:258|280:221|280:221|295:200|302:183,1,284.999985694885
85,194,137186,1,2,0:0:0:0:
413,194,137424,2,0,P|333:97|310:98,1,142.499992847443
457,56,137900,1,2,0:0:0:0:
413,195,138138,2,0,P|375:168|318:164,1,94.9999952316285
192,182,138495,1,2,0:0:0:0:
413,195,138853,2,0,B|385:259|385:259|319:305,1,142.499992847443
461,297,139329,1,2,0:0:0:0:
326,302,139567,2,0,B|278:334|278:334|207:333,1,94.9999952316285
240,333,139924,5,2,0:0:0:0:
240,333,140281,2,0,B|174:332|174:332|103:261,1,142.499992847443
256,257,140757,1,2,0:0:0:0:
119,277,140995,2,0,B|95:249|95:249|95:188,1,94.9999952316285
46,313,141353,1,2,0:0:0:0:
210,177,141710,6,0,L|355:178,1,142.499992847443
237,98,142186,1,2,0:0:0:0:
377,121,142424,2,0,B|352:178|352:178|307:177,1,94.9999952316285
458,180,142781,1,2,0:0:0:0:
279,296,143138,2,0,P|244:342|216:285,1,142.499992847443
279,155,143615,1,2,0:0:0:0:
279,296,143853,2,0,L|377:269,1,94.9999952316285
279,155,144210,6,0,B|267:120|267:120|282:86,1,71.2499964237214
478,35,144805,1,2,0:0:0:0:
478,242,145043,2,0,L|351:313,1,142.499992847443
479,320,145519,1,2,0:0:0:0:
358,243,145757,6,0,L|267:193,1,94.9999952316285
393,262,146115,1,2,0:0:0:0:
205,158,146472,2,0,L|352:241,1,142.499992847443
406,112,146948,1,2,0:0:0:0:
263,118,147186,2,0,P|224:92|160:101,1,94.9999952316285
62,37,147543,1,2,0:0:0:0:
133,238,147900,6,0,B|182:244|206:296|268:303,1,142.499992847443
318,188,148376,1,2,0:0:0:0:
239,68,148615,2,0,L|185:153,1,94.9999952316285
337,137,148972,1,2,0:0:0:0:
249,332,149329,6,0,P|178:318|110:271,1,142.499992847443
73,144,149805,1,2,0:0:0:0:
180,237,150043,2,0,P|218:257|276:258,1,94.9999952316285
198,155,150400,1,2,0:0:0:0:
410,180,150757,5,0,0:0:0:0:
404,220,151115,1,0,0:0:0:0:
394,253,151472,1,0,0:0:0:0:
380,282,151829,1,0,0:0:0:0:
360,310,152186,5,0,0:0:0:0:
327,79,152424,1,2,0:0:0:0:
110,156,152662,2,0,B|63:211|97:237|175:272,1,142.499992847443
241,137,153138,1,2,0:0:0:0:
114,72,153376,2,0,L|50:156,1,94.9999952316285
194,202,153734,1,2,0:0:0:0:
374,316,154091,6,0,B|440:281|440:281|467:180,1,142.499992847443
335,254,154567,1,2,0:0:0:0:
372,116,154805,2,0,B|417:136|417:136|455:176,1,94.9999952316285
310,213,155162,1,2,0:0:0:0:
97,193,155519,5,2,0:0:0:0:
406,85,155757,1,2,0:0:0:0:
314,88,155876,1,2,0:0:0:0:
406,172,155995,1,2,0:0:0:0:
118,40,156234,1,2,0:0:0:0:
262,282,156472,2,0,P|200:299|112:286,1,142.499992847443
198,162,156948,1,2,0:0:0:0:
334,205,157186,6,0,L|433:306,1,94.9999952316285
263,282,157543,1,2,0:0:0:0:
273,68,157900,2,0,B|326:44|326:44|358:44|358:44|420:74,1,142.499992847443
274,155,158376,1,2,0:0:0:0:
131,165,158615,2,0,P|131:119|198:84,1,94.9999952316285
238,218,158972,1,2,0:0:0:0:
431,127,159329,5,2,0:0:0:0:
125,59,159567,1,2,0:0:0:0:
175,141,159686,1,2,0:0:0:0:
222,60,159805,1,2,0:0:0:0:
127,299,160043,1,2,0:0:0:0:
432,313,160281,2,0,L|333:203,1,142.499992847443
244,92,160757,1,2,0:0:0:0:
337,207,160995,6,0,L|417:297,1,94.9999952316285
432,147,161353,1,2,0:0:0:0:
351,344,161710,2,0,L|232:264,1,142.499992847443
388,233,162186,1,2,0:0:0:0:
475,345,162424,2,0,L|452:234,1,94.9999952316285
342,336,162781,1,2,0:0:0:0:
177,199,163138,2,0,P|157:144|232:174,1,142.499992847443
106,43,163615,1,2,0:0:0:0:
109,185,163853,6,2,L|65:198,1,35.6249995708466
193,256,163972,2,2,L|174:294,1,35.6249995708466
312,268,164091,2,2,L|327:314,1,35.6249995708466
458,185,164448,5,0,0:0:0:0:
411,130,164567,2,0,P|373:80|305:62,2,94.9999952316285
412,201,165162,1,2,0:0:0:0:
198,191,165519,6,2,L|138:139,1,47.4999976158143
372,90,165757,2,2,L|316:48,1,47.4999976158143
210,309,165995,2,2,L|150:257,1,47.4999976158143
356,175,166233,2,2,L|300:133,1,47.4999976158143
332,347,166472,2,2,L|272:295,1,47.4999976158143
470,218,166710,2,2,L|414:176,1,47.4999976158143
195,151,166948,1,2,0:0:0:0:
195,151,167186,6,0,P|184:126|206:98,1,47.4999976158143
477,38,167662,1,2,0:0:0:0:
249,234,167900,2,0,P|186:283|109:278,1,142.499992847443
267,331,168376,1,2,0:0:0:0:
126,284,168615,2,0,P|140:246|206:204,1,94.9999952316285
215,348,168972,1,2,0:0:0:0:
177,136,169329,6,0,P|111:160|69:235,1,142.499992847443
223,227,169805,1,2,0:0:0:0:
330,134,170043,2,0,L|387:210,1,94.9999952316285
255,139,170400,1,2,0:0:0:0:
375,315,170757,5,2,0:0:0:0:
76,319,170995,1,2,0:0:0:0:
49,222,171115,1,2,0:0:0:0:
113,297,171234,1,2,0:0:0:0:
352,123,171472,1,2,0:0:0:0:
59,74,171710,2,0,L|162:187,1,142.499992847443
161,56,172186,1,2,0:0:0:0:
253,164,172424,6,0,L|350:263,1,94.9999952316285
326,95,172781,1,2,0:0:0:0:
117,50,173138,2,0,B|114:85|80:90|80:90|64:129|120:172,1,142.499992847443
39,43,173615,1,2,0:0:0:0:
40,185,173853,2,0,L|118:296,1,94.9999952316285
192,163,174210,1,2,0:0:0:0:
384,70,174567,5,2,0:0:0:0:
436,319,174805,1,2,0:0:0:0:
465,237,174924,1,2,0:0:0:0:
481,149,175043,1,2,0:0:0:0:
199,273,175281,1,2,0:0:0:0:
68,52,175519,2,0,L|218:52,1,142.499992847443
115,164,175995,1,2,0:0:0:0:
238,236,176234,6,0,P|293:239|334:193,1,94.9999952316285
204,137,176591,1,2,0:0:0:0:
408,197,176948,2,0,L|303:311,1,142.499992847443
331,154,177424,1,2,0:0:0:0:
473,158,177662,2,0,P|441:119|395:84,1,94.9999952316285
386,216,178019,1,2,0:0:0:0:
265,39,178376,2,0,P|203:79|175:171,1,142.499992847443
319,100,178853,1,2,0:0:0:0:
451,267,179091,6,2,L|475:300,1,35.6249995708466
325,299,179210,2,2,L|334:344,1,35.6249995708466
195,294,179329,2,2,L|188:336,1,35.6249995708466
170,151,179686,5,0,0:0:0:0:
102,128,179805,2,0,L|25:28,2,94.9999952316285
82,196,180400,1,0,0:0:0:0:
256,64,180757,6,2,L|320:96,1,47.4999976158143
256,312,180995,2,2,L|192:288,1,47.4999976158143
384,192,181234,2,2,L|320:160,1,47.4999976158143
136,192,181472,2,2,L|192:224,1,47.4999976158143
256,64,181710,2,2,L|192:32,1,47.4999976158143
256,312,181948,2,2,L|320:352,1,47.4999976158143
256,192,182186,1,2,0:0:0:0:
256,192,182424,5,2,0:0:0:0:
446,43,182662,1,2,0:0:0:0:
441,326,182900,1,2,0:0:0:0:
193,193,183138,1,10,0:0:0:0:
