osu file format v14

[General]
AudioFilename: Marcus Maison Will Dragen - Another Dimension.mp3
AudioLeadIn: 0
PreviewTime: 136829
Countdown: 0
SampleSet: Soft
StackLeniency: 0.7
Mode: 0
LetterboxInBreaks: 1
WidescreenStoryboard: 0

[Editor]
Bookmarks: 60638,121948
DistanceSpacing: 1.2
BeatDivisor: 4
GridSize: 16
TimelineZoom: 1.2

[Metadata]
Title:Another Dimension (Original Mix)
TitleUnicode:Another Dimension (Original Mix)
Artist:Marcus Maison & Will Dragen
ArtistUnicode:Marcus Maison & Will Dragen
Creator:LifeJumb
Version:Hard
Source:
Tags:trance
BeatmapID:648364
BeatmapSetID:287342

[Difficulty]
HPDrainRate:6
CircleSize:4
OverallDifficulty:6
ApproachRate:7
SliderMultiplier:1.59999990463257
SliderTickRate:4

[Events]
//Background and Video events
0,0,"osu_tile.jpg",0,0
//Break Periods
2,91911,113667
//Storyboard Layer 0 (Background)
//Storyboard Layer 1 (Fail)
//Storyboard Layer 2 (Pass)
//Storyboard Layer 3 (Foreground)
//Storyboard Sound Samples

[TimingPoints]
2186.46385058241,476.190476190476,4,2,0,95,1,0
122186,-100,4,2,0,95,0,1
122662,-100,4,2,0,95,0,0
137424,-100,4,2,0,95,0,1
137900,-100,4,2,0,95,0,0
145043,-100,4,2,0,95,0,1
145519,-100,4,2,0,95,0,0
152662,-100,4,2,0,95,0,1
153138,-100,4,2,0,95,0,0
156472,-100,4,2,0,95,0,1
156948,-100,4,2,0,95,0,0
160281,-100,4,2,0,95,0,1
160757,-100,4,2,0,95,0,0
167900,-100,4,2,0,95,0,1
168376,-100,4,2,0,95,0,0
171710,-100,4,2,0,95,0,1
172186,-100,4,2,0,95,0,0
175519,-100,4,2,0,95,0,1
175995,-100,4,2,0,95,0,0

[Colours]
Combo1 : 89,0,255
Combo2 : 0,166,255

[HitObjects]
107,259,60757,5,2,0:0:0:0:
87,164,60995,1,0,0:0:0:0:
179,189,61234,2,0,L|305:160,1,119.999992847443
295,162,61710,5,0,0:0:0:0:
375,110,61948,2,0,P|391:150|384:221,1,79.9999952316285
375,231,62305,2,0,P|272:232|266:225,2,119.999992847443
408,196,63138,1,0,0:0:0:0:
344,123,63376,1,0,0:0:0:0:
440,122,63615,1,0,0:0:0:0:
440,122,63734,6,0,L|350:26,2,119.999992847443
464,163,64567,2,0,P|472:207|447:248,1,79.9999952316285
457,237,64924,1,0,0:0:0:0:
376,184,65162,2,0,P|327:202|315:268,1,119.999992847443
345,122,65876,1,0,0:0:0:0:
345,122,65995,2,0,L|409:58,2,79.9999952316285
297,128,66591,2,0,P|241:136|190:100,2,119.999992847443
297,128,67424,5,0,0:0:0:0:
243,48,67662,2,0,P|291:35|347:40,1,79.9999952316285
320,35,68019,2,0,P|374:55|412:113,1,119.999992847443
338,169,68614,1,0,0:0:0:0:
409,105,68853,2,0,P|416:163|369:235,1,119.999992847443
389,217,69329,2,0,P|362:240|278:258,1,119.999992847443
293,205,69805,1,0,0:0:0:0:
474,139,70281,2,0,P|473:196|438:250,1,119.999992847443
405,280,70757,1,0,0:0:0:0:
372,295,70995,1,0,0:0:0:0:
333,305,71234,1,0,0:0:0:0:
333,305,71353,2,0,L|203:305,2,119.999992847443
333,352,72186,5,0,0:0:0:0:
333,256,72424,2,0,L|253:256,1,79.9999952316285
253,256,72781,1,0,0:0:0:0:
381,190,73138,1,0,0:0:0:0:
299,69,73495,1,0,0:0:0:0:
299,69,73615,2,0,P|282:109|224:126,1,79.9999952316285
251,126,74091,1,0,0:0:0:0:
251,126,74210,2,0,P|206:156|202:232,2,119.999992847443
293,104,75043,5,0,0:0:0:0:
350,27,75281,1,0,0:0:0:0:
360,122,75519,1,0,0:0:0:0:
346,170,75638,2,0,L|311:297,1,119.999992847443
314,285,76233,1,0,0:0:0:0:
314,285,76472,2,0,L|205:234,1,119.999992847443
205,234,76948,5,0,0:0:0:0:
206,138,77186,2,0,L|309:187,1,79.9999952316285
278,172,77543,1,0,0:0:0:0:
204,48,77900,2,0,L|330:107,1,119.999992847443
312,98,78376,1,0,0:0:0:0:
401,61,78615,6,0,P|427:90|437:133,1,79.9999952316285
436,177,78972,2,0,P|414:232|358:266,1,119.999992847443
363,120,79686,1,0,0:0:0:0:
325,89,79805,5,0,0:0:0:0:
335,187,80043,2,0,P|376:240|375:254,1,79.9999952316285
422,239,80400,2,0,P|401:177|328:138,2,119.999992847443
420,287,81234,1,0,0:0:0:0:
420,287,81472,2,0,P|389:325|351:340,1,79.9999952316285
329,302,81829,2,0,P|352:250|416:227,2,119.999992847443
281,302,82662,5,0,0:0:0:0:
289,206,82900,2,0,P|327:174|381:152,1,79.9999952316285
353,160,83257,2,0,P|391:125|395:77,1,79.9999952316285
397,98,83615,2,0,P|382:57|336:39,1,79.9999952316285
256,39,84091,2,0,B|190:39|190:39|126:79,1,119.999992847443
144,115,84567,5,0,0:0:0:0:
226,164,84805,2,0,L|285:105,1,79.9999952316285
330,106,85162,2,0,P|367:123|381:202,2,119.999992847443
165,215,85995,1,0,0:0:0:0:
223,188,86234,2,0,L|271:120,1,79.9999952316285
280,92,86592,5,0,0:0:0:0:
184,88,86949,1,0,0:0:0:0:
252,155,87305,1,0,0:0:0:0:
271,179,87424,2,0,P|314:194|338:234,1,79.9999952316285
361,278,87900,2,0,L|337:321,1,39.9999976158142
248,288,88377,5,0,0:0:0:0:
166,237,88734,2,0,L|120:200,1,39.9999976158142
115,150,89092,1,0,0:0:0:0:
162,107,89329,2,0,L|219:87,1,39.9999976158142
289,128,89806,5,0,0:0:0:0:
330,214,90162,2,0,L|316:261,1,39.9999976158142
249,268,90520,1,0,0:0:0:0:
185,267,90757,2,0,L|137:263,1,39.9999976158142
195,181,91234,5,2,0:0:0:0:
239,134,91472,1,2,0:0:0:0:
302,122,91711,1,2,0:0:0:0:
256,192,114567,12,0,121710,0:0:0:0:
288,64,122186,5,2,0:0:0:0:
288,160,122543,1,0,0:0:0:0:
192,160,122900,1,0,0:0:0:0:
128,240,123257,5,0,0:0:0:0:
192,160,123615,1,0,0:0:0:0:
127,240,123972,1,0,0:0:0:0:
192,159,124329,5,0,0:0:0:0:
224,80,124686,1,0,0:0:0:0:
128,80,125043,1,0,0:0:0:0:
176,160,125400,5,0,0:0:0:0:
256,112,125757,1,0,0:0:0:0:
176,160,126115,1,0,0:0:0:0:
272,160,126472,5,0,0:0:0:0:
176,160,126829,1,0,0:0:0:0:
224,80,127186,1,0,0:0:0:0:
176,160,127543,5,0,0:0:0:0:
256,208,127900,1,0,0:0:0:0:
320,128,128257,1,0,0:0:0:0:
256,208,128615,5,0,0:0:0:0:
311,118,128972,1,0,0:0:0:0:
227,194,129329,5,2,0:0:0:0:
375,192,129567,1,2,0:0:0:0:
192,194,129805,1,2,0:0:0:0:
256,112,130162,5,0,0:0:0:0:
336,192,130519,1,0,0:0:0:0:
271,262,130876,1,0,0:0:0:0:
175,272,131233,1,0,0:0:0:0:
252,215,131591,5,0,0:0:0:0:
157,198,131948,1,0,0:0:0:0:
235,142,132305,1,0,0:0:0:0:
323,178,132662,1,0,0:0:0:0:
328,273,133019,5,0,0:0:0:0:
421,253,133376,1,0,0:0:0:0:
397,159,133733,1,0,0:0:0:0:
317,105,134090,1,0,0:0:0:0:
248,172,134448,5,0,0:0:0:0:
322,232,134805,1,0,0:0:0:0:
228,253,135162,1,0,0:0:0:0:
158,187,135519,1,0,0:0:0:0:
207,104,135876,1,0,0:0:0:0:
300,83,136234,1,0,0:0:0:0:
242,159,136591,1,0,0:0:0:0:
336,184,136948,5,2,0:0:0:0:
437,66,137186,1,2,0:0:0:0:
432,224,137424,2,0,P|352:288|304:288,1,119.999992847443
301,273,137900,5,0,0:0:0:0:
222,288,138138,2,0,P|158:256|142:240,1,79.9999952316285
177,219,138495,2,0,L|301:160,2,119.999992847443
168,179,139329,1,0,0:0:0:0:
226,124,139567,6,0,P|323:99|335:104,1,79.9999952316285
336,102,139924,2,0,L|375:215,2,119.999992847443
375,96,140757,2,0,L|441:172,1,79.9999952316285
393,229,141234,1,0,0:0:0:0:
369,261,141353,2,0,L|260:312,2,119.999992847443
348,226,142186,5,0,0:0:0:0:
273,198,142424,2,0,L|179:197,1,79.9999952316285
199,157,142781,2,0,L|308:106,2,119.999992847443
169,129,143615,2,0,P|189:72|208:59,1,79.9999952316285
278,86,144091,1,0,0:0:0:0:
313,103,144210,1,0,0:0:0:0:
345,218,144567,5,2,0:0:0:0:
239,328,144805,1,2,0:0:0:0:
78,294,145043,2,0,L|86:147,1,119.999992847443
111,145,145519,5,0,0:0:0:0:
77,72,145757,2,0,L|178:44,1,79.9999952316285
171,86,146115,2,0,L|227:192,2,119.999992847443
204,64,146948,2,0,B|235:74|263:39|297:65,1,79.9999952316285
343,108,147424,5,0,0:0:0:0:
323,142,147543,2,0,L|226:214,2,119.999992847443
358,159,148376,1,0,0:0:0:0:
351,239,148615,2,0,P|321:270|273:294,1,79.9999952316285
264,256,148972,6,0,L|209:148,2,119.999992847443
235,284,149805,1,0,0:0:0:0:
161,252,150043,2,0,L|80:172,1,79.9999952316285
116,157,150400,1,0,0:0:0:0:
216,90,150757,5,0,0:0:0:0:
336,96,151115,2,0,P|342:194|316:202,1,119.999992847443
252,113,151829,1,0,0:0:0:0:
171,193,152186,5,2,0:0:0:0:
259,295,152424,1,2,0:0:0:0:
152,168,152662,2,0,P|217:111|256:109,1,119.999992847443
287,108,153138,5,0,0:0:0:0:
360,139,153376,2,0,P|396:232|396:235,1,79.9999952316285
394,250,153734,2,0,L|471:342,2,119.999992847443
355,260,154567,1,0,0:0:0:0:
278,237,154805,2,0,L|206:319,1,79.9999952316285
185,292,155162,1,0,0:0:0:0:
185,172,155519,5,2,0:0:0:0:
273,42,155757,1,2,0:0:0:0:
283,197,155995,1,2,0:0:0:0:
179,76,156234,1,2,0:0:0:0:
337,118,156472,2,0,P|400:144|432:192,1,119.999992847443
448,224,156948,5,0,0:0:0:0:
407,292,157186,2,0,P|391:324|327:340,1,79.9999952316285
312,344,157543,2,0,L|192:341,2,119.999992847443
349,330,158376,2,0,P|384:313|403:279,1,79.9999952316285
386,200,158853,1,0,0:0:0:0:
368,163,158972,1,0,0:0:0:0:
267,97,159329,5,2,0:0:0:0:
273,241,159567,1,2,0:0:0:0:
194,95,159805,1,2,0:0:0:0:
199,240,160043,1,2,0:0:0:0:
121,96,160281,2,0,B|62:99|60:156|61:193,1,119.999992847443
69,222,160757,5,0,0:0:0:0:
113,288,160995,2,0,L|204:346,1,79.9999952316285
217,316,161353,2,0,L|146:218,2,119.999992847443,0|0|0,0:0|2:0|0:0,0:0:0:0:
256,316,162186,1,0,0:0:0:0:
332,294,162424,2,0,L|420:248,1,79.9999952316285
421,221,162781,2,0,L|458:106,2,119.999992847443
380,224,163615,1,0,0:0:0:0:
300,223,163853,5,4,0:0:0:0:
260,219,163972,1,4,0:0:0:0:
221,208,164091,1,4,0:0:0:0:
120,142,164448,5,0,0:0:0:0:
146,112,164567,2,0,P|184:89|232:89,2,79.9999952316285
138,151,165162,1,0,0:0:0:0:
144,272,165519,6,2,L|224:272,1,79.9999952316285
368,272,165995,2,2,L|288:272,1,79.9999952316285
144,192,166472,2,2,L|224:192,1,79.9999952316285
368,192,166948,2,2,L|288:192,1,79.9999952316285
252,126,167424,5,2,0:0:0:0:
118,46,167662,1,2,0:0:0:0:
274,46,167900,2,0,P|362:53|404:73,1,119.999992847443
412,98,168376,5,0,0:0:0:0:
424,177,168615,2,0,P|387:255|382:261,1,79.9999952316285
353,235,168972,2,0,L|307:123,2,119.999992847443
334,270,169805,1,0,0:0:0:0:
258,298,170043,2,0,L|167:264,1,79.9999952316285
144,258,170400,1,0,0:0:0:0:
226,171,170757,5,2,0:0:0:0:
224,52,170995,1,2,0:0:0:0:
227,198,171234,1,2,0:0:0:0:
344,111,171472,1,2,0:0:0:0:
203,222,171710,2,0,P|159:279|96:308,1,119.999992847443
86,277,172186,5,0,0:0:0:0:
66,199,172424,2,0,P|85:160|130:124,1,79.9999952316285
150,137,172781,2,0,L|239:55,2,119.999992847443
147,177,173615,1,0,0:0:0:0:
182,248,173853,2,0,P|195:296|248:329,1,79.9999952316285
255,313,174210,1,0,0:0:0:0:
294,199,174567,5,2,0:0:0:0:
355,100,174805,1,2,0:0:0:0:
249,42,175043,1,2,0:0:0:0:
355,101,175281,1,2,0:0:0:0:
466,160,175519,2,0,L|466:293,1,119.999992847443
447,315,175995,5,0,0:0:0:0:
370,340,176234,2,0,P|313:337|266:308,1,79.9999952316285
287,288,176591,2,0,L|376:206,2,119.999992847443
247,288,177424,1,0,0:0:0:0:
169,267,177662,2,0,P|122:241|102:195,1,79.9999952316285
113,180,178019,2,0,L|69:67,2,119.999992847443
152,189,178853,1,0,0:0:0:0:
229,207,179091,5,4,0:0:0:0:
266,220,179210,1,4,0:0:0:0:
305,224,179329,1,4,0:0:0:0:
398,149,179686,5,0,0:0:0:0:
415,108,179805,2,0,L|475:36,2,79.9999952316285
375,115,180400,1,0,0:0:0:0:
256,48,180757,6,2,L|179:82,1,79.9999952316285
96,192,181234,2,2,L|180:192,1,79.9999952316285
336,192,181710,2,2,L|420:192,1,79.9999952316285
329,303,182186,2,2,L|256:336,1,79.9999952316285
178,316,182662,5,2,0:0:0:0:
109,192,182900,1,2,0:0:0:0:
256,192,183138,1,14,0:0:0:0:
