osu file format v14

[General]
AudioFilename: Marcus Maison Will Dragen - Another Dimension.mp3
AudioLeadIn: 0
PreviewTime: 136829
Countdown: 0
SampleSet: None
StackLeniency: 0.7
Mode: 0
LetterboxInBreaks: 1
WidescreenStoryboard: 1

[Editor]
Bookmarks: 60638,121948,139329,140995
DistanceSpacing: 0.9
BeatDivisor: 2
GridSize: 16
TimelineZoom: 1

[Metadata]
Title:Another Dimension (Original Mix)
TitleUnicode:Another Dimension (Original Mix)
Artist:Marcus Maison & Will Dragen
ArtistUnicode:Marcus Maison & Will Dragen
Creator:LifeJumb
Version:Easy
Source:
Tags:trance
BeatmapID:650504
BeatmapSetID:287342

[Difficulty]
HPDrainRate:2
CircleSize:2
OverallDifficulty:2
ApproachRate:3
SliderMultiplier:0.99999990463257
SliderTickRate:1

[Events]
//Background and Video events
0,0,"osu_tile.jpg",0,0
//Break Periods
2,53338,59794
2,106672,115032
2,121910,135984
//Storyboard Layer 0 (Background)
//Storyboard Layer 1 (Fail)
//Storyboard Layer 2 (Pass)
//Storyboard Layer 3 (Foreground)
//Storyboard Sound Samples

[TimingPoints]
2186.46385058241,476.190476190476,4,3,0,50,1,0
121591,-100,4,1,0,45,0,1
122662,-100,4,1,0,45,0,0
137424,-100,4,1,0,40,0,1
137900,-100,4,1,0,40,0,0
145043,-100,4,1,0,40,0,1
145519,-100,4,1,0,40,0,0
152662,-100,4,1,0,40,0,1
153138,-100,4,1,0,45,0,0
156472,-100,4,1,0,45,0,1
156948,-100,4,1,0,45,0,0
160281,-100,4,1,0,45,0,1
160757,-100,4,1,0,45,0,0
167900,-100,4,1,0,45,0,1
168376,-100,4,1,0,45,0,0
171710,-100,4,1,0,45,0,1
172186,-100,4,1,0,45,0,0
175519,-100,4,1,0,45,0,1
175995,-100,4,1,0,45,0,0

[Colours]
Combo1 : 89,0,255
Combo2 : 0,166,255

[HitObjects]
284,111,281,5,8,0:0:0:0:
320,176,757,2,0,L|288:288,1,99.999990463257
212,275,1710,1,0,0:0:0:0:
140,239,2186,2,0,L|167:142,1,99.999990463257
227,89,3138,2,0,P|288:80|343:121,1,99.999990463257
368,160,4091,5,0,0:0:0:0:
361,239,4567,2,0,P|316:296|258:296,1,99.999990463257
212,301,5519,1,0,0:0:0:0:
132,291,5995,2,0,P|78:255|60:196,1,99.999990463257
88,148,6948,5,0,0:0:0:0:
139,89,7424,1,0,0:0:0:0:
218,77,7900,2,0,B|273:78|273:78|273:153,1,99.999990463257
273,203,8853,2,0,B|280:268|302:284|343:270,1,99.999990463257
404,285,9805,1,0,0:0:0:0:
445,216,10281,6,0,L|418:113,1,99.999990463257
343,71,11234,2,0,P|270:98|267:154,1,99.999990463257
269,192,12186,2,0,P|196:165|193:109,1,99.999990463257
259,111,13138,2,0,P|191:72|146:106,1,99.999990463257
124,138,14091,5,0,0:0:0:0:
121,217,14567,2,0,B|108:289|183:237|161:313,2,99.999990463257
84,145,15995,2,0,B|65:87|140:139|127:67,2,99.999990463257
87,233,17424,6,0,B|87:286|87:286|169:286,1,99.999990463257
213,287,18376,2,0,B|260:287|260:287|260:234,1,99.999990463257
260,153,19329,2,0,B|260:100|260:100|342:100,1,99.999990463257
364,155,20281,1,0,0:0:0:0:
365,234,20757,6,0,L|290:309,1,99.999990463257
274,226,21710,2,0,L|199:301,1,99.999990463257
180,220,22662,2,0,L|105:295,2,99.999990463257
234,161,24091,1,0,0:0:0:0:
313,159,24567,5,0,0:0:0:0:
392,148,25043,2,0,B|425:197|425:197|402:241,1,99.999990463257
366,311,25995,2,0,B|320:293|320:293|281:240,1,99.999990463257
254,169,26948,2,0,B|230:120|230:120|169:98,1,99.999990463257
97,95,27900,5,0,0:0:0:0:
96,184,28376,2,0,L|96:290,1,99.999990463257
186,287,29329,2,0,L|186:187,1,99.999990463257
275,185,30281,5,14,0:0:0:0:
358,219,30757,6,0,B|357:271|357:271|301:327,1,99.999990463257
233,310,31710,2,0,B|199:276|199:276|198:224,1,99.999990463257
196,134,32662,2,0,B|197:82|197:82|230:48,1,99.999990463257
321,53,33615,2,0,B|354:86|354:86|355:138,1,99.999990463257
355,228,34567,6,0,B|355:285|355:285|302:285,2,99.999990463257
355,138,35995,1,0,0:0:0:0:
264,139,36472,1,0,0:0:0:0:
174,138,36948,2,0,B|138:176|138:176|186:224,1,99.999990463257
257,235,37900,5,0,0:0:0:0:
331,263,38376,2,0,P|354:297|303:320,1,99.999990463257
224,315,39329,1,0,0:0:0:0:
157,254,39805,2,0,L|158:153,1,99.999990463257
235,108,40757,5,0,0:0:0:0:
325,108,41234,2,0,B|366:143|366:143|389:218,1,99.999990463257
334,264,42186,1,0,0:0:0:0:
244,263,42662,2,0,B|181:210|181:210|181:158,1,99.999990463257
106,141,43615,2,0,B|106:123|106:123|43:70,2,99.999990463257
106,230,45043,5,0,0:0:0:0:
109,319,45519,2,0,L|242:319,1,99.999990463257
299,319,46472,1,0,0:0:0:0:
388,320,46948,2,0,L|388:207,1,99.999990463257
389,130,47900,5,0,0:0:0:0:
387,40,48376,2,0,L|267:40,1,99.999990463257
196,40,49329,1,0,0:0:0:0:
106,42,49805,2,0,L|106:152,1,99.999990463257
107,231,50757,1,0,0:0:0:0:
197,231,51234,6,0,P|221:182|298:183,1,99.999990463257
346,193,52186,2,0,P|341:130|306:100,1,99.999990463257
227,98,53138,1,0,0:0:0:0:
170,89,61234,6,0,L|286:89,1,99.999990463257
221,164,62186,2,0,L|337:164,1,99.999990463257
277,242,63138,2,0,L|393:242,1,99.999990463257
450,189,64091,5,0,0:0:0:0:
432,100,64567,2,0,B|405:56|405:56|347:39,2,99.999990463257
450,189,65995,1,0,0:0:0:0:
377,242,66472,6,0,L|277:242,1,99.999990463257
321,164,67424,2,0,L|221:164,1,99.999990463257
270,89,68376,2,0,L|170:89,1,99.999990463257
111,157,69329,1,0,0:0:0:0:
142,241,69805,6,0,P|164:278|231:286,1,99.999990463257
292,242,70757,1,0,0:0:0:0:
345,169,71234,1,0,0:0:0:0:
378,85,71710,6,0,L|271:85,1,99.999990463257
188,85,72662,2,0,B|137:85|137:85|91:111,1,99.999990463257
97,199,73615,2,0,B|140:222|140:222|190:223,1,99.999990463257
277,226,74567,2,0,B|327:225|327:225|370:201,1,99.999990463257
379,122,75519,5,0,0:0:0:0:
289,115,75995,2,0,L|181:115,1,99.999990463257
129,182,76948,1,0,0:0:0:0:
188,249,77424,2,0,L|288:249,1,99.999990463257
348,182,78376,1,0,0:0:0:0:
289,115,78853,2,0,L|181:115,1,99.999990463257
99,112,79805,5,0,0:0:0:0:
100,201,80281,1,0,0:0:0:0:
164,264,80757,2,0,B|198:298|198:298|263:298,1,99.999990463257
317,238,81710,1,0,0:0:0:0:
293,151,82186,2,0,B|259:117|259:117|194:117,1,99.999990463257
117,114,83138,6,0,B|67:100|67:100|44:35,2,99.999990463257
149,197,84567,1,0,0:0:0:0:
221,249,85043,2,0,B|274:248|274:248|331:216,1,99.999990463257
317,135,85995,1,0,0:0:0:0:
226,136,86472,2,0,L|95:136,2,99.999990463257
315,138,87900,5,0,0:0:0:0:
313,227,88376,2,0,L|258:324,2,99.999990463257
236,179,89805,1,0,0:0:0:0:
146,177,90281,2,0,B|127:190|127:190|144:236|144:236|119:269,2,99.999990463257
211,114,91710,5,10,0:0:0:0:
300,116,92186,6,0,L|330:241,1,99.999990463257
233,211,93138,2,0,L|263:336,1,99.999990463257
346,299,94091,2,0,L|469:255,1,99.999990463257
438,175,95043,2,0,L|361:97,1,99.999990463257
279,119,95995,5,0,0:0:0:0:
189,113,96472,2,0,B|148:143|148:143|124:198,1,99.999990463257
179,261,97424,1,0,0:0:0:0:
257,305,97900,2,0,P|333:327|389:301,1,99.999990463257
316,240,98853,5,0,0:0:0:0:
254,174,99329,2,0,P|330:152|386:178,1,99.999990463257
409,221,100281,2,0,P|390:297|339:333,1,99.999990463257
322,239,101234,1,0,0:0:0:0:
251,182,101710,6,0,L|163:126,1,99.999990463257
82,160,102662,2,0,L|166:213,1,99.999990463257
244,258,103615,1,0,0:0:0:0:
323,215,104091,2,0,P|333:170|310:122,1,99.999990463257
226,91,105043,1,0,0:0:0:0:
136,96,105519,2,0,P|91:124|69:186,1,99.999990463257
128,234,106472,5,0,0:0:0:0:
256,192,116472,12,8,121710,0:0:0:0:
305,222,137424,5,10,0:0:0:0:
263,142,137900,2,0,L|351:72,1,99.999990463257
376,162,138853,1,0,0:0:0:0:
308,221,139329,2,0,L|229:283,1,99.999990463257
157,229,140281,5,0,0:0:0:0:
184,139,140757,2,0,L|267:79,1,99.999990463257
354,91,141710,1,0,0:0:0:0:
341,180,142186,2,0,L|259:238,1,99.999990463257
177,202,143138,5,0,0:0:0:0:
250,153,143615,1,0,0:0:0:0:
322,100,144091,1,0,0:0:0:0:
406,131,144567,6,0,B|443:172|443:172|407:253,1,99.999990463257
379,290,145519,2,0,P|320:326|282:293,1,99.999990463257
229,258,146472,2,0,L|167:168,1,99.999990463257
188,87,147424,2,0,B|245:55|301:72|301:73,1,99.999990463257
334,139,148376,5,0,0:0:0:0:
278,209,148853,2,0,L|201:298,1,99.999990463257
132,243,149805,2,0,P|82:183|96:120,1,99.999990463257
260,295,152662,5,0,0:0:0:0:
170,297,153138,2,0,B|106:296|106:296|75:245,1,99.999990463257
84,185,154091,2,0,B|121:148|121:148|179:148,1,99.999990463257
258,156,155043,1,0,0:0:0:0:
347,155,155519,6,0,L|347:275,1,99.999990463257
284,319,156472,2,0,L|174:319,2,99.999990463257
373,318,157900,1,0,0:0:0:0:
403,235,158376,1,0,0:0:0:0:
378,148,158853,1,0,0:0:0:0:
304,96,159329,6,0,P|242:128|219:167,1,99.999990463257
141,182,160281,1,8,0:0:0:0:
166,268,160757,2,0,B|184:318|184:318|266:339,1,99.999990463257
312,293,161710,1,0,0:0:0:0:
378,232,162186,2,0,L|408:124,1,99.999990463257
343,69,163138,5,0,0:0:0:0:
252,70,163615,2,0,L|145:118,1,99.999990463257
159,203,164567,2,0,L|258:302,1,99.999990463257
319,276,165519,2,0,L|403:197,1,99.999990463257
384,117,166472,2,0,L|282:50,1,99.999990463257
220,95,167424,5,0,0:0:0:0:
218,184,167900,1,0,0:0:0:0:
213,267,168376,2,0,L|356:268,1,99.999990463257
308,177,169329,6,0,L|451:178,2,99.999990463257
233,126,170757,6,0,L|133:125,2,99.999990463257
324,127,172186,1,0,0:0:0:0:
397,179,172662,2,0,B|427:234|427:234|401:288,1,99.999990463257
330,308,173615,1,0,0:0:0:0:
240,306,174091,6,0,L|125:248,1,99.999990463257
151,171,175043,1,0,0:0:0:0:
215,108,175519,2,0,L|352:108,1,99.999990463257
379,171,176472,1,0,0:0:0:0:
326,244,176948,2,0,L|226:244,1,99.999990463257
172,173,177900,1,0,0:0:0:0:
117,101,178376,6,0,P|90:137|88:206,1,99.999990463257
170,216,179329,2,0,P|167:260|124:315,2,99.999990463257
227,146,180757,1,0,0:0:0:0:
317,150,181234,2,0,L|371:236,1,99.999990463257
328,314,182186,6,0,L|228:262,1,99.999990463257
