osu file format v5

[General]
AudioFilename: 01 - Hatsukoi limited.mp3
AudioLeadIn: 0
PreviewTime: -1
Countdown: 1
SampleSet: Soft
StackLeniency: 0.7
Mode: 0
LetterboxInBreaks: 1
SkinPreference:For Limited

[Editor]
DistanceSpacing: 0.800000011920929
BeatDivisor: 4
GridSize: 16

[Metadata]
Title:Hatsukoi Limited
Artist:Marble
Creator:S i R i R u
Version:Normal
Source:Hatsukoi Limited
Tags:anime

[Difficulty]
HPDrainRate:4
CircleSize:3
OverallDifficulty:6
SliderMultiplier:1.4
SliderTickRate:1

[Events]
//Background and Video events
0,0,"Untitled-1 copy.png"
//Break Periods
2,23342,27780
2,49939,57228
2,98573,101626
2,171064,182737
//Storyboard Layer 0 (Background)
//Storyboard Layer 1 (Fail)
//Storyboard Layer 2 (Pass)
//Storyboard Layer 3 (Foreground)
//Storyboard Sound Samples
//Background Colour Transformations
3,100,163,162,255

[TimingPoints]
13970,461.538461538462,4,2,0,100,1,0

[HitObjects]
112,64,13970,1,8
112,144,14432,1,0
112,224,14893,2,0,B|32:224,2,70,8|0|8
416,64,15816,5,8
416,144,16278,1,0
416,224,16739,2,8,B|496:224,2,70,8|0|8
192,144,17662,5,2
320,144,18124,1,2
200,256,18585,2,0,B|216:288|296:304|328:240,2,140,4|0|4
256,192,20893,12,0,23201
96,48,28739,5,0
176,48,29201,1,0
256,48,29662,2,8,B|400:48,2,140
256,128,31047,1,0
192,256,32432,5,0
256,192,32893,1,0
320,256,33355,1,0
160,320,33816,6,0,B|80:320,2,70,8|8|0
352,320,34739,2,0,B|448:320,2,70,8|8|0
256,320,35662,1,8
256,192,36124,5,8
320,288,36586,1,0
192,288,37047,1,8
256,192,37509,1,0
256,80,37970,1,8
144,80,38432,5,0
144,192,38893,1,0
144,192,39355,2,8,B|288:192,3,140
256,96,41432,6,2,B|256:144,2,35
336,272,42585,1,0
256,272,43046,1,0
176,272,43508,1,4
256,192,43970,5,0
336,192,44432,2,0,B|416:144,2,70
464,128,45355,2,0,B|464:32,3,70
256,192,46739,5,8
256,192,47201,1,0
176,192,47662,2,0,B|96:144,4,70,8|0|8|0|8
48,128,49047,2,0,B|48:48,3,70,0|0|0|12
112,112,58278,5,8
208,112,58739,1,0
304,112,59201,1,8
400,112,59662,1,0
400,272,60124,5,8
304,272,60585,1,0
208,272,61047,1,8
112,272,61509,1,0
256,232,62201,5,0
256,232,62432,1,0
256,232,62662,1,0
256,232,62893,1,8
272,64,63355,6,2,L|240:96|272:96|240:112|272:112|240:128|272:128|240:144|272:144|240:160|272:160|240:176|272:176|240:192|272:192|240:208|256:208|256:240,1,560
320,336,65662,6,2,L|400:336,2,70
192,336,66585,2,2,L|96:336,2,70
256,256,67509,1,8
256,160,67970,1,0
256,160,68201,2,0,L|352:160,5,70
256,64,69816,6,8,L|256:0,2,35
256,240,71201,1,0
256,336,71662,1,0
256,336,71893,1,0
256,336,72124,1,0
256,192,73047,5,0
256,192,73278,1,0
256,192,73509,1,0
256,192,73739,1,0
256,192,73970,1,0
384,48,74432,5,8
256,48,74893,1,0
128,48,75355,1,8
128,176,75816,1,0
256,176,76278,1,8
392,176,76739,2,0,L|392:96,2,70,0|0|8
336,256,77662,2,0,B|352:384|128:384|176:224,1,280
160,176,79047,5,8
256,80,79509,1,0
352,176,79970,1,8
256,288,80432,2,0,B|256:336,4,35
256,192,81124,1,8
96,176,82047,5,8
160,208,82278,1,0
224,176,82508,1,8
288,208,82739,1,0
352,176,82970,1,8
416,208,83201,1,0
256,48,83662,6,8,L|256:96|256:208,1,140
256,192,84585,1,0
256,192,84816,1,0
416,240,85278,5,0
416,240,85508,1,8
336,304,85739,1,0
336,304,85970,1,8
256,240,86201,1,0
256,240,86432,1,8
176,304,86662,1,0
64,192,87355,1,0
160,112,87816,5,0
256,192,88278,1,0
320,240,88508,2,2,L|400:304,3,70
352,112,89662,1,0
256,192,90124,1,0
192,240,90355,2,2,L|128:288,3,70
192,128,91508,5,8
320,256,91970,1,0
192,256,92432,1,8
320,128,92893,1,0
192,256,93355,1,8
320,256,93816,1,0
256,192,94278,5,10
256,192,94508,1,10
256,192,94739,12,0,97047
192,192,97970,5,0
256,192,98201,1,0
320,192,98432,1,4
416,64,102585,5,0
384,128,102816,1,0
352,192,103047,1,8
352,304,103508,1,0
256,304,103970,1,4
160,304,104432,1,0
160,192,104893,1,8
256,192,105355,1,0
256,192,105816,1,0
96,64,106278,5,0
128,128,106508,1,0
160,192,106739,1,8
160,304,107201,1,0
256,304,107662,1,8
352,304,108124,1,0
352,192,108585,1,8
256,192,109047,1,0
256,192,109278,1,0
256,192,109508,1,2
128,192,109970,5,0
192,192,110201,1,2
256,192,110432,1,0
320,192,110662,1,2
384,192,110893,1,0
128,48,111355,5,8
192,48,111585,1,0
256,48,111816,1,8
384,128,112278,1,8
320,128,112508,1,0
256,128,112739,1,8
256,272,113893,5,0
208,352,114124,2,2,L|160:352,2,35
304,352,114585,2,2,L|352:352,2,35
256,144,115278,5,0
208,256,115739,1,0
208,256,115970,1,0
304,256,116201,1,0
304,256,116432,1,0
256,144,116893,2,0,B|256:64,2,70,0|0|4
160,192,118278,5,0
336,192,118739,1,0
256,192,119201,12,0,119893
256,192,120585,5,0
256,192,120816,1,0
256,192,121047,1,4
256,96,121970,5,0
256,288,122432,1,0
256,192,122893,12,0,123585
256,224,124278,5,0
256,48,124739,2,0,B|176:128|320:192|240:336,1,280
288,96,126586,1,0
224,160,126816,1,0
288,224,127047,1,0
224,288,127278,1,0
96,144,127970,5,0
176,240,128432,1,0
256,144,128893,1,0
336,240,129355,1,0
416,144,129816,1,0
256,192,130278,5,8
256,192,130508,1,0
256,192,130739,1,8
256,192,130970,1,0
256,192,131201,1,8
256,192,131432,1,0
256,192,131662,1,12
160,64,132124,5,4
160,144,132585,1,0
160,224,133047,2,8,B|80:224,2,70
352,64,133970,5,0
352,144,134432,1,0
352,224,134893,2,8,B|432:224,2,70
224,96,136047,2,0,B|320:96,3,70
192,192,137201,6,0,B|144:192,2,35
256,256,137662,2,0,B|256:304,2,35
320,192,138124,2,0,B|368:192,2,35
256,128,138585,2,0,B|256:80,2,35
256,192,139047,5,0
336,272,139508,1,8
176,272,139970,1,8
336,272,140432,1,8
176,272,140893,1,8
336,192,141355,1,8
176,192,141816,1,0
256,272,142278,1,0
336,272,142509,2,0,B|336:320|384:320|416:336|448:272|432:208|368:208,1,210
192,80,143662,5,0
160,128,143893,1,0
320,80,144355,5,0
352,128,144585,1,0
256,32,145047,6,0,C|256:112,3,70
256,192,146432,5,8
256,192,146893,1,0
112,128,147355,2,0,B|112:208,4,70,8|0|8|0|8
256,192,148739,5,0
320,128,149201,1,0
400,128,149662,2,0,B|400:224,4,70,8|0|8|0|8
256,304,151047,5,0
256,304,151509,1,0
256,128,152432,6,0,C|256:80,2,35
320,192,152893,2,0,C|384:192,2,35
256,256,153355,2,0,C|256:304,2,35
256,192,153816,2,2,B|80:192,3,140
96,112,155662,5,8
144,192,156124,2,0,B|224:192,3,70
304,192,157278,2,0,B|400:192,3,70
416,336,158662,1,8
192,192,159355,5,0
256,128,159816,1,0
256,256,160278,1,0
320,192,160739,1,0
128,96,161662,5,2
208,96,162124,1,2
288,96,162585,2,8,B|464:96,1,140
384,288,163509,5,2
304,288,163970,1,2
224,288,164432,2,8,B|64:288,1,140
192,128,165355,5,8
336,128,165816,1,0
192,256,166278,1,8
336,256,166739,1,0
192,128,167201,1,8
336,128,167662,1,0
256,192,168124,5,4
256,192,168585,12,2,170893
192,64,183816,6,0,B|192:208,1,140,0|8
96,128,184739,2,0,B|96:288,1,140,0|8
320,64,185662,6,0,B|320:240,1,140,0|8
416,128,186585,2,0,B|416:288,1,140,0|8
256,64,187509,6,2,B|256:144,2,70
256,192,188432,1,8
128,192,188893,1,0
32,272,189355,1,8
128,352,189816,1,0
256,352,190278,2,8,B|336:352,1,70
400,352,190739,1,2
496,272,191201,6,2,B|496:128,2,140
384,224,192585,1,0
288,160,193047,1,8
208,160,193278,1,8
128,160,193509,2,2,B|-16:160,2,140
192,224,194662,1,8
256,288,194893,1,8
400,288,195355,1,0
400,288,195816,1,8
256,288,196278,1,0
256,112,196739,5,8
256,112,197201,1,0
256,112,197662,1,8
256,112,198124,1,0
256,208,198585,1,8
176,304,199047,2,2,B|128:304,2,35
336,304,199509,2,2,B|384:304,2,35
256,304,199970,2,2,B|256:256,4,35
160,192,200893,5,8
352,192,201355,5,0
208,144,201816,5,8
304,240,202278,5,0
256,96,202739,5,8
256,288,203201,5,0
304,144,203662,5,8
208,240,204124,5,0
352,192,204585,5,8
160,192,205047,5,0
256,128,205509,6,2,B|256:208,5,70
256,320,207124,1,0
320,320,207355,1,0
384,320,207585,1,0
448,320,207816,1,0
192,192,209201,5,0
256,256,209662,5,0
256,128,210124,5,0
320,192,210585,5,0
144,96,211047,5,8
224,96,211509,1,8
304,96,211970,2,2,L|400:96,4,70
368,288,213355,5,8
288,288,213816,1,8
208,288,214278,2,2,L|112:288,3,70
192,192,215662,6,0,L|144:192,2,35
256,128,216124,2,0,L|256:80,2,35
320,192,216585,2,0,L|368:192,2,35
256,256,217047,2,0,L|256:304,2,35
256,192,217509,5,0
256,96,217970,1,8
256,96,218432,1,0
256,192,218893,1,8
256,288,219355,1,8
256,288,219585,1,0
256,288,219816,1,8
128,192,220509,5,8
192,192,220739,1,0
256,192,220970,1,8
320,192,221201,1,0
384,192,221432,1,8
256,96,222124,5,0
256,192,222585,2,2,B|256:336,2,140
256,112,223970,5,0
256,192,224432,1,0
256,272,224893,1,0
256,112,225816,1,0
176,112,226278,5,0
256,192,226739,1,0
304,240,226970,2,8,B|368:304,3,70
336,112,228124,5,0
256,192,228585,1,0
208,240,228816,2,8,B|144:304,3,70
192,128,229970,5,0
320,128,230432,1,0
192,256,230893,1,0
320,256,231355,1,0
192,256,231816,5,0
320,128,232278,1,0
192,256,232739,1,0
256,192,233201,12,0,235509
256,112,236432,5,0
256,192,236662,1,0
256,272,236893,2,0,B|256:320,2,35,4|0|0
