osu file format v8

[General]
AudioFilename: Dragon Boss Battle.mp3
AudioLeadIn: 0
PreviewTime: -1
Countdown: 1
SampleSet: Normal
StackLeniency: 0.7
Mode: 0
LetterboxInBreaks: 1

[Editor]
DistanceSpacing: 1.39999997615814
BeatDivisor: 4
GridSize: 8

[Metadata]
Title:Dragon Boss Battle
Artist:Maplestory
Creator:Kissflying
Version:LEVEL 70
Source:Online game maplestory
Tags:

[Difficulty]
HPDrainRate:4
CircleSize:4
OverallDifficulty:3
ApproachRate:2
SliderMultiplier:1
SliderTickRate:1

[Events]
//Background and Video events
0,0,"1.jpg"
//Break Periods
//Storyboard Layer 0 (Background)
//Storyboard Layer 1 (Fail)
//Storyboard Layer 2 (Pass)
//Storyboard Layer 3 (Foreground)
//Storyboard Sound Samples
//Background Colour Transformations
3,100,163,162,255

[TimingPoints]
13714,428.571428571429,4,1,0,100,1,0
109714,-100,4,1,0,100,0,1

[Colours]
Combo1 : 61,61,61
Combo2 : 0,0,0
Combo3 : 8,8,8
Combo4 : 35,35,35

[HitObjects]
32,33,13713,2,0,B|32:141,1,100
32,200,14356,1,0
32,200,14571,1,0
479,353,15428,6,0,B|479:248,1,100
480,184,16071,1,0
480,184,16285,1,0
33,350,17142,6,0,B|140:351,1,100
200,352,17785,1,0
200,352,17999,1,0
476,36,18856,6,0,B|376:36,1,100
304,32,19499,1,0
304,32,19714,1,0
76,36,20571,5,0
74,136,20999,1,0
174,137,21428,1,0
172,237,21856,1,0
272,239,22285,1,0
272,239,22714,1,0
372,239,23142,1,0
372,239,23571,1,0
371,35,23999,5,0
271,33,24428,1,0
270,133,24856,1,0
170,132,25285,1,0
168,232,25714,1,0
168,232,26142,1,0
268,232,26571,1,0
268,232,26999,1,0
477,342,27428,5,0
479,242,27856,1,8
480,144,28285,1,0
480,40,28714,1,8
256,48,29142,1,0
256,141,29571,1,8
256,241,29999,1,8
256,241,30428,1,8
256,192,30856,12,0,32142
256,195,32571,5,0
256,195,32999,1,0
256,195,33428,1,0
256,195,33856,1,0
474,194,34285,5,0
476,94,34714,1,0
376,94,35142,1,0
276,96,35571,1,0
176,94,35999,1,0
175,144,36214,1,0
175,194,36428,1,0
174,244,36642,1,0
174,294,36856,1,0
174,344,37071,1,0
224,344,37285,1,0
324,344,37714,5,0
424,344,38142,1,0
424,244,38571,1,0
424,144,38999,1,0
424,44,39428,1,8
374,44,39642,1,8
324,44,39856,1,8
274,44,40071,1,8
224,44,40285,1,8
174,46,40499,1,8
124,46,40714,1,8
80,136,41142,5,0
80,336,41999,1,8
280,336,42856,5,0
280,232,43285,1,8
280,128,43714,1,8
280,32,44142,1,8
384,32,44571,5,0
384,80,44785,1,0
384,128,44999,1,8
384,176,45214,1,8
312,176,45428,5,0
312,128,45642,1,0
312,80,45856,1,8
312,32,46071,1,8
256,192,46285,12,0,47571
477,30,47999,6,0,B|477:138,1,100
477,130,48642,1,0
408,128,48856,2,0,B|408:240,1,100
408,228,49499,1,0
332,231,49714,6,0,B|332:175,3,50
259,230,50571,2,0,B|210:230,3,50
258,152,51428,6,0,B|258:91,1,50
258,152,51856,2,0,B|188:152,1,50
258,152,52285,2,0,B|319:152,3,50
258,255,53142,6,8,B|308:255,1,50
258,255,53571,2,8,B|258:321,1,50
258,255,53999,2,8,B|198:256,3,50
160,256,54856,6,0,B|472:256,1,300
464,152,56571,1,0
376,191,56999,1,0
276,190,57428,1,0
176,190,57856,1,0
232,104,58285,6,0,B|184:24|184:24|136:96|136:96|0:96,1,300
48,192,59999,1,0
84,192,60214,1,0
134,192,60428,1,0
184,192,60642,1,0
234,193,60856,1,0
284,192,61071,1,0
334,191,61285,1,0
424,144,61714,6,0,B|424:352|424:352|320:352,1,300
256,336,63428,5,0
256,298,63642,1,0
254,248,63856,1,0
254,198,64071,1,0
254,148,64285,1,0
255,98,64499,1,0
256,48,64714,1,0
160,48,65142,5,0
160,248,65999,1,8
336,160,66856,2,0,B|352:136,12,25
255,88,68571,6,8,B|219:88,2,25
255,162,68999,1,8
255,162,69214,1,8
256,232,69428,2,8,B|288:232,2,25
254,302,69856,1,8
254,302,70071,1,8
184,302,70285,6,8,B|139:302,2,25
185,232,70714,1,8
185,232,70928,1,8
184,160,71142,2,8,B|144:160,2,25
186,92,71571,1,8
186,92,71785,1,8
116,90,71999,6,8,B|116:51,2,25
46,90,72428,1,8
46,90,72642,1,8
48,160,72856,2,8,B|88:160,2,25
46,230,73285,1,8
46,230,73499,1,8
116,232,73714,6,8,B|116:273,2,25
184,232,74142,1,8
184,200,74249,1,8
184,168,74356,1,8
256,168,74571,2,8,B|256:200,2,25
396,230,75428,6,8,B|431:230,2,25
396,160,75856,2,8,B|360:160,2,25
400,88,76285,2,8,B|400:48,2,25
328,88,76714,1,8
328,88,76928,1,8
256,88,77142,6,8,B|256:48,2,25
187,91,77571,2,8,B|187:131,2,25
120,88,77999,2,8,B|80:88,2,25
120,160,78428,1,8
120,160,78642,1,8
120,232,78856,6,8,B|88:232,2,25
117,299,79285,2,8,B|116:333,2,25
184,296,79714,2,8,B|184:320,2,25
256,296,80142,1,8
256,296,80356,1,8
328,296,80571,6,8,B|352:296,2,25
328,224,80999,2,8,B|360:224,2,25
328,152,81428,2,0,B|296:152,6,25
256,192,82285,12,0,83571
479,192,83999,5,8
429,192,84214,1,8
379,192,84428,1,8
329,192,84642,1,8
279,192,84856,1,8
229,192,85071,1,8
179,192,85285,1,8
256,192,85714,12,0,86999
40,184,87428,5,0
88,184,87642,1,0
136,184,87856,1,0
184,184,88071,1,0
232,184,88285,1,0
280,184,88499,1,0
328,184,88714,1,0
408,248,89142,5,0
408,48,89999,1,8
208,48,90856,5,0
208,248,91714,1,8
8,248,92571,5,0
8,152,92999,1,0
8,248,93428,1,8
8,152,93856,1,8
104,192,94285,5,8
152,192,94499,1,8
200,192,94714,1,8
248,192,94928,1,8
296,192,95142,2,12,B|336:192,4,25
477,37,95999,5,0
277,37,96856,1,0
280,237,97714,1,8
230,238,97928,1,8
180,237,98142,1,8
130,236,98356,1,8
80,235,98571,1,8
81,185,98785,1,8
80,135,98999,1,8
77,352,99428,5,0
277,352,100285,1,0
477,351,101142,1,8
477,301,101356,1,8
478,251,101571,1,8
478,201,101785,1,8
479,151,101999,1,8
480,101,102214,1,8
480,51,102428,1,8
380,48,102856,5,0
381,148,103285,1,0
281,148,103714,1,0
284,248,104142,1,0
184,248,104571,5,8
185,348,104999,1,8
85,345,105428,1,8
88,245,105856,1,8
88,145,106285,5,0
88,145,106499,1,0
88,72,106714,1,8
88,72,106928,1,8
160,72,107142,1,0
160,72,107356,1,0
160,144,107571,1,8
160,144,107785,1,8
232,144,107999,6,8,B|232:88,3,50
304,96,108856,1,8
376,96,109071,1,8
376,168,109285,1,8
448,168,109499,1,8
481,38,109714,5,2
479,238,110571,1,2
279,242,111428,1,2
79,244,112285,1,2
78,44,113142,5,2
278,46,113999,1,2
78,47,114856,1,2
278,48,115714,1,2
478,45,116571,5,2
479,145,116999,1,2
379,144,117428,1,2
378,244,117856,1,2
278,244,118285,5,2
279,344,118714,1,2
179,342,119142,1,2
79,341,119571,1,2
80,241,119999,5,2
180,242,120428,1,2
181,142,120856,1,2
81,140,121285,1,2
84,40,121714,5,2
184,42,122142,1,2
284,44,122571,1,2
384,45,122999,1,2
484,46,123428,5,2
484,46,123856,1,2
485,146,124285,1,2
485,146,124714,1,2
484,246,125142,1,2
484,246,125571,1,2
484,346,125999,1,2
484,346,126428,1,2
384,344,126856,5,2
384,344,127285,1,2
284,344,127714,1,2
284,344,128142,1,2
184,344,128571,1,2
184,344,128999,1,2
84,343,129428,1,2
84,343,129856,1,2
85,203,130285,6,2,B|84:142,1,50
154,152,130714,2,2,B|154:212,1,50
224,208,131142,2,2,B|224:152,1,50
294,156,131571,2,2,B|294:207,1,50
364,211,131999,6,2,B|364:156,1,50
434,160,132428,2,2,B|434:217,1,50
431,280,132856,2,2,B|432:332,3,50
360,328,133714,6,2,B|360:272,3,50
288,280,134571,2,2,B|288:336,3,50
222,332,135428,2,0,B|222:280,3,50
152,280,136285,2,0,B|96:280,3,50
104,208,137142,6,0,B|160:208,3,50
152,136,137999,2,0,B|152:72,3,50
223,94,138856,2,0,B|224:120,12,25
448,192,140571,5,4
